VERSION	0.00.00	1.05.00
FES_MODE	0
BPM_DEF	130.000	130.000	130.000	130.000
MET_DEF	4	4
RESOLUTION	384
CLK_DEF	384
COMPATIBLE_CODE	MA2

BPM	0	0	130.000
MET	0	0	4	4

NMTAP	2	0	3
NMTAP	2	192	3
NMTAP	3	0	2
NMTAP	3	192	2
NMTAP	4	0	1
NMTAP	4	192	1
NMTAP	5	0	0
NMTAP	5	192	0
NMTAP	6	0	7
NMTAP	6	192	7
NMTAP	7	0	6
NMTAP	7	192	6
NMTAP	8	0	5
NMTAP	8	192	5
NMTAP	9	0	3
NMTAP	9	0	4
NMTAP	10	0	4
NMTAP	10	0	5
NMTAP	10	192	4
NMTAP	10	192	5
NMTAP	11	0	4
NMTAP	11	0	5
NMTAP	12	0	6
NMTAP	12	0	7
NMTAP	12	192	6
NMTAP	12	192	7
NMTAP	13	0	6
NMTAP	13	0	7
NMTAP	14	0	0
NMTAP	14	0	1
NMTAP	14	192	0
NMTAP	14	192	1
NMTAP	15	0	0
NMTAP	15	0	1
NMTAP	16	0	2
NMTAP	16	0	3
NMTAP	16	192	2
NMTAP	16	192	3
NMTAP	17	0	2
NMTAP	17	0	3
NMTTP	18	0	3	B	0	L1
NMTTP	19	0	2	B	0	L1
NMTTP	20	0	1	B	0	L1
NMTTP	21	0	0	B	0	L1
NMTTP	22	0	7	B	0	L1
NMTTP	23	0	6	B	0	L1
NMTTP	24	0	5	B	0	L1
NMTTP	25	0	0	C	1	L1
BRTAP	26	0	0
NMTAP	26	96	0
NMTAP	26	192	0
NMTAP	27	0	1
NMTAP	27	192	1
NMTAP	28	0	2
NMTAP	28	96	2
NMTAP	28	192	2
NMTAP	29	0	3
NMTAP	29	0	4
NMTAP	29	192	3
NMTAP	29	192	4
NMTAP	30	0	4
NMTAP	30	96	4
NMTAP	30	192	4
NMTAP	31	0	5
NMTAP	31	192	5
NMTAP	32	0	6
NMTAP	32	96	6
NMTAP	32	192	6
NMTAP	33	0	0
NMTAP	33	0	7
NMTAP	33	192	0
NMTAP	33	192	7
NMTAP	34	0	7
BXTAP	34	96	7
NMTAP	34	192	7
NMTAP	35	0	6
NMTAP	35	96	6
NMTAP	35	192	6
NMTAP	36	0	5
NMTAP	36	96	5
NMTAP	36	192	5
NMTAP	37	0	3
NMTAP	37	0	4
NMTAP	37	192	3
NMTAP	37	192	4
NMTAP	38	0	3
NMTAP	38	96	3
NMTAP	38	192	3
NMTAP	39	0	2
NMTAP	39	96	2
NMTAP	39	192	2
NMTAP	40	0	1
NMTAP	40	96	1
NMTAP	40	192	1
NMTAP	41	0	0
NMTAP	41	96	0
NMTAP	41	192	0
BXTAP	42	0	0
BXTAP	42	0	7
NMSTR	43	0	0
NMSI_	43	0	0	96	288	4
NMSTR	45	0	7
NMSI_	45	0	7	96	288	3
NMSTR	47	0	1
NMSI_	47	0	1	96	288	5
NMSTR	49	0	6
NMSI_	49	0	6	96	288	2
NMTAP	51	0	0
NMTAP	51	96	0
NMTAP	51	192	0
NMTAP	52	0	0
NMTAP	52	0	1
NMTAP	52	192	0
NMTAP	52	192	1
NMTAP	53	0	2
NMTAP	53	96	2
NMTAP	53	192	2
NMTAP	54	0	3
NMTAP	54	0	4
NMTAP	54	192	3
NMTAP	54	192	4
NMTAP	55	0	4
NMTAP	55	96	4
NMTAP	55	192	4
NMTAP	56	0	4
NMTAP	56	0	5
NMTAP	56	192	4
NMTAP	56	192	5
NMTAP	57	0	6
NMTAP	57	96	6
NMTAP	57	192	6
NMTAP	58	0	0
NMTAP	58	0	7
NMHLD	59	0	6	384
NMHLD	59	0	7	384
NMHLD	61	0	4	384
NMHLD	61	0	5	384
NMHLD	63	0	2	384
NMHLD	63	0	3	384
NMHLD	65	0	0	384
NMHLD	65	0	1	384
BRTAP	67	0	0
BRTAP	67	0	7
NMTAP	68	0	0
NMTAP	68	96	0
NMTAP	68	192	0
EXTAP	69	0	1
NMTAP	69	96	1
NMTAP	69	192	0
NMTAP	69	192	1
NMTAP	70	0	2
NMTAP	70	96	2
NMTAP	70	192	2
NMTAP	71	0	3
NMTAP	71	96	3
NMTAP	71	192	3
NMTAP	71	192	4
NMTAP	72	0	4
NMTAP	72	96	4
NMTAP	72	192	4
NMTAP	73	0	5
NMTAP	73	96	5
NMTAP	73	192	4
NMTAP	73	192	5
NMTAP	74	0	6
NMTAP	74	96	6
NMTAP	74	192	6
NMTAP	75	0	7
NMTAP	75	96	7
NMTAP	75	192	0
NMTAP	75	192	7
NMTAP	76	0	7
BRTAP	76	96	7
NMTAP	76	192	7
NMTAP	76	288	7
NMTAP	77	0	6
NMTAP	77	96	6
NMTAP	77	192	6
NMTAP	77	192	7
NMTAP	78	0	5
NMTAP	78	96	5
NMTAP	78	192	5
NMTAP	78	288	5
NMTAP	79	0	4
NMTAP	79	96	4
NMTAP	79	192	3
NMTAP	79	192	4
NMTAP	80	0	3
NMTAP	80	96	3
NMTAP	80	192	3
NMTAP	80	288	3
NMTAP	81	0	2
NMTAP	81	96	2
NMTAP	81	192	2
NMTAP	81	192	3
NMTAP	82	0	1
NMTAP	82	96	1
NMTAP	82	192	1
NMTAP	82	288	1
NMTAP	83	0	0
NMTAP	83	96	0
NMTAP	83	192	0
NMTAP	83	192	7
NMHLD	84	0	0	384
NMHLD	84	0	7	384

T_REC_TAP	171
T_REC_BRK	4
T_REC_XTP	1
T_REC_BXX	3
T_REC_HLD	10
T_REC_XHO	0
T_REC_BHO	0
T_REC_BXH	0
T_REC_STR	4
T_REC_BST	0
T_REC_XST	0
T_REC_XBS	0
T_REC_TTP	8
T_REC_THO	0
T_REC_SLD	4
T_REC_BSL	0
T_REC_ALL	205
T_NUM_TAP	184
T_NUM_BRK	7
T_NUM_HLD	10
T_NUM_SLD	4
T_NUM_ALL	205
T_JUDGE_TAP	191
T_JUDGE_HLD	80
T_JUDGE_SLD	4
T_JUDGE_ALL	275
TTM_EACHPAIRS	41
TTM_SCR_TAP	92000
TTM_SCR_BRK	18200
TTM_SCR_HLD	10000
TTM_SCR_SLD	6000
TTM_SCR_ALL	126200
TTM_SCR_S	121750
TTM_SCR_SS	125500
TTM_RAT_ACV	10055

