VERSION	0.00.00	1.05.00
FES_MODE	0
BPM_DEF	205.000	205.000	205.000	205.000
MET_DEF	4	4
RESOLUTION	384
CLK_DEF	384
COMPATIBLE_CODE	MA2

BPM	0	0	205.000
MET	0	0	4	4

NMTAP	1	240	3
NMTAP	1	240	4
NMHLD	1	288	3	96
NMHLD	1	288	4	96
NMSTR	2	96	2
NMSI_	2	96	2	96	48	0
NMSTR	2	96	3
NMSI_	2	96	3	96	48	6
NMTTP	2	192	2	B	0	M1
NMTTP	2	192	2	E	0	M1
NMTTP	2	192	3	B	1	M1
NMTTP	2	192	4	E	0	M1
NMTAP	3	0	6
NMTAP	3	0	7
NMTAP	3	64	4
NMTAP	3	64	5
NMTAP	3	128	2
NMTAP	3	128	3
NMTAP	3	192	0
NMTAP	3	192	1
NMTAP	3	256	6
NMTAP	3	256	7
NMTAP	3	320	4
NMTAP	3	320	5
NMSTR	4	0	2
NMSI_	4	0	2	96	48	6
NMSTR	4	0	3
NMSI_	4	0	3	96	48	7
NMSTR	4	192	4
NMSCL	4	192	4	96	48	1
NMSTR	4	192	5
NMSCR	4	192	5	96	48	0
NMTTP	5	0	1	B	0	M1
NMTTP	5	0	1	A	0	M1
NMTTP	5	0	2	B	0	M1
NMTTP	5	0	2	E	0	M1
NMTTP	5	0	2	A	0	M1
NMTTP	5	0	2	D	0	M1
NMTTP	5	0	5	B	0	M1
NMTTP	5	0	5	A	0	M1
NMTTP	5	0	6	B	0	M1
NMTTP	5	0	6	E	1	M1
NMTTP	5	0	6	A	0	M1
NMTTP	5	0	6	D	0	M1
NMSTR	5	192	0
NMSI_	5	192	0	96	48	4
NMTAP	5	288	0
NMTAP	5	288	6
NMSTR	6	0	7
NMSI_	6	0	7	96	48	3
NMSTR	6	96	1
NMSI_	6	96	1	96	48	5
NMTAP	6	96	7
NMSTR	6	192	4
NMSI_	6	192	4	96	48	6
NMTAP	6	288	0
NMSTR	7	0	0
NMSI_	7	0	0	96	48	4
NMTAP	7	96	0
NMTAP	7	96	6
NMSTR	7	192	7
NMSI_	7	192	7	96	48	3
NMTAP	7	288	1
NMTAP	7	288	7
NMSTR	8	0	0
NMSI_	8	0	0	96	48	4
NMTAP	8	96	0
NMSTR	8	96	6
NMSI_	8	96	6	96	48	2
NMSTR	8	192	3
NMSI_	8	192	3	96	48	1
NMTAP	8	288	7
NMSTR	9	0	7
NMSI_	9	0	7	96	48	3
NMTAP	9	96	1
NMTAP	9	96	7
NMSTR	9	192	0
NMSI_	9	192	0	96	48	4
NMTAP	9	288	0
NMTAP	9	288	6
NMSTR	10	0	7
NMSI_	10	0	7	96	48	3
NMSTR	10	96	1
NMSI_	10	96	1	96	48	5
NMTAP	10	96	7
NMSTR	10	192	4
NMSI_	10	192	4	96	48	6
NMTAP	10	288	0
NMSTR	11	0	0
NMSI_	11	0	0	96	48	4
NMTAP	11	96	0
NMTAP	11	96	6
NMSTR	11	192	7
NMSI_	11	192	7	96	48	3
NMTAP	11	288	1
NMTAP	11	288	7
NMSTR	12	0	0
NMSI_	12	0	0	96	48	4
NMTAP	12	96	0
NMSTR	12	96	6
NMSCL	12	96	6	96	48	3
NMTAP	12	192	2
NMSTR	12	288	0
BRSXL	12	288	0	96	192	0
NMHLD	13	0	4	192
NMTAP	13	288	1
NMTAP	13	288	3
NMHLD	14	0	1	192
NMHLD	14	0	3	192
NMTAP	14	288	2
NMTAP	14	288	4
NMHLD	15	0	3	192
NMHLD	15	0	5	192
NMTAP	15	288	2
NMTAP	15	288	6
NMTAP	15	336	2
NMTAP	15	336	6
NMTTP	16	48	3	E	0	M1
NMTTP	16	144	2	D	0	M1
NMSTR	16	288	7
BRSXR	16	288	7	96	192	7
NMHLD	17	0	3	192
NMSTR	17	288	4
NMSI_	17	288	4	96	144	0
NMSTR	17	288	6
NMSI_	17	288	6	96	144	2
NMSTR	18	288	1
NMSXR	18	288	1	96	288	5
NMTAP	18	288	3
NMHLD	19	0	4	288
NMTAP	20	48	3
NMTAP	20	48	5
NMHLD	20	144	2	96
NMHLD	20	144	4	96
BRTAP	20	288	2
BRTAP	20	288	3
NMSTR	21	0	0
NMSI_	21	0	0	96	48	4
NMTAP	21	96	0
NMSTR	21	192	0
NMSI_	21	192	0	96	48	4
NMTAP	21	288	0
NMSTR	22	0	1
NMSI_	22	0	1	96	48	3
NMSTR	22	48	7
NMSI_	22	48	7	96	48	5
NMTAP	22	96	1
NMTAP	22	144	7
EXSTR	22	192	0
NMSI_	22	192	0	96	48	4
NMTAP	22	288	0
NMSTR	23	0	0
NMSI_	23	0	0	96	48	4
NMTAP	23	96	0
NMSTR	23	192	0
NMSI_	23	192	0	96	48	4
NMTAP	23	288	6
NMHLD	23	336	6	96
NMTAP	24	48	4
NMTAP	24	144	3
NMTAP	24	144	5
NMSTR	24	192	3
NMSI_	24	192	3	96	48	0
NMTAP	24	192	5
NMTAP	24	288	6
NMSTR	25	0	7
NMSI_	25	0	7	96	48	3
NMTAP	25	96	7
NMSTR	25	192	7
NMSI_	25	192	7	96	48	3
NMTAP	25	288	7
NMSTR	26	0	6
NMSI_	26	0	6	96	48	4
NMSTR	26	48	0
NMSI_	26	48	0	96	48	2
NMTAP	26	96	6
NMTAP	26	144	0
EXSTR	26	192	7
NMSI_	26	192	7	96	48	3
NMTAP	26	288	7
NMSTR	27	0	7
NMSI_	27	0	7	96	48	3
NMTAP	27	96	7
NMSTR	27	192	7
NMSI_	27	192	7	96	48	3
NMTAP	27	288	1
NMSTR	27	336	0
NMSI_	27	336	0	96	48	4
NMSTR	28	48	0
NMSI_	28	48	0	96	48	3
NMSI_	28	48	0	96	48	5
BXTAP	28	144	0
NMSTR	28	288	7
NMSCL	28	288	7	96	288	0
NMTTP	29	0	4	E	1	M1
NMSTR	29	288	7
NMSCL	29	288	7	96	288	0
NMTTP	30	0	0	C	1	M1
NMSTR	30	288	7
NMSCL	30	288	7	96	288	0
NMTTP	31	0	0	E	1	M1
NMTAP	31	288	7
NMTTP	32	0	0	B	0	M1
NMTTP	32	0	0	E	0	M1
NMTTP	32	0	6	B	0	M1
NMTTP	32	0	7	E	0	M1
NMTAP	32	240	3
NMTAP	32	288	3
NMTAP	32	336	2
NMTAP	32	336	4
NMHLD	33	0	2	48
NMHLD	33	0	4	48
NMTAP	33	96	5
NMTAP	33	144	5
NMTAP	33	192	4
NMTAP	33	240	3
NMTAP	33	288	2
NMHLD	33	336	2	48
NMHLD	33	336	3	48
NMHLD	34	48	3	48
NMHLD	34	48	4	48
NMHLD	34	144	4	48
NMHLD	34	144	5	48
NMTAP	34	240	3
NMTAP	34	288	2
NMTAP	34	336	1
NMHLD	35	0	1	96
NMTAP	35	96	7
NMTAP	35	144	6
NMHLD	35	192	5	96
NMTAP	35	288	3
NMTAP	35	336	3
NMTAP	36	48	2
NMTAP	36	48	4
NMSTR	36	96	2
NMSI_	36	96	2	96	48	0
NMSTR	36	96	4
NMSI_	36	96	4	96	48	6
BRTAP	36	192	2
BRTAP	36	192	4
EXSTR	36	288	1
NMSI_	36	288	1	96	48	6
EXSTR	36	288	7
NMSI_	36	288	7	96	48	4
NMTAP	37	0	1
NMTAP	37	0	7
NMSTR	37	96	3
NMSI_	37	96	3	96	48	0
NMSTR	37	96	5
NMSI_	37	96	5	96	48	2
NMTAP	37	192	3
NMTAP	37	192	5
NMSTR	37	288	1
NMSI_	37	288	1	96	48	4
NMSTR	37	288	7
NMSI_	37	288	7	96	48	2
NMTAP	38	0	1
NMTAP	38	0	7
NMSTR	38	96	3
NMSI_	38	96	3	96	48	6
NMSTR	38	96	5
NMSI_	38	96	5	96	48	0
NMTAP	38	192	3
NMTAP	38	192	5
EXTAP	38	288	1
EXTAP	38	288	7
NMSTR	39	0	0
NMSCR	39	0	0	96	96	4
NMSTR	39	96	4
NMSCR	39	96	4	96	96	0
NMSTR	39	192	0
NMSCR	39	192	0	96	96	4
NMTAP	39	288	4
NMTAP	40	0	0
NMTAP	40	96	2
NMTAP	40	96	6
BRHLD	40	192	1	48
BRHLD	40	192	5	48
EXSTR	40	288	0
NMSI_	40	288	0	96	48	3
EXSTR	40	288	6
NMSI_	40	288	6	96	48	1
NMTAP	41	0	0
NMTAP	41	0	6
NMSTR	41	96	2
NMSI_	41	96	2	96	48	5
NMSTR	41	96	4
NMSI_	41	96	4	96	48	7
NMTAP	41	192	2
NMTAP	41	192	4
NMSTR	41	288	0
NMSI_	41	288	0	96	48	5
NMSTR	41	288	6
NMSI_	41	288	6	96	48	3
NMTAP	42	0	0
NMTAP	42	0	6
NMSTR	42	96	2
NMSI_	42	96	2	96	48	7
NMSTR	42	96	4
NMSI_	42	96	4	96	48	1
NMTAP	42	192	2
NMTAP	42	192	4
EXTAP	42	288	0
EXTAP	42	288	6
NMTAP	42	336	1
NMTAP	43	0	2
NMTAP	43	0	4
NMTAP	43	96	1
NMTAP	43	96	7
NMTAP	43	144	6
NMTAP	43	192	3
NMTAP	43	192	5
NMSTR	43	288	2
NMSI_	43	288	2	96	48	4
NMSTR	43	288	6
NMSI_	43	288	6	96	48	0
NMTAP	44	0	2
NMTAP	44	0	6
NMTTP	44	96	0	C	0	M1
NMTTP	44	96	1	B	0	M1
NMTTP	44	96	5	B	0	M1
NMSTR	44	192	0
NMSLL	44	192	0	96	96	4
NMSTR	44	192	7
NMSLR	44	192	7	96	96	3
EXTAP	44	288	0
EXTAP	44	288	7
BRTAP	45	96	0
BRTAP	45	96	7
NMTAP	45	192	0
NMTAP	45	192	7
NMSTR	45	288	1
NMSI_	45	288	1	96	48	4
NMSTR	45	288	3
NMSI_	45	288	3	96	48	7
NMTAP	46	0	1
NMTAP	46	0	3
NMSTR	46	96	5
NMSI_	46	96	5	96	48	0
NMSTR	46	96	6
NMSI_	46	96	6	96	48	3
NMTAP	46	192	5
NMTAP	46	192	6
EXTAP	46	288	1
EXTAP	46	288	2
NMTTP	47	0	1	A	0	M1
NMTTP	47	0	2	A	0	M1
NMTTP	47	0	2	D	0	M1
NMTTP	47	0	3	D	1	M1
NMTTP	47	96	1	B	0	M1
NMTTP	47	96	1	E	0	M1
NMTTP	47	96	2	B	0	M1
NMTTP	47	96	3	B	1	M1
NMTTP	47	192	4	B	1	M1
NMTTP	47	192	5	B	0	M1
NMTTP	47	192	6	B	0	M1
NMTTP	47	192	7	E	0	M1
NMTTP	47	288	5	A	0	M1
NMTTP	47	288	5	D	1	M1
NMTTP	47	288	6	A	0	M1
NMTTP	47	288	6	D	0	M1
EXSTR	48	0	7
NMSCR	48	0	7	96	144	6
EXTAP	48	96	6
EXTAP	48	192	7
EXSTR	48	288	0
NMSI_	48	288	0	96	48	2
NMSI_	48	288	0	96	48	4
NMTAP	49	0	0
NMSTR	49	96	1
NMSI_	49	96	1	96	48	4
NMSTR	49	96	3
NMSI_	49	96	3	96	48	7
NMTAP	49	192	1
NMTAP	49	192	3
NMSTR	49	288	5
NMSI_	49	288	5	96	48	0
NMSTR	49	288	6
NMSI_	49	288	6	96	48	3
NMTAP	50	0	5
NMTAP	50	0	6
NMSTR	50	96	1
NMSCL	50	96	1	96	48	6
NMSTR	50	96	2
NMSCR	50	96	2	96	48	5
EXSTR	50	288	7
NMSI_	50	288	7	96	48	3
NMTAP	51	0	2
NMTAP	51	0	7
NMTAP	51	96	1
NMTAP	51	144	1
NMTAP	51	192	4
NMTAP	51	240	3
NMSTR	51	288	2
NMSI_	51	288	2	96	48	5
NMTAP	52	0	2
NMSTR	52	0	6
NMSI_	52	0	6	96	48	1
NMSTR	52	96	2
NMSI_	52	96	2	96	48	5
NMTAP	52	96	6
NMTAP	52	192	2
NMSTR	52	192	6
NMSI_	52	192	6	96	48	1
NMSTR	52	288	3
NMSI_	52	288	3	96	48	0
NMSI_	52	288	3	96	48	7
NMTAP	52	288	6
NMTTP	53	0	3	B	1	M1
NMTTP	53	0	3	E	0	M1
NMTTP	53	0	4	E	0	M1
EXTAP	53	288	0
EXTAP	53	288	7
EXSTR	53	336	0
NMSCR	53	336	0	96	96	5
EXTAP	53	336	7
NMSTR	54	48	5
NMSCL	54	48	5	96	96	0
NMTAP	54	144	6
NMTTP	54	288	4	B	0	M1
NMTTP	54	288	5	B	0	M1
NMTTP	54	288	5	E	0	M1
NMTAP	55	0	1
NMTAP	55	0	3
NMTAP	55	96	0
NMTAP	55	96	7
NMTAP	55	192	4
NMTAP	55	192	6
EXTAP	55	288	0
EXTAP	55	288	7
EXTAP	55	336	0
EXSTR	55	336	7
NMSCL	55	336	7	96	96	2
NMSTR	56	48	2
NMSCR	56	48	2	96	96	7
NMTAP	56	144	1
NMTTP	56	288	2	B	0	M1
NMTTP	56	288	3	B	0	M1
NMTTP	56	288	3	E	0	M1
NMTAP	57	0	4
NMTAP	57	0	6
NMTAP	57	96	0
NMTAP	57	96	7
NMTAP	57	192	1
NMTAP	57	192	3
EXTAP	57	288	3
EXTAP	57	288	4
EXSTR	57	336	3
NMSCL	57	336	3	96	96	6
EXTAP	57	336	4
NMSTR	58	48	6
NMSCR	58	48	6	96	96	3
NMTAP	58	144	5
NMTTP	58	288	4	B	0	M1
NMTTP	58	288	5	B	0	M1
NMTTP	58	288	5	E	0	M1
NMTAP	59	0	1
NMTAP	59	0	3
NMTAP	59	96	0
NMTAP	59	96	7
NMTAP	59	192	4
NMTAP	59	192	6
EXTAP	59	288	3
EXTAP	59	288	4
EXTAP	59	336	3
EXSTR	59	336	4
NMSCR	59	336	4	96	96	1
NMSTR	60	48	1
NMSCL	60	48	1	96	96	4
NMHLD	60	144	2	144
NMTAP	61	0	3
NMTAP	61	0	4
NMTAP	61	64	5
NMTAP	61	96	4
NMTAP	61	192	4
NMTAP	61	192	6
NMTAP	62	0	3
NMTAP	62	0	4
NMTAP	62	64	2
NMTAP	62	96	3
NMTAP	62	192	1
NMTAP	62	192	3
NMTAP	63	0	3
NMTAP	63	0	4
NMTAP	63	64	5
NMTAP	63	96	4
NMTAP	63	192	4
NMTAP	63	192	6
NMTAP	64	0	3
NMTAP	64	0	4
NMTAP	64	64	2
NMTAP	64	96	3
NMTAP	64	192	1
NMTAP	64	192	3
EXTAP	64	288	1
EXSTR	64	288	3
NMSSR	64	288	3	96	144	7
BRHLD	65	0	2	96
NMTTP	65	192	3	E	1	M1
NMTAP	66	288	2
NMTAP	66	288	6
NMHLD	67	0	3	96
NMHLD	67	0	5	96
NMTAP	67	160	2
NMTAP	67	160	4
NMTAP	67	192	2
NMTAP	67	192	4
NMTAP	67	256	3
NMTAP	67	256	5
NMTAP	67	352	6
NMTAP	68	0	6
NMTAP	68	32	4
NMTAP	68	64	5
NMTAP	68	96	1
NMTAP	68	128	3
NMTAP	68	160	2
NMTAP	68	192	4
BRSTR	68	288	5
NMSI_	68	288	5	96	2688	2
NMTAP	69	0	0
NMTAP	69	48	0
NMTAP	69	96	0
NMTAP	69	192	7
NMTAP	69	240	7
NMTAP	69	288	7
BRTAP	70	0	0
BRTAP	70	48	0
BRTAP	70	96	0
NMHLD	70	192	7	48
NMHLD	70	288	7	48
NMTAP	71	0	1
NMTAP	71	96	7
NMTAP	71	192	1
NMTAP	71	288	7
NMTAP	72	0	0
NMTAP	72	96	6
NMTAP	72	192	0
NMTAP	72	288	6
NMTAP	73	0	7
NMTAP	73	48	7
NMTAP	73	96	7
NMTAP	73	192	0
NMTAP	73	240	0
NMTAP	73	288	0
BRTAP	74	0	7
BRTAP	74	48	7
BRTAP	74	96	7
NMHLD	74	192	0	48
NMHLD	74	288	0	48
NMTTP	75	0	1	E	0	M1
NMTTP	75	96	0	B	0	M1
NMTTP	75	192	6	B	0	M1
NMTTP	75	288	6	E	0	M1
NMTTP	76	0	7	D	0	M1
NMTTP	76	96	0	D	0	M1
NMTTP	76	192	1	D	0	M1
NMSTR	76	288	0
NMSI_	76	288	0	96	48	4
NMSTR	76	336	7
NMSI_	76	336	7	96	48	5
NMSTR	77	0	0
NMSI_	77	0	0	96	48	2
NMSTR	77	48	7
NMSI_	77	48	7	96	48	3
NMSTR	77	96	0
NMSI_	77	96	0	96	48	4
NMSTR	77	144	7
NMSI_	77	144	7	96	48	5
NMSTR	77	192	0
BRSCR	77	192	0	96	144	7
NMTTP	79	0	0	E	0	M1
NMTTP	79	0	1	B	0	M1
NMTTP	79	0	1	E	0	M1
NMTTP	79	0	2	B	0	M1
NMTTP	79	0	6	B	0	M1
NMTTP	79	0	7	B	0	M1
NMTAP	79	240	4
NMTAP	79	288	4
NMTAP	79	336	3
NMTAP	79	336	5
NMHLD	80	0	3	48
NMHLD	80	0	5	48
NMTAP	80	96	2
NMTAP	80	144	1
NMTAP	80	192	4
NMTAP	80	240	5
NMTAP	80	288	3
NMHLD	80	336	2	96
NMHLD	81	48	0	96
NMHLD	81	144	7	96
NMTAP	81	240	5
NMTAP	81	288	5
NMTAP	81	336	4
NMHLD	82	0	6	96
NMTAP	82	96	2
NMTAP	82	144	2
NMTAP	82	192	3
NMSTR	82	240	0
NMSI_	82	240	0	96	48	2
NMSI_	82	240	0	96	48	6
NMSTR	82	336	0
NMSI_	82	336	0	96	48	4
NMSTR	83	48	0
NMSI_	83	48	0	96	48	3
NMSI_	83	48	0	96	48	5
NMTAP	83	288	2
NMTAP	83	288	5
NMTAP	83	336	2
NMTAP	83	336	5
NMTAP	84	48	0
NMTAP	84	48	7
NMSTR	84	96	0
NMSI_	84	96	0	96	72	5
NMSTR	84	96	7
NMSI_	84	96	7	96	72	2
CNSI_	84	264	2	0	72	6
CNSI_	84	264	5	0	72	1
CNSI_	84	336	1	0	48	4
CNSI_	84	336	6	0	48	3
NMTAP	86	0	1
NMTAP	86	24	3
NMTAP	86	48	2
NMTAP	86	96	2
NMTAP	86	144	6
NMTAP	86	168	4
NMTAP	86	192	5
NMTAP	86	240	1
NMTAP	86	264	3
NMTAP	86	288	2
NMTAP	86	336	5
NMTAP	86	360	4
NMSTR	87	0	7
BRSF_	87	0	7	96	48	3
BRTAP	87	96	7
NMTAP	87	192	1
NMTAP	87	240	2
NMSTR	87	288	3
NMSI_	87	288	3	96	48	0
NMTAP	87	336	4
NMSTR	88	0	3
NMSI_	88	0	3	96	48	6
NMTAP	88	0	5
NMSTR	88	96	3
NMSI_	88	96	3	96	48	7
NMTAP	88	192	3
EXTAP	88	288	1
NMSTR	88	288	5
NMSCR	88	288	5	96	48	0
NMTAP	89	0	4
NMTAP	89	0	5
NMSTR	89	96	2
NMSCL	89	96	2	96	48	7
NMTAP	89	192	2
NMTAP	89	192	3
NMSTR	89	288	5
NMSCR	89	288	5	96	48	0
NMSTR	90	0	5
NMSCL	90	0	5	96	48	2
NMSTR	90	96	5
NMSI_	90	96	5	96	48	1
NMTAP	90	288	7
NMTAP	90	336	7
NMTAP	91	0	1
NMTAP	91	48	4
NMTAP	91	96	2
NMTAP	91	144	2
NMTAP	91	192	5
NMTAP	91	240	3
NMSTR	91	288	2
NMSXR	91	288	2	96	144	4
NMSTR	91	288	6
NMSXR	91	288	6	96	144	7
NMTTP	92	192	5	A	0	M1
NMTTP	92	192	6	A	0	M1
NMTTP	92	192	6	D	1	M1
EXTAP	92	288	4
EXSTR	92	288	7
NMSI_	92	288	7	96	48	4
NMSTR	93	0	3
NMSI_	93	0	3	96	48	0
NMTAP	93	0	7
NMTAP	93	96	3
NMTAP	93	96	5
NMTAP	93	192	1
NMTAP	93	192	7
NMTAP	93	264	2
NMTAP	93	264	4
NMTAP	93	336	3
NMTAP	93	336	5
NMSTR	94	0	2
NMSI_	94	0	2	96	48	7
NMSTR	94	0	6
NMSI_	94	0	6	96	48	3
BRTAP	94	96	2
BRTAP	94	96	6
EXTAP	94	192	0
EXTAP	94	192	4
EXTAP	94	288	0
EXTAP	94	288	4
NMTHO	95	0	1	48	A	0	M1
NMTHO	95	0	2	48	A	0	M1
NMTHO	95	0	2	48	D	0	M1
NMTHO	95	0	3	48	D	1	M1
NMTHO	95	96	1	48	B	0	M1
NMTHO	95	96	1	48	E	0	M1
NMTHO	95	96	2	48	B	0	M1
NMTHO	95	96	3	48	B	1	M1
NMTHO	95	192	4	48	B	1	M1
NMTHO	95	192	5	48	B	0	M1
NMTHO	95	192	6	48	B	0	M1
NMTHO	95	192	7	48	E	0	M1
NMTHO	95	288	5	48	A	0	M1
NMTHO	95	288	5	48	D	1	M1
NMTHO	95	288	6	48	A	0	M1
NMTHO	95	288	6	48	D	0	M1
NMSTR	96	0	7
NMSLR	96	0	7	96	96	3
EXTAP	96	96	6
CNSI_	96	192	3	0	48	5
EXTAP	96	192	7
EXTAP	96	288	7
NMSTR	97	0	4
NMSI_	97	0	4	96	48	0
NMSTR	97	0	6
NMSI_	97	0	6	96	48	0
NMTAP	97	96	4
NMTAP	97	96	6
NMSTR	97	192	1
NMSI_	97	192	1	96	48	7
NMSTR	97	192	3
NMSI_	97	192	3	96	48	7
NMTAP	97	288	1
NMTAP	97	288	3
NMSTR	98	0	4
NMSI_	98	0	4	96	48	0
NMSTR	98	0	5
NMSI_	98	0	5	96	48	1
NMTAP	98	96	4
NMTAP	98	96	5
NMSTR	98	192	2
NMSI_	98	192	2	96	48	6
NMSTR	98	192	3
NMSI_	98	192	3	96	48	7
NMTAP	98	288	2
NMTAP	98	288	3
NMTAP	99	0	5
NMTAP	99	48	5
NMTAP	99	96	4
NMTAP	99	144	6
NMTAP	99	192	1
NMTAP	99	240	3
NMSTR	99	288	2
NMSI_	99	288	2	96	48	5
NMTAP	100	0	2
NMSTR	100	0	6
NMSI_	100	0	6	96	48	1
NMSTR	100	96	2
NMSI_	100	96	2	96	48	5
NMTAP	100	96	6
NMTAP	100	192	2
NMSTR	100	192	6
NMSI_	100	192	6	96	48	1
NMSTR	100	288	3
NMSI_	100	288	3	96	48	0
NMSI_	100	288	3	96	48	7
NMTAP	100	288	6
NMTTP	101	0	3	B	1	M1
NMTTP	101	0	3	E	0	M1
NMTTP	101	0	4	E	0	M1
NMSTR	101	336	1
NMSI_	101	336	1	96	48	5
NMTAP	101	336	3
NMTAP	102	48	1
NMSTR	102	48	4
NMSI_	102	48	4	96	48	7
NMTAP	102	144	0
NMSTR	102	192	0
NMSI_	102	192	0	96	48	4
NMTAP	102	288	0
NMTAP	103	0	3
NMTAP	103	0	5
NMTAP	103	96	1
NMTAP	103	144	0
NMTAP	103	192	7
NMTAP	103	288	4
NMTAP	103	288	6
NMTAP	103	336	4
NMSTR	103	336	6
NMSI_	103	336	6	96	48	2
NMSTR	104	48	3
NMSI_	104	48	3	96	48	0
NMTAP	104	48	6
NMTAP	104	144	7
NMSTR	104	192	7
NMSI_	104	192	7	96	48	3
NMTAP	104	288	7
NMTAP	105	0	2
NMTAP	105	0	4
NMTAP	105	96	6
NMTAP	105	144	7
NMTAP	105	192	0
NMTAP	105	288	1
NMTAP	105	288	3
NMSTR	105	336	1
NMSI_	105	336	1	96	48	5
NMTAP	105	336	3
NMTAP	106	48	1
NMSTR	106	48	4
NMSI_	106	48	4	96	48	7
NMTAP	106	144	0
NMSTR	106	192	0
NMSI_	106	192	0	96	48	4
NMTAP	106	288	0
NMTAP	107	0	3
NMTAP	107	0	5
NMTAP	107	96	1
NMTAP	107	144	0
NMTAP	107	192	7
NMTAP	107	288	4
NMTAP	107	288	6
NMTAP	107	336	4
NMSTR	107	336	6
NMSI_	107	336	6	96	48	1
NMSTR	108	48	2
NMSI_	108	48	2	96	48	5
NMTAP	108	48	6
NMTAP	108	144	0
NMTAP	108	192	0
NMSTR	108	288	7
NMSCL	108	288	7	96	96	3
NMSTR	109	0	3
NMSCL	109	0	3	96	96	7
NMSTR	109	96	7
NMSCL	109	96	7	96	96	3
NMSTR	109	192	3
NMSCL	109	192	3	96	96	7
NMSTR	109	288	7
NMSCL	109	288	7	96	96	3
NMSTR	110	0	3
NMSCL	110	0	3	96	96	7
NMTAP	110	96	7
NMTAP	110	192	3
NMSTR	110	288	0
NMSCR	110	288	0	96	96	4
NMSTR	111	0	4
NMSCR	111	0	4	96	96	0
NMSTR	111	96	0
NMSCR	111	96	0	96	96	4
NMSTR	111	192	4
NMSCR	111	192	4	96	96	0
NMSTR	111	288	0
NMSCR	111	288	0	96	96	4
NMSTR	112	0	4
NMSCR	112	0	4	96	96	0
NMTAP	112	96	0
NMTAP	112	192	4
NMSTR	112	288	7
NMSI_	112	288	7	96	48	3
NMSI_	112	288	7	96	48	5
NMTAP	113	0	7
NMSTR	113	96	0
NMSI_	113	96	0	96	48	2
NMSI_	113	96	0	96	48	4
NMTAP	113	192	0
NMSTR	113	288	7
NMSXR	113	288	7	96	48	5
NMSTR	114	0	7
NMSXL	114	0	7	96	48	1
NMSTR	114	96	7
NMSI_	114	96	7	96	48	3
NMTAP	114	192	7
NMTAP	114	288	2
NMSTR	115	0	0
NMSI_	115	0	0	96	48	5
NMSTR	115	0	1
NMSI_	115	0	1	96	48	4
BRTAP	115	96	0
BRTAP	115	96	1
NMSTR	115	192	0
NMSI_	115	192	0	96	48	4
NMSTR	115	192	1
NMSI_	115	192	1	96	48	5
BRTAP	115	288	0
BRTAP	115	288	1
NMSTR	116	0	0
NMSI_	116	0	0	96	48	5
NMSTR	116	0	1
NMSI_	116	0	1	96	48	4
BRTAP	116	96	0
BRTAP	116	96	1
NMTAP	116	192	0
NMSTR	116	192	1
NMSXR	116	192	1	96	144	3
NMTAP	116	288	7
NMTTP	117	0	0	C	1	M1
NMTTP	117	0	4	B	0	M1
NMTTP	117	0	5	B	0	M1
NMTTP	117	0	5	E	0	M1

T_REC_TAP	341
T_REC_BRK	21
T_REC_XTP	32
T_REC_BXX	1
T_REC_HLD	35
T_REC_XHO	0
T_REC_BHO	3
T_REC_BXH	0
T_REC_STR	162
T_REC_BST	1
T_REC_XST	15
T_REC_XBS	0
T_REC_TTP	80
T_REC_THO	16
T_REC_SLD	182
T_REC_BSL	4
T_REC_ALL	893
T_NUM_TAP	630
T_NUM_BRK	30
T_NUM_HLD	51
T_NUM_SLD	182
T_NUM_ALL	893
T_JUDGE_TAP	653
T_JUDGE_HLD	93
T_JUDGE_SLD	186
T_JUDGE_ALL	932
TTM_EACHPAIRS	172
TTM_SCR_TAP	315000
TTM_SCR_BRK	78000
TTM_SCR_HLD	51000
TTM_SCR_SLD	273000
TTM_SCR_ALL	717000
TTM_SCR_S	692600
TTM_SCR_SS	714000
TTM_RAT_ACV	10042

