VERSION	0.00.00	1.05.00
FES_MODE	0
BPM_DEF	205.000	205.000	205.000	205.000
MET_DEF	4	4
RESOLUTION	384
CLK_DEF	384
COMPATIBLE_CODE	MA2

BPM	0	0	205.000
MET	0	0	4	4

EXTAP	1	240	3
EXTAP	1	240	4
EXTAP	1	288	3
EXTAP	1	288	4
EXSTR	2	0	2
NMSI_	2	0	2	96	192	4
CNSI_	2	288	4	0	192	0
CNSI_	3	96	0	0	96	6
NMHLD	4	0	1	96
NMHLD	4	0	7	96
NMHLD	4	192	0	96
NMHLD	4	192	6	96
BRTAP	5	0	7
NMTAP	5	96	0
NMTAP	5	96	6
NMTAP	5	192	7
NMTAP	5	288	0
NMTAP	5	288	6
NMTAP	6	0	1
NMTAP	6	96	2
NMTAP	6	192	4
BXTAP	6	288	1
BXTAP	6	288	5
NMTAP	7	0	0
NMTAP	7	96	1
NMTAP	7	96	7
NMTAP	7	192	0
NMTAP	7	288	1
NMTAP	7	288	7
NMTAP	8	0	6
NMTAP	8	96	5
NMTAP	8	192	3
BXTAP	8	288	2
BXTAP	8	288	6
NMTAP	9	0	0
NMTAP	9	96	1
NMTAP	9	96	7
NMTAP	9	192	0
NMTAP	9	288	1
NMTAP	9	288	7
NMTAP	10	0	2
NMTAP	10	96	3
NMTAP	10	192	5
BXTAP	10	288	2
BXTAP	10	288	6
NMSTR	11	0	5
NMSI_	11	0	5	96	96	0
NMSTR	11	192	1
NMSI_	11	192	1	96	96	4
NMTAP	12	0	6
NMTAP	12	96	6
NMTAP	12	192	0
NMTAP	12	192	5
NMTAP	13	0	1
NMHLD	13	0	4	960
NMTAP	13	192	2
NMTAP	13	288	3
NMTAP	14	0	3
NMTAP	14	192	3
NMTTP	15	0	4	E	0	M1
NMTTP	15	192	5	E	0	M1
NMTAP	16	0	5
NMTAP	16	96	4
NMTAP	16	192	3
NMHLD	17	0	2	960
NMTAP	17	0	4
NMTAP	17	192	3
NMTAP	17	288	3
NMTAP	18	0	4
NMTAP	18	192	3
NMTTP	19	0	3	E	0	M1
NMTTP	19	192	2	E	0	M1
NMTAP	20	0	1
NMTAP	20	96	0
NMTAP	20	96	1
NMHLD	20	192	2	96
NMHLD	20	192	7	96
NMTAP	21	0	6
NMTAP	21	96	6
NMTAP	21	96	7
NMTAP	21	192	1
NMTAP	21	288	0
NMTAP	21	288	1
NMTAP	22	0	2
NMTAP	22	96	2
NMTAP	22	96	3
NMTAP	22	192	5
NMTAP	22	288	4
NMTAP	22	288	5
NMTAP	23	0	6
NMTAP	23	0	7
NMTAP	23	96	6
NMTAP	23	96	7
NMTAP	23	192	0
NMTAP	23	192	1
NMSTR	23	288	0
NMSCL	23	288	0	96	144	5
NMTAP	23	288	1
EXTAP	24	288	3
EXTAP	24	288	4
NMTAP	25	0	2
NMTAP	25	96	1
NMTAP	25	96	3
NMTAP	25	192	5
NMTAP	25	288	4
NMTAP	25	288	6
NMTAP	26	0	2
NMTAP	26	96	0
NMTAP	26	192	7
NMTAP	26	288	5
NMTAP	27	0	4
NMTAP	27	0	6
NMTAP	27	96	4
NMTAP	27	96	6
NMTAP	27	192	3
NMSTR	27	192	7
NMSSR	27	192	7	96	288	3
NMTTP	29	0	2	B	0	M1
NMTTP	29	96	1	B	0	M1
NMTTP	29	192	0	B	0	M1
NMTTP	29	288	7	B	0	M1
NMTTP	30	0	6	B	0	M1
NMTTP	30	96	5	B	0	M1
NMTHO	30	192	4	384	B	0	M1
NMTHO	31	0	2	192	B	0	M1
NMTTP	32	0	0	C	0	M1
NMTTP	32	0	3	B	0	M1
NMTAP	33	0	0
NMTAP	33	96	0
NMTAP	33	192	1
NMTAP	33	192	3
NMTAP	33	288	1
NMTAP	33	288	3
NMTAP	34	0	4
NMTAP	34	96	4
NMTAP	34	192	3
NMTAP	34	192	5
NMTAP	34	288	3
NMTAP	34	288	5
NMTAP	35	0	4
NMTAP	35	0	5
NMTAP	35	96	4
NMTAP	35	96	5
NMHLD	35	192	6	96
NMTAP	35	288	0
NMTAP	35	336	0
NMTAP	36	48	1
NMTAP	36	48	7
BRTAP	36	144	2
BRTAP	36	144	6
BRTAP	36	192	2
BRTAP	36	192	6
BXTAP	37	0	3
BXTAP	37	0	4
NMTAP	37	96	0
NMTAP	37	96	1
NMTAP	37	192	3
NMTAP	37	192	4
NMTAP	37	288	6
NMTAP	37	288	7
NMTAP	38	0	6
NMTAP	38	0	7
NMTAP	38	96	4
NMTAP	38	96	5
NMTAP	38	192	2
NMTAP	38	192	3
NMTAP	38	288	0
NMTAP	38	288	1
NMSTR	39	0	7
NMSCL	39	0	7	96	96	4
NMSTR	39	192	0
NMSCR	39	192	0	96	96	3
NMTAP	40	0	5
NMTAP	40	96	6
NMTAP	40	96	7
BRTAP	40	192	0
BRTAP	40	192	5
NMTAP	41	0	0
NMTAP	41	0	1
NMTAP	41	96	4
NMTAP	41	96	5
NMTAP	41	192	6
NMTAP	41	192	7
NMTAP	41	288	2
NMTAP	41	288	3
NMTAP	42	0	1
NMTAP	42	0	4
NMTAP	42	96	1
NMTAP	42	96	4
NMTAP	42	192	2
NMTAP	42	192	5
NMTAP	42	288	3
NMTAP	42	288	6
NMHLD	43	0	6	96
NMHLD	43	96	4	96
NMHLD	43	192	3	96
NMHLD	43	288	1	96
BRTAP	44	0	7
BRTAP	44	96	3
BRTAP	44	96	5
BRTAP	44	192	2
BRTAP	44	192	6
NMTAP	45	0	4
NMHLD	45	0	6	96
NMTAP	45	96	5
NMHLD	45	192	1	96
NMTAP	45	192	3
NMTAP	45	288	2
NMTAP	46	0	0
NMTAP	46	0	1
NMTAP	46	96	2
NMTAP	46	96	3
NMTAP	46	192	4
NMTAP	46	192	5
NMTAP	46	288	6
NMTAP	46	288	7
NMSTR	47	0	0
NMSCR	47	0	0	96	96	3
NMTAP	47	0	5
NMSTR	47	192	4
NMSCR	47	192	4	96	96	7
NMTAP	48	0	0
NMTAP	48	96	2
NMTAP	48	96	3
BRTAP	48	192	1
BRTAP	48	192	4
NMHLD	49	0	1	96
NMTAP	49	0	3
NMTAP	49	96	0
NMTAP	49	192	4
NMHLD	49	192	6	96
NMTAP	49	288	7
NMTAP	50	0	6
NMTAP	50	0	7
NMTAP	50	96	4
NMTAP	50	96	5
NMTAP	50	192	2
NMTAP	50	192	3
NMTAP	50	288	0
NMTAP	50	288	1
NMTAP	51	0	2
NMSTR	51	0	7
NMSCL	51	0	7	96	96	4
NMSTR	51	192	3
NMSCL	51	192	3	96	96	0
NMTAP	52	0	7
NMTAP	52	96	4
NMTAP	52	96	5
BRTAP	52	192	3
BRTAP	52	192	6
NMHLD	53	0	5	96
NMHLD	53	96	7	96
NMTAP	53	192	6
NMTAP	53	288	0
NMTAP	53	288	5
NMSTR	53	336	0
NMSI_	53	336	0	96	96	4
NMTAP	53	336	5
CNSI_	54	144	4	0	96	2
EXTAP	54	288	7
NMHLD	55	0	2	96
NMHLD	55	96	0	96
NMTAP	55	192	1
NMTAP	55	288	2
NMTAP	55	288	7
NMTAP	55	336	2
NMSTR	55	336	7
NMSI_	55	336	7	96	96	3
CNSI_	56	144	3	0	96	5
BXTAP	56	288	0
NMHLD	57	0	6	96
NMHLD	57	96	4	96
NMTAP	57	192	5
NMTAP	57	288	3
NMTAP	57	288	6
NMSTR	57	336	3
NMSI_	57	336	3	96	96	7
NMTAP	57	336	6
CNSI_	58	144	7	0	96	1
EXTAP	58	288	4
NMHLD	59	0	1	96
NMHLD	59	96	0	96
NMTAP	59	192	7
NMTAP	59	288	6
NMTAP	59	288	7
NMTAP	59	336	6
NMTAP	59	336	7
NMSTR	60	48	0
NMSI_	60	48	0	96	96	4
NMTAP	60	48	5
NMTAP	61	0	6
NMTAP	61	96	5
NMHLD	61	192	4	384
NMTTP	62	0	4	E	0	M1
NMTTP	62	96	5	E	0	M1
NMTTP	62	192	6	E	0	M1
NMTAP	63	0	0
NMTAP	63	96	1
NMHLD	63	192	2	384
NMTTP	64	0	4	E	0	M1
NMTTP	64	96	3	E	0	M1
NMTTP	64	192	2	E	0	M1
BXHLD	65	0	0	96
BXHLD	65	0	1	96
NMHLD	65	192	0	96
NMHLD	65	192	7	96
NMHLD	66	0	6	96
NMHLD	66	0	7	96
NMHLD	66	192	6	96
NMHLD	66	192	7	96
NMTTP	67	0	0	E	0	M1
NMTTP	67	96	0	C	0	M1
NMTHO	67	192	4	144	E	1	M1
EXTAP	68	288	0
EXTAP	68	288	6
NMTAP	69	0	1
NMTAP	69	48	1
NMTAP	69	96	0
NMTAP	69	192	2
NMTAP	69	192	7
NMTAP	69	288	2
NMTAP	69	288	7
NMTAP	70	0	6
NMTAP	70	48	6
NMTAP	70	96	7
NMTAP	70	192	0
NMTAP	70	192	5
NMTAP	70	288	0
NMTAP	70	288	5
NMHLD	71	0	1	96
NMHLD	71	96	2	96
NMTAP	71	192	3
NMTAP	71	288	4
NMTAP	71	288	5
NMTAP	71	336	4
NMTAP	71	336	5
NMSTR	72	48	3
NMSCL	72	48	3	96	96	0
NMTAP	72	48	6
EXTAP	72	288	7
NMTAP	73	0	6
NMTAP	73	48	6
NMTAP	73	96	7
NMTAP	73	192	0
NMTAP	73	192	5
NMTAP	73	288	0
NMTAP	73	288	5
NMTAP	74	0	1
NMTAP	74	48	1
NMTAP	74	96	0
NMTAP	74	192	2
NMTAP	74	192	7
NMTAP	74	288	2
NMTAP	74	288	7
NMHLD	75	0	6	96
NMHLD	75	96	5	96
NMTAP	75	192	4
NMTAP	75	288	2
NMTAP	75	288	3
NMTAP	75	336	2
NMTAP	75	336	3
NMSTR	76	48	1
NMSCR	76	48	1	96	144	5
NMTAP	76	48	4
NMTAP	77	0	0
NMTAP	77	0	6
NMTAP	77	48	0
NMTAP	77	48	6
NMTAP	77	96	0
NMTAP	77	96	6
NMTAP	77	192	1
NMTAP	77	192	7
NMTAP	77	240	1
NMTAP	77	240	7
NMHLD	77	288	1	480
NMTAP	77	288	7
NMTTP	79	0	0	B	0	M1
NMTTP	79	0	1	B	0	M1
NMTTP	79	0	1	E	0	M1
NMTAP	80	0	7
NMTAP	80	96	7
NMTAP	80	192	4
NMTAP	80	192	6
NMTAP	80	288	4
NMTAP	80	288	6
NMTAP	81	0	3
NMTAP	81	96	3
NMTAP	81	192	2
NMTAP	81	192	4
NMTAP	81	288	2
NMTAP	81	288	4
NMTAP	82	0	2
NMTAP	82	0	3
NMTAP	82	96	1
NMTAP	82	96	2
NMTAP	82	192	0
NMTAP	82	240	0
NMTAP	82	336	1
NMTAP	82	336	7
NMSTR	83	48	2
NMSI_	83	48	2	96	96	5
NMTAP	83	48	6
EXTAP	83	288	7
EXTAP	83	336	7
NMHLD	84	48	0	720
NMSTR	84	48	6
NMSCL	84	48	6	96	240	1
BRTAP	86	0	7
NMTAP	86	96	4
NMTAP	86	96	6
NMTAP	86	144	4
NMTAP	86	144	6
NMTAP	86	240	1
NMTAP	86	240	3
NMTAP	86	288	1
NMTAP	86	288	3
NMTAP	87	0	3
NMTAP	87	0	4
BRTAP	87	96	7
NMTAP	87	192	0
NMTAP	87	192	6
NMTAP	87	288	0
NMTAP	87	288	6
NMTAP	88	0	2
NMTAP	88	0	7
NMTAP	88	96	0
NMTAP	88	96	5
BRTAP	88	192	2
BRTAP	88	192	7
NMSTR	89	0	6
NMSCL	89	0	6	96	96	3
NMSTR	89	192	2
NMSCL	89	192	2	96	96	7
NMTAP	90	0	6
NMHLD	90	48	6	96
NMTAP	90	144	7
NMTAP	90	240	0
NMTAP	90	240	5
NMHLD	90	336	1	96
NMTAP	90	336	4
NMTAP	91	48	3
NMTAP	91	96	3
NMTAP	91	192	3
NMTAP	91	192	4
NMTAP	91	288	5
NMTAP	91	288	7
NMTAP	92	0	3
NMTAP	92	0	4
NMTAP	92	96	0
NMTAP	92	96	2
NMTAP	92	192	3
NMTAP	92	192	7
BRTAP	92	288	3
BRTAP	92	288	7
NMTAP	93	0	4
NMTAP	93	0	6
NMTAP	93	96	1
NMTAP	93	96	3
EXHLD	93	192	2	72
EXHLD	93	264	3	72
EXTAP	93	336	4
BXTAP	94	96	1
BXSTR	94	96	7
NMSUL	94	96	7	96	144	2
NMHLD	94	336	0	96
NMTAP	95	48	1
NMTAP	95	96	1
NMTAP	95	192	2
NMTAP	95	192	3
NMTAP	95	288	4
NMTAP	95	288	5
NMTAP	96	0	6
NMTAP	96	0	7
NMTAP	96	96	6
NMTAP	96	96	7
BRTAP	96	192	0
BRTAP	96	192	5
NMHLD	97	0	1	96
NMHLD	97	96	3	96
NMHLD	97	192	4	96
NMHLD	97	288	6	96
NMHLD	98	0	2	96
NMHLD	98	96	0	96
NMHLD	98	192	7	96
NMTAP	98	288	5
NMTAP	98	336	5
NMTAP	99	48	4
NMTAP	99	48	6
NMTAP	99	96	4
NMTAP	99	96	6
NMTAP	99	192	3
NMTAP	99	192	4
NMTAP	99	288	1
NMTAP	99	288	3
BXTAP	100	0	2
BXTAP	100	0	7
BXSTR	100	96	0
BRSI_	100	96	0	96	48	4
BXTAP	100	96	5
BXTAP	100	192	7
NMHLD	101	0	1	672
NMTAP	101	192	3
NMTAP	101	288	2
NMTAP	102	0	7
NMTAP	102	96	7
NMTAP	102	192	2
NMTAP	102	288	3
NMTAP	103	0	4
NMTAP	103	0	6
NMTAP	103	96	4
NMTAP	103	96	6
NMTAP	103	192	2
NMTAP	103	192	4
NMTAP	103	288	1
NMHLD	103	336	1	96
NMTAP	104	48	0
NMTAP	104	144	2
NMTAP	104	144	7
NMTAP	104	192	2
NMTAP	104	192	7
NMHLD	105	0	6	672
NMTAP	105	192	4
NMTAP	105	288	5
NMTAP	106	0	0
NMTAP	106	96	0
NMTAP	106	192	5
NMTAP	106	288	4
NMTAP	107	0	1
NMTAP	107	0	3
NMTAP	107	96	1
NMTAP	107	96	3
NMTAP	107	192	3
NMTAP	107	192	5
NMTAP	107	288	6
NMHLD	107	336	6	96
NMTAP	108	48	7
NMTAP	108	144	0
NMTAP	108	144	5
NMTAP	108	192	0
NMTAP	108	192	5
NMTAP	108	288	1
NMTAP	108	288	4
NMSTR	109	0	2
NMSCR	109	0	2	96	96	5
NMSTR	109	192	6
NMSCR	109	192	6	96	96	1
NMTAP	110	0	2
NMTAP	110	48	2
NMTAP	110	144	1
NMTAP	110	144	3
NMTAP	110	240	0
NMTAP	110	240	4
NMTAP	110	288	0
NMTAP	110	288	4
NMSTR	111	0	1
NMSCL	111	0	1	96	96	6
NMSTR	111	192	5
NMSCL	111	192	5	96	96	2
NMTAP	112	0	1
NMTAP	112	48	1
NMTAP	112	144	0
NMTAP	112	144	2
NMTAP	112	240	3
NMTAP	112	240	7
NMTAP	112	288	3
NMTAP	112	288	7
NMTAP	113	0	4
NMTAP	113	0	6
NMTAP	113	96	4
NMTAP	113	96	6
NMTAP	113	192	0
NMTAP	113	192	7
NMTAP	113	288	0
NMTAP	113	288	7
NMTAP	114	0	1
NMTAP	114	0	3
NMTAP	114	96	1
NMTAP	114	96	3
NMTAP	114	192	0
NMTAP	114	192	7
NMTAP	114	288	6
NMHLD	114	336	6	96
NMTAP	115	48	4
NMHLD	115	96	4	96
NMTAP	115	192	5
NMTAP	115	288	4
NMTAP	115	288	5
NMHLD	116	0	6	96
NMHLD	116	96	0	96
NMHLD	116	192	2	96
NMTHO	116	288	0	96	C	1	M1
NMTTP	117	0	0	B	0	M1
NMTTP	117	0	0	E	0	M1
NMTTP	117	0	7	B	0	M1

T_REC_TAP	391
T_REC_BRK	24
T_REC_XTP	14
T_REC_BXX	14
T_REC_HLD	58
T_REC_XHO	2
T_REC_BHO	0
T_REC_BXH	2
T_REC_STR	24
T_REC_BST	0
T_REC_XST	1
T_REC_XBS	2
T_REC_TTP	26
T_REC_THO	4
T_REC_SLD	26
T_REC_BSL	1
T_REC_ALL	589
T_NUM_TAP	456
T_NUM_BRK	43
T_NUM_HLD	64
T_NUM_SLD	26
T_NUM_ALL	589
T_JUDGE_TAP	496
T_JUDGE_HLD	234
T_JUDGE_SLD	27
T_JUDGE_ALL	757
TTM_EACHPAIRS	179
TTM_SCR_TAP	228000
TTM_SCR_BRK	111800
TTM_SCR_HLD	64000
TTM_SCR_SLD	39000
TTM_SCR_ALL	442800
TTM_SCR_S	425350
TTM_SCR_SS	438500
TTM_RAT_ACV	10098

