VERSION	0.00.00	1.05.00
FES_MODE	0
BPM_DEF	205.000	205.000	205.000	205.000
MET_DEF	4	4
RESOLUTION	384
CLK_DEF	384
COMPATIBLE_CODE	MA2

BPM	0	0	205.000
MET	0	0	4	4

NMTAP	5	0	0
NMTAP	5	96	0
NMTAP	5	192	0
NMTAP	6	0	1
NMTAP	6	96	1
NMTAP	6	192	1
NMTAP	7	0	2
NMTAP	7	96	2
NMTAP	7	192	2
NMTAP	8	0	3
NMTAP	8	0	4
NMTAP	8	192	3
NMTAP	8	192	4
NMTAP	9	0	4
NMTAP	9	96	4
NMTAP	9	192	4
NMTAP	10	0	5
NMTAP	10	96	5
NMTAP	10	192	5
NMTAP	11	0	6
NMTAP	11	96	6
NMTAP	11	192	6
NMTAP	12	0	0
NMTAP	12	0	7
NMTAP	12	192	0
NMTAP	12	192	7
NMHLD	13	0	6	192
NMHLD	13	192	7	192
NMHLD	14	0	0	192
NMTAP	14	192	1
NMHLD	15	0	1	192
NMHLD	15	192	0	192
NMHLD	16	0	7	192
NMTAP	16	192	6
NMHLD	17	0	5	192
NMHLD	17	192	4	192
NMHLD	18	0	3	192
NMTAP	18	192	2
NMHLD	19	0	2	192
NMHLD	19	192	3	192
NMHLD	20	0	4	192
NMTAP	20	192	5
NMTAP	21	0	3
NMTAP	21	96	3
NMTAP	21	192	2
NMTAP	22	0	1
NMTAP	22	96	1
NMTAP	22	192	0
NMTAP	23	0	7
NMTAP	23	96	7
NMTAP	23	192	6
NMTAP	24	0	5
NMTAP	24	96	5
NMTAP	24	192	4
NMTAP	24	192	5
NMTAP	25	0	4
NMTAP	25	96	4
NMTAP	25	192	5
NMTAP	26	0	6
NMTAP	26	96	6
NMTAP	26	192	7
NMTAP	27	0	0
NMTAP	27	96	0
NMTAP	27	192	1
NMTAP	28	0	2
NMTAP	28	0	3
NMTTP	29	0	2	B	0	L1
NMTTP	29	192	1	B	0	L1
NMTTP	30	0	0	B	0	L1
NMTTP	30	192	7	B	0	L1
NMTTP	31	0	6	B	0	L1
NMTTP	31	192	5	B	0	L1
NMTTP	32	0	0	C	1	L1
NMSTR	33	0	6
NMSI_	33	0	6	96	288	3
NMSTR	33	0	7
NMSI_	33	0	7	96	288	2
NMSTR	35	0	0
NMSI_	35	0	0	96	288	5
NMSTR	35	0	1
NMSI_	35	0	1	96	288	4
NMTAP	37	0	5
NMTAP	37	96	5
NMTAP	37	192	6
NMTAP	37	288	6
NMTAP	38	0	7
NMTAP	38	96	7
NMTAP	38	192	0
NMTAP	38	192	1
NMTAP	39	0	2
NMTAP	39	96	2
NMTAP	39	192	1
NMTAP	39	288	1
NMTAP	40	0	0
NMTAP	40	96	0
BXTAP	40	192	6
BXTAP	40	192	7
NMTAP	41	0	6
NMTAP	41	96	6
NMTAP	41	192	5
NMTAP	41	288	5
NMTAP	42	0	4
NMTAP	42	96	4
NMTAP	42	192	2
NMTAP	42	192	3
NMTAP	43	0	1
NMTAP	43	96	1
NMTAP	43	192	2
NMTAP	43	288	2
NMTAP	44	0	3
NMTAP	44	96	3
NMTAP	44	192	4
NMTAP	44	192	5
NMTAP	45	0	5
NMTAP	45	96	5
NMTAP	45	192	6
NMTAP	45	288	6
NMTAP	46	0	7
NMTAP	46	96	7
NMTAP	46	192	0
NMTAP	46	192	1
NMTAP	46	288	0
NMTAP	46	288	1
NMTAP	47	0	2
NMTAP	47	96	2
NMTAP	47	192	1
NMTAP	47	288	1
NMTAP	48	0	0
NMTAP	48	96	0
NMTAP	48	192	6
NMTAP	48	192	7
NMTAP	49	0	6
NMTAP	49	96	6
NMTAP	49	192	5
NMTAP	49	288	5
NMTAP	50	0	4
NMTAP	50	96	4
NMTAP	50	192	2
NMTAP	50	192	3
NMTAP	50	288	2
NMTAP	50	288	3
NMTAP	51	0	1
NMTAP	51	96	1
NMTAP	51	192	2
NMTAP	51	288	2
NMTAP	52	0	3
NMTAP	52	96	3
NMTAP	52	192	4
NMTAP	52	192	5
NMHLD	53	0	6	192
NMTAP	53	192	7
NMTAP	54	0	6
NMTAP	54	96	6
NMTAP	54	192	6
NMTAP	54	192	7
NMHLD	55	0	5	192
NMTAP	55	192	4
NMTAP	56	0	5
NMTAP	56	96	5
NMTAP	56	192	4
NMTAP	56	192	5
NMHLD	57	0	2	192
NMTAP	57	192	3
NMTAP	58	0	2
NMTAP	58	96	2
NMTAP	58	192	2
NMTAP	58	192	3
NMHLD	59	0	1	192
NMTAP	59	192	0
NMTAP	60	0	1
NMTAP	60	96	1
NMTAP	60	192	0
NMTAP	60	192	1
NMSTR	61	0	1
NMSI_	61	0	1	96	288	4
NMTAP	62	192	5
NMSTR	63	0	6
NMSI_	63	0	6	96	288	3
NMTAP	64	192	2
NMSTR	65	0	1
NMSI_	65	0	1	96	288	5
NMTAP	66	192	6
NMSTR	67	0	7
NMSI_	67	0	7	96	288	3
NMTAP	68	192	2
NMTAP	69	0	2
NMTAP	69	96	2
NMTAP	69	192	2
NMTAP	69	192	3
NMTAP	70	0	1
NMTAP	70	96	1
NMTAP	70	192	0
NMTAP	70	192	1
NMTAP	71	0	7
NMTAP	71	96	7
NMTAP	71	192	6
NMTAP	71	192	7
NMTAP	72	0	4
NMTAP	72	0	5
NMTAP	72	96	4
NMTAP	72	96	5
NMTAP	72	192	4
NMTAP	72	192	5
NMTAP	73	0	5
NMTAP	73	96	5
NMTAP	73	192	4
NMTAP	73	192	5
NMTAP	74	0	6
NMTAP	74	96	6
NMTAP	74	192	6
NMTAP	74	192	7
NMTAP	75	0	0
NMTAP	75	96	0
NMTAP	75	192	0
NMTAP	75	192	1
NMTAP	76	0	2
NMTAP	76	0	3
NMTAP	76	96	2
NMTAP	76	96	3
NMTAP	76	192	2
NMTAP	76	192	3
NMSTR	77	0	3
NMSI_	77	0	3	96	288	1
NMSTR	77	0	4
NMSI_	77	0	4	96	288	0
BXTAP	79	0	0
BXTAP	79	0	1
NMTTP	80	0	1	B	0	L1
NMTTP	80	192	2	B	0	L1
NMTTP	81	0	3	B	0	L1
NMTTP	81	192	4	B	0	L1
NMTTP	82	0	5	B	0	L1
NMTTP	82	192	6	B	0	L1
NMTHO	83	0	0	336	C	1	L1
EXSTR	85	0	0
NMSI_	85	0	0	96	288	3
EXSTR	85	0	7
NMSI_	85	0	7	96	288	4
NMTAP	87	0	2
NMTAP	87	96	2
NMTAP	87	192	0
NMTAP	87	192	1
NMTAP	87	288	0
NMTAP	87	288	1
NMTAP	88	0	7
NMTAP	88	96	7
BXTAP	88	192	6
BXTAP	88	192	7
NMTAP	89	0	6
NMTAP	89	96	6
NMTAP	89	192	4
NMTAP	89	192	5
NMTAP	89	288	4
NMTAP	89	288	5
NMTAP	90	0	3
NMTAP	90	96	3
NMTAP	90	192	2
NMTAP	90	192	3
NMTAP	91	0	1
NMTAP	91	96	1
NMTAP	91	192	2
NMTAP	91	192	3
NMTAP	91	288	2
NMTAP	91	288	3
NMTAP	92	0	4
NMTAP	92	96	4
NMTAP	92	192	4
NMTAP	92	192	5
NMTAP	93	0	5
NMTAP	93	96	5
NMTAP	93	192	6
NMTAP	93	192	7
NMTAP	93	288	6
NMTAP	93	288	7
NMTAP	94	0	0
NMTAP	94	96	0
NMTAP	94	192	0
NMTAP	94	192	1
NMTAP	94	288	0
NMTAP	94	288	1
NMTAP	95	0	2
NMTAP	95	96	2
NMTAP	95	192	0
NMTAP	95	192	1
NMTAP	95	288	0
NMTAP	95	288	1
NMTAP	96	0	7
NMTAP	96	96	7
BRTAP	96	192	6
BRTAP	96	192	7
NMTAP	97	0	6
NMTAP	97	96	6
NMTAP	97	192	4
NMTAP	97	192	5
NMTAP	97	288	4
NMTAP	97	288	5
NMTAP	98	0	3
NMTAP	98	96	3
NMTAP	98	192	2
NMTAP	98	192	3
NMTAP	98	288	2
NMTAP	98	288	3
NMTAP	99	0	1
NMTAP	99	96	1
NMTAP	99	192	2
NMTAP	99	192	3
NMTAP	99	288	2
NMTAP	99	288	3
NMTAP	100	0	4
NMTAP	100	96	4
NMTAP	100	192	4
NMTAP	100	192	5
NMTAP	101	0	3
NMTAP	101	96	2
NMTAP	101	192	1
NMTAP	101	288	0
NMTAP	102	0	7
NMTAP	102	96	6
NMTAP	102	192	4
NMTAP	102	192	5
NMTAP	103	0	4
NMTAP	103	96	5
NMTAP	103	192	6
NMTAP	103	288	7
NMTAP	104	0	0
NMTAP	104	96	1
NMTAP	104	192	2
NMTAP	104	192	3
NMTAP	105	0	3
NMTAP	105	96	2
NMTAP	105	192	1
NMTAP	105	288	0
NMTAP	106	0	7
NMTAP	106	96	6
NMTAP	106	192	5
NMTAP	106	288	4
NMTAP	107	0	3
NMTAP	107	96	2
NMTAP	107	192	1
NMTAP	107	288	0
NMTAP	108	0	0
NMTAP	108	0	7
NMTAP	108	96	0
NMTAP	108	96	7
NMTAP	108	192	0
NMTAP	108	192	7
NMTAP	109	0	0
NMTAP	109	0	1
NMTAP	109	96	0
NMTAP	109	96	1
NMTAP	109	192	2
NMTAP	109	192	7
NMTAP	110	0	2
NMTAP	110	0	3
NMTAP	110	96	2
NMTAP	110	96	3
NMTAP	110	192	1
NMTAP	110	192	4
NMTAP	111	0	4
NMTAP	111	0	5
NMTAP	111	96	4
NMTAP	111	96	5
NMTAP	111	192	3
NMTAP	111	192	6
NMTAP	112	0	6
NMTAP	112	0	7
NMTAP	112	96	6
NMTAP	112	96	7
NMTAP	112	192	0
NMTAP	112	192	5
NMTAP	113	0	6
NMTAP	113	0	7
NMTAP	113	96	6
NMTAP	113	96	7
NMTAP	113	192	0
NMTAP	113	192	5
NMTAP	114	0	4
NMTAP	114	0	5
NMTAP	114	96	4
NMTAP	114	96	5
NMTAP	114	192	3
NMTAP	114	192	6
NMTAP	115	0	2
NMTAP	115	0	3
NMTAP	115	96	2
NMTAP	115	96	3
NMTAP	115	192	1
NMTAP	115	192	4
NMTAP	116	0	0
NMTAP	116	0	1
NMTAP	116	96	0
NMTAP	116	96	1
NMTAP	116	192	2
NMTAP	116	192	7
BXTAP	117	0	0
BXTAP	117	0	7

T_REC_TAP	332
T_REC_BRK	2
T_REC_XTP	0
T_REC_BXX	8
T_REC_HLD	16
T_REC_XHO	0
T_REC_BHO	0
T_REC_BXH	0
T_REC_STR	10
T_REC_BST	0
T_REC_XST	2
T_REC_XBS	0
T_REC_TTP	13
T_REC_THO	1
T_REC_SLD	12
T_REC_BSL	0
T_REC_ALL	396
T_NUM_TAP	357
T_NUM_BRK	10
T_NUM_HLD	17
T_NUM_SLD	12
T_NUM_ALL	396
T_JUDGE_TAP	367
T_JUDGE_HLD	71
T_JUDGE_SLD	12
T_JUDGE_ALL	450
TTM_EACHPAIRS	90
TTM_SCR_TAP	178500
TTM_SCR_BRK	26000
TTM_SCR_HLD	17000
TTM_SCR_SLD	18000
TTM_SCR_ALL	239500
TTM_SCR_S	231350
TTM_SCR_SS	238500
TTM_RAT_ACV	10041

