VERSION	0.00.00	1.05.00
FES_MODE	0
BPM_DEF	205.000	205.000	205.000	205.000
MET_DEF	4	4
RESOLUTION	384
CLK_DEF	384
COMPATIBLE_CODE	MA2

BPM	0	0	205.000
MET	0	0	4	4

EXTAP	5	0	0
NMTAP	6	0	1
NMTAP	7	0	2
NMTAP	8	0	3
NMTAP	9	0	4
NMTAP	10	0	5
NMTAP	11	0	6
NMTAP	12	0	0
NMTAP	12	0	7
NMTAP	13	0	7
NMTAP	13	192	7
NMTAP	14	0	6
NMTAP	15	0	5
NMTAP	15	192	5
NMTAP	16	0	4
NMTAP	17	0	3
NMTAP	17	192	3
NMTAP	18	0	2
NMTAP	19	0	1
NMTAP	19	192	1
NMTAP	20	0	0
NMTAP	20	0	7
NMTAP	21	0	0
NMTAP	21	0	1
NMTAP	21	192	0
NMTAP	21	192	1
NMTAP	22	0	0
NMTAP	22	0	1
NMTAP	23	0	2
NMTAP	23	0	3
NMTAP	23	192	2
NMTAP	23	192	3
NMTAP	24	0	2
NMTAP	24	0	3
NMTAP	25	0	4
NMTAP	25	0	5
NMTAP	25	192	4
NMTAP	25	192	5
NMTAP	26	0	4
NMTAP	26	0	5
NMTAP	27	0	6
NMTAP	27	0	7
NMTAP	27	192	6
NMTAP	27	192	7
NMTAP	28	0	6
NMTAP	28	0	7
NMHLD	29	0	6	384
NMHLD	29	0	7	384
NMHLD	31	0	4	384
NMHLD	31	0	5	384
NMHLD	33	0	2	384
NMHLD	33	0	3	384
NMHLD	35	0	0	384
NMHLD	35	0	1	384
BXTAP	37	0	0
NMTAP	37	96	0
NMTAP	37	192	0
NMTAP	38	0	1
NMTAP	38	192	1
NMTAP	39	0	2
NMTAP	39	192	2
NMTAP	40	0	3
NMTAP	40	0	4
NMTAP	41	0	4
NMTAP	41	96	4
NMTAP	41	192	4
NMTAP	42	0	5
NMTAP	42	192	5
NMTAP	43	0	6
NMTAP	43	192	6
NMTAP	44	0	0
NMTAP	44	0	7
NMTAP	45	0	7
EXTAP	45	96	7
NMTAP	45	192	7
NMTAP	46	0	6
NMTAP	46	192	6
NMTAP	47	0	5
NMTAP	47	96	5
NMTAP	47	192	5
NMTAP	48	0	3
NMTAP	48	0	4
NMTAP	48	192	3
NMTAP	48	192	4
NMTAP	49	0	3
NMTAP	49	96	3
NMTAP	49	192	3
NMTAP	50	0	2
NMTAP	50	192	2
NMTAP	51	0	1
NMTAP	51	96	1
NMTAP	51	192	1
NMTAP	52	0	0
NMTAP	52	0	7
NMSTR	53	0	0
NMSI_	53	0	0	96	288	4
NMSTR	55	0	7
NMSI_	55	0	7	96	288	3
NMSTR	57	0	1
NMSI_	57	0	1	96	288	5
NMSTR	59	0	6
NMSI_	59	0	6	96	288	2
NMTAP	61	0	0
NMTAP	61	192	0
NMTAP	62	0	1
NMTAP	62	192	1
NMTAP	63	0	2
NMTAP	63	0	3
NMTAP	63	192	2
NMTAP	63	192	3
NMTAP	64	0	2
NMTAP	64	0	3
NMTAP	65	0	4
NMTAP	65	192	4
NMTAP	66	0	5
NMTAP	66	192	5
NMTAP	67	0	6
NMTAP	67	0	7
NMTAP	67	192	6
NMTAP	67	192	7
NMTAP	68	0	6
NMTAP	68	0	7
NMTAP	69	0	7
NMTAP	69	96	7
NMTAP	69	192	7
NMTAP	70	0	6
NMTAP	70	0	7
NMTAP	71	0	5
NMTAP	71	96	5
NMTAP	71	192	5
NMTAP	72	0	4
NMTAP	72	0	5
NMTAP	73	0	3
NMTAP	73	96	3
NMTAP	73	192	3
NMTAP	74	0	2
NMTAP	74	0	3
NMTAP	75	0	1
NMTAP	75	96	1
NMTAP	75	192	1
NMTAP	76	0	0
NMTAP	76	0	1
EXHLD	77	0	0	768
EXHLD	77	0	7	768
NMTTP	80	0	0	E	0	L1
NMTTP	81	0	0	B	0	L1
NMTTP	81	0	7	B	0	L1
NMTTP	82	0	1	B	0	L1
NMTTP	82	0	6	B	0	L1
NMTTP	83	0	2	B	0	L1
NMTTP	83	0	5	B	0	L1
NMTHO	84	0	0	384	C	1	L1
NMTAP	87	0	0
EXTAP	87	96	0
NMTAP	87	192	0
NMTAP	88	0	0
NMTAP	88	0	7
NMTAP	88	192	0
NMTAP	88	192	7
NMTAP	89	0	1
NMTAP	89	96	1
NMTAP	89	192	1
NMTAP	90	0	2
NMTAP	90	0	3
NMTAP	90	192	2
NMTAP	90	192	3
NMTAP	91	0	4
NMTAP	91	96	4
NMTAP	91	192	4
NMTAP	92	0	4
NMTAP	92	0	5
NMTAP	92	192	4
NMTAP	92	192	5
NMTAP	93	0	6
NMTAP	93	96	6
NMTAP	93	192	6
NMTAP	94	0	6
NMTAP	94	0	7
NMTAP	94	192	6
NMTAP	94	192	7
NMTAP	95	0	5
NMTAP	95	96	5
NMTAP	95	192	5
NMTAP	96	0	3
NMTAP	96	0	4
NMTAP	96	192	3
NMTAP	96	192	4
NMTAP	97	0	2
NMTAP	97	96	2
NMTAP	97	192	2
NMTAP	98	0	0
NMTAP	98	0	1
NMTAP	98	192	0
NMTAP	98	192	1
NMTAP	99	0	7
NMTAP	99	96	7
NMTAP	99	192	7
BRTAP	100	0	0
BRTAP	100	0	7
NMTAP	101	0	0
NMTAP	101	96	0
NMTAP	101	192	0
NMTAP	102	0	1
NMTAP	102	96	1
NMTAP	102	192	1
NMTAP	103	0	2
NMTAP	103	96	2
NMTAP	103	192	2
NMTAP	104	0	2
NMTAP	104	0	3
NMTAP	105	0	4
NMTAP	105	96	4
NMTAP	105	192	4
NMTAP	106	0	5
NMTAP	106	96	5
NMTAP	106	192	5
NMTAP	107	0	6
NMTAP	107	96	6
NMTAP	107	192	6
EXTAP	108	0	6
EXTAP	108	0	7
NMTTP	109	0	7	E	0	L1
NMTTP	110	0	6	E	0	L1
NMTTP	111	0	5	E	0	L1
NMTTP	112	0	4	E	0	L1
NMTTP	113	0	3	E	0	L1
NMTTP	114	0	2	E	0	L1
NMTTP	115	0	1	E	0	L1
NMTHO	116	0	0	384	C	1	L1

T_REC_TAP	187
T_REC_BRK	2
T_REC_XTP	5
T_REC_BXX	1
T_REC_HLD	8
T_REC_XHO	2
T_REC_BHO	0
T_REC_BXH	0
T_REC_STR	4
T_REC_BST	0
T_REC_XST	0
T_REC_XBS	0
T_REC_TTP	14
T_REC_THO	2
T_REC_SLD	4
T_REC_BSL	0
T_REC_ALL	229
T_NUM_TAP	210
T_NUM_BRK	3
T_NUM_HLD	12
T_NUM_SLD	4
T_NUM_ALL	229
T_JUDGE_TAP	213
T_JUDGE_HLD	112
T_JUDGE_SLD	4
T_JUDGE_ALL	329
TTM_EACHPAIRS	49
TTM_SCR_TAP	105000
TTM_SCR_BRK	7800
TTM_SCR_HLD	12000
TTM_SCR_SLD	6000
TTM_SCR_ALL	130800
TTM_SCR_S	126600
TTM_SCR_SS	130500
TTM_RAT_ACV	10022

