VERSION	0.00.00	1.05.00
FES_MODE	0
BPM_DEF	132.000	132.000	132.000	132.000
MET_DEF	4	4
RESOLUTION	384
CLK_DEF	384
COMPATIBLE_CODE	MA2

BPM	0	0	132.000
MET	0	0	4	4

NMSTR	2	0	3
NMSI_	2	0	3	96	192	0
NMSTR	2	0	5
NMSI_	2	0	5	96	192	0
NMSTR	3	0	0
NMSI_	3	0	0	96	192	4
NMSTR	4	0	5
NMSCL	4	0	5	96	60	3
CNSI_	4	156	3	0	72	7
CNSCR	4	228	7	0	60	1
NMSTR	5	0	1
NMSCL	5	0	1	96	192	2
NMSTR	6	0	3
NMSSR	6	0	3	96	96	7
NMTAP	6	96	6
CNSI_	6	192	7	0	120	4
NMTAP	6	288	6
NMSTR	7	0	5
NMSXL	7	0	5	96	96	6
NMTAP	7	96	2
CNSCL	7	192	6	0	120	3
NMTAP	7	288	2
NMSTR	8	0	1
NMSXL	8	0	1	96	96	2
NMTAP	8	96	6
CNSCL	8	192	2	0	120	7
NMTAP	8	288	6
EXSTR	9	0	3
NMSI_	9	0	3	96	48	1
EXSTR	9	0	5
NMSI_	9	0	5	96	48	7
EXTAP	9	96	3
EXTAP	9	96	5
CNSI_	9	144	1	0	48	4
CNSI_	9	144	7	0	48	4
BRTAP	9	240	1
BRTAP	9	240	7
NMTAP	9	336	5
NMHLD	10	0	5	96
NMTAP	10	72	4
NMTAP	10	96	4
NMTAP	10	192	3
NMTAP	10	192	4
NMHLD	10	288	2	96
NMTAP	10	360	3
NMTAP	11	0	3
NMTAP	11	48	4
NMSTR	11	96	5
NMSXL	11	96	5	96	120	2
NMHLD	11	192	0	192
NMTAP	12	0	3
NMHLD	12	48	3	336
NMTTP	12	144	7	E	0	M1
NMTTP	12	144	7	D	0	M1
NMTTP	12	192	5	B	0	M1
NMTTP	12	192	6	E	0	M1
NMTTP	12	240	1	B	0	M1
NMTTP	12	240	2	E	0	M1
NMTTP	12	288	3	E	0	M1
NMTTP	12	288	3	D	0	M1
NMTAP	13	0	0
NMHLD	13	48	0	240
NMTTP	13	144	7	E	0	M1
NMTTP	13	144	7	D	0	M1
NMTTP	13	192	5	B	0	M1
NMTTP	13	192	6	E	0	M1
NMTTP	13	240	1	B	0	M1
NMTTP	13	240	2	E	0	M1
NMTTP	13	288	3	E	0	M1
NMTTP	13	288	3	D	0	M1
NMHLD	14	0	2	96
NMTAP	14	72	3
NMTAP	14	96	3
NMTAP	14	192	3
NMTAP	14	192	4
NMHLD	14	288	5	96
NMTAP	14	360	4
NMTAP	15	0	4
NMTAP	15	48	3
NMSTR	15	96	2
NMSXR	15	96	2	96	120	5
NMHLD	15	192	7	192
NMTAP	16	0	4
NMHLD	16	48	4	336
NMTTP	16	144	1	E	0	M1
NMTTP	16	144	1	D	0	M1
NMTTP	16	192	2	B	0	M1
NMTTP	16	192	2	E	0	M1
NMTTP	16	240	6	B	0	M1
NMTTP	16	240	6	E	0	M1
NMTTP	16	288	5	E	0	M1
NMTTP	16	288	5	D	0	M1
NMTAP	17	0	7
NMHLD	17	48	7	240
NMTTP	17	144	1	E	0	M1
NMTTP	17	144	1	D	0	M1
NMTTP	17	192	2	B	0	M1
NMTTP	17	192	2	E	0	M1
NMTTP	17	240	6	B	0	M1
NMTTP	17	240	6	E	0	M1
NMTTP	17	288	5	E	0	M1
NMTTP	17	288	5	D	0	M1
NMTAP	18	0	3
NMTAP	18	0	5
NMTAP	18	96	2
NMSTR	18	96	4
NMSCL	18	96	4	96	48	1
NMTAP	18	144	3
NMSTR	18	192	4
NMSCR	18	192	4	96	48	7
EXTAP	18	192	6
EXTAP	18	288	2
NMTAP	18	288	4
NMHLD	19	0	1	96
NMTAP	19	72	0
NMTAP	19	96	0
NMTAP	19	144	7
NMTAP	19	192	4
NMTAP	19	192	6
NMTAP	19	240	5
NMTAP	19	288	2
NMTAP	19	288	3
NMSTR	20	0	3
NMSI_	20	0	3	96	48	7
NMSTR	20	96	3
NMSXL	20	96	3	96	72	3
NMSXR	20	96	3	96	72	3
EXTAP	20	336	4
EXSTR	21	0	4
NMSI_	21	0	4	96	48	0
NMSTR	21	96	4
NMSXL	21	96	4	96	72	4
NMSXR	21	96	4	96	72	4
NMTAP	22	0	2
NMTAP	22	24	2
NMTAP	22	48	3
NMSTR	22	96	1
NMSI_	22	96	1	96	36	3
NMTAP	22	96	4
NMSTR	22	192	1
NMSI_	22	192	1	96	36	7
NMHLD	22	192	5	48
NMTAP	22	288	1
NMHLD	22	288	5	48
NMTAP	23	0	4
NMTAP	23	0	5
NMTAP	23	48	4
NMTAP	23	48	5
NMTAP	23	96	3
NMSTR	23	96	6
NMSI_	23	96	6	96	36	4
NMHLD	23	192	2	48
NMSTR	23	192	6
NMSI_	23	192	6	96	36	0
NMHLD	23	288	2	48
NMTAP	23	288	6
NMSTR	24	0	2
NMSCL	24	0	2	96	96	6
NMSTR	24	96	6
NMSLR	24	96	6	96	96	2
NMTAP	24	192	3
NMTAP	24	288	6
NMTAP	24	336	6
NMTAP	25	0	2
BRTAP	25	0	7
NMTAP	25	72	6
BRTAP	25	96	0
NMTAP	25	96	5
NMTAP	25	168	1
NMTAP	25	192	2
NMTAP	25	192	7
NMTAP	25	240	3
NMTAP	25	240	6
NMSTR	25	288	4
BRSI_	25	288	4	96	36	0
NMTAP	25	288	5
BXSTR	26	0	4
NMSI_	26	0	4	96	168	7
NMTTP	26	192	0	B	0	M1
NMTTP	26	192	0	A	0	M1
CNSCR	26	264	7	0	144	1
NMTTP	27	0	2	A	0	M1
CNSI_	27	24	1	0	168	4
NMTHO	27	96	2	192	D	0	M1
NMSTR	27	288	3
BRSCL	27	288	3	96	36	0
BRSCR	27	288	3	96	36	6
BXSTR	28	0	3
NMSI_	28	0	3	96	168	0
NMTTP	28	192	7	B	0	M1
NMTTP	28	192	7	A	0	M1
CNSCL	28	264	0	0	144	6
NMTTP	29	0	6	D	0	M1
CNSI_	29	24	6	0	168	3
NMTHO	29	96	5	192	A	0	M1
NMSTR	29	288	4
BRSF_	29	288	4	96	36	0
BXTAP	30	0	4
NMTAP	30	192	0
NMTAP	30	192	2
NMTAP	30	240	2
NMTAP	30	288	1
NMTAP	30	288	7
NMTAP	30	336	7
NMTAP	31	0	0
NMTAP	31	0	6
NMTAP	31	48	0
NMTAP	31	96	5
NMTAP	31	96	7
NMTAP	31	144	5
NMTAP	31	192	0
NMTAP	31	192	4
NMTAP	31	240	1
NMTAP	31	288	2
NMTAP	31	288	7
NMTAP	31	336	6
NMTAP	32	0	5
NMTAP	32	24	4
NMTAP	32	48	5
NMTAP	32	72	4
NMTAP	32	96	6
NMTAP	32	120	3
NMTAP	32	144	6
NMTAP	32	168	3
NMTAP	32	192	7
NMTAP	32	216	2
NMTAP	32	240	7
NMTAP	32	264	2
NMSTR	32	288	0
BRSI_	32	288	0	96	36	4
BRTAP	33	0	0
BRTAP	33	0	7
NMTAP	33	192	5
NMTAP	33	240	5
NMTAP	33	264	4
EXSTR	33	288	3
NMSCL	33	288	3	96	96	6
EXTAP	33	288	6
BRSTR	34	0	6
NMSCR	34	0	6	96	96	3
BRSTR	34	96	3
NMSCL	34	96	3	96	96	6
BRTAP	34	192	6
NMTAP	34	288	3
NMTAP	34	336	4
NMTTP	35	0	0	A	0	M1
NMTTP	35	0	1	E	0	M1
NMTTP	35	0	1	D	0	M1
NMHLD	35	0	5	48
NMHLD	35	96	2	48
NMTTP	35	96	7	E	0	M1
NMTTP	35	96	7	A	0	M1
NMTTP	35	96	7	D	0	M1
NMTTP	35	192	1	B	0	M1
NMTTP	35	192	1	A	0	M1
NMTTP	35	192	2	E	0	M1
NMHLD	35	192	5	48
EXTAP	35	288	2
EXSTR	35	288	5
NMSI_	35	288	5	96	48	2
NMHLD	36	0	3	96
BRTAP	36	0	5
BRSTR	36	96	1
NMSCL	36	96	1	96	48	6
BRTAP	36	192	1
NMTAP	36	192	2
EXSTR	36	288	0
NMSI_	36	288	0	96	36	2
NMSI_	36	288	0	96	36	6
EXSTR	37	96	7
NMSXL	37	96	7	96	48	1
NMSXR	37	96	7	96	48	5
EXSTR	37	288	2
NMSI_	37	288	2	96	48	7
BRTAP	38	0	2
NMSTR	38	0	3
NMSI_	38	0	3	96	48	6
NMSTR	38	96	2
NMSI_	38	96	2	96	48	7
BRTAP	38	96	3
BRTAP	38	192	2
NMTAP	38	192	3
NMTAP	38	288	4
NMTAP	38	336	5
NMTAP	39	0	6
NMTAP	39	0	7
NMTAP	39	48	5
NMSTR	39	96	4
NMSXL	39	96	4	96	96	4
NMSXR	39	96	4	96	96	4
NMSTR	40	0	3
NMSCL	40	0	3	96	96	6
NMHLD	40	0	5	96
NMTAP	40	144	4
NMTAP	40	192	4
NMSTR	40	288	2
BRSXR	40	288	2	96	120	4
NMSTR	40	288	5
BRSXL	40	288	5	96	120	3
BRTAP	41	192	2
BRTAP	41	192	5
NMSTR	41	288	3
NMSV_	41	288	3	96	48	6
NMSTR	41	288	4
NMSCR	41	288	4	96	48	6
NMSTR	42	0	3
NMSCL	42	0	3	96	48	1
NMSTR	42	0	4
NMSV_	42	0	4	96	48	1
NMSTR	42	96	3
NMSV_	42	96	3	96	48	6
NMSTR	42	96	4
NMSCR	42	96	4	96	48	6
NMSTR	42	192	3
NMSCL	42	192	3	96	48	1
NMSTR	42	192	4
NMSV_	42	192	4	96	48	1
NMSTR	42	288	3
NMSUR	42	288	3	96	48	7
NMSTR	42	288	4
NMSCR	42	288	4	96	48	7
NMSTR	43	0	3
NMSCL	43	0	3	96	48	0
NMSTR	43	0	4
NMSUL	43	0	4	96	48	0
NMSTR	43	96	3
NMSUR	43	96	3	96	48	7
NMSTR	43	96	4
NMSCR	43	96	4	96	48	7
NMTAP	43	192	3
NMTAP	43	192	4
NMTAP	43	288	3
NMTAP	43	288	4
BRTAP	43	336	0
BRTAP	43	336	1
NMTAP	44	0	2
NMTAP	44	0	7
NMTAP	44	96	4
NMTAP	44	96	5
NMTAP	44	144	2
NMTAP	44	144	3
NMHLD	44	192	1	96
NMHLD	44	192	6	96
NMSTR	44	336	2
NMSI_	44	336	2	96	36	0
NMTAP	44	336	5
NMTAP	45	48	2
NMSTR	45	48	5
NMSI_	45	48	5	96	36	7
NMTAP	45	144	2
NMTAP	45	144	5
NMTAP	45	192	2
BRTAP	45	240	3
BRSTR	45	288	3
NMSI_	45	288	3	96	48	6
BRSTR	45	288	4
NMSCR	45	288	4	96	48	6
NMSTR	46	0	3
NMSCL	46	0	3	96	48	1
NMSTR	46	0	4
NMSI_	46	0	4	96	48	1
NMSTR	46	96	3
NMSI_	46	96	3	96	48	6
NMSTR	46	96	4
NMSCR	46	96	4	96	48	6
NMSTR	46	192	3
NMSCL	46	192	3	96	48	1
NMSTR	46	192	4
NMSI_	46	192	4	96	48	1
NMSTR	46	288	3
NMSI_	46	288	3	96	48	7
NMSTR	46	288	4
NMSCR	46	288	4	96	48	7
NMSTR	47	0	3
NMSCL	47	0	3	96	48	0
NMSTR	47	0	4
NMSI_	47	0	4	96	48	0
NMSTR	47	96	3
NMSI_	47	96	3	96	48	7
NMSTR	47	96	4
NMSCR	47	96	4	96	48	7
NMTAP	47	192	3
NMTAP	47	192	4
NMTAP	47	288	3
NMTAP	47	288	4
BRTAP	47	336	0
BRTAP	47	336	1
NMTAP	48	0	2
NMTAP	48	0	7
NMSTR	48	96	3
BRSCL	48	96	3	96	36	1
NMSTR	48	96	4
BRSCR	48	96	4	96	36	6
NMTAP	48	144	3
NMTAP	48	144	4
NMTTP	48	192	3	A	0	M1
NMTTP	48	192	4	A	0	M1
NMTTP	48	192	4	D	1	M1
NMTAP	48	336	0
NMTAP	48	336	6
NMTAP	49	0	5
NMTAP	49	48	0
NMTAP	49	48	4
NMTAP	49	96	0
NMSTR	49	96	4
NMSI_	49	96	4	96	48	7
NMHLD	49	192	0	192
BRTAP	49	192	4
CNSCR	49	240	7	0	96	1
CNSI_	49	336	1	0	48	4
NMTTP	51	48	5	E	0	M1
NMTTP	51	120	4	E	0	M1
NMTTP	51	192	3	E	0	M1
EXTAP	51	312	3
EXTAP	51	312	6
EXTAP	51	336	3
EXTAP	51	336	6
EXTAP	52	0	5
NMTAP	52	16	4
NMTAP	52	32	5
NMTAP	52	48	4
NMTAP	52	64	5
NMTAP	52	80	4
NMTAP	52	96	5
BXTAP	52	192	3
NMHLD	52	192	5	96
EXTAP	52	200	2
EXTAP	52	208	1
EXTAP	52	216	0
NMTAP	53	0	3
NMTAP	53	0	7
NMTAP	53	48	0
NMTAP	53	48	2
NMSTR	53	96	1
NMSCL	53	96	1	96	72	5
NMSV_	53	96	1	96	72	3
EXSTR	54	0	6
NMSCR	54	0	6	96	48	1
EXTAP	54	48	6
EXSTR	54	96	6
NMSI_	54	96	6	96	24	4
NMSV_	54	96	6	96	72	1
CNSCL	54	216	4	0	24	3
CNSI_	54	240	3	0	24	1
EXTAP	54	312	2
EXHLD	54	336	2	240
NMTTP	55	0	1	B	0	M1
NMTTP	55	96	6	B	0	M1
NMTTP	55	192	0	E	1	M1
EXTAP	55	312	2
EXTAP	55	312	5
EXTAP	55	336	2
EXTAP	55	336	5
EXTAP	56	0	3
NMTAP	56	16	4
NMTAP	56	32	3
NMTAP	56	48	4
NMTAP	56	64	3
NMTAP	56	80	4
NMSTR	56	96	3
BRSCL	56	96	3	96	36	0
BXTAP	56	192	3
NMHLD	56	192	5	96
NMTAP	57	0	3
NMTAP	57	0	7
NMTAP	57	48	0
NMTAP	57	48	2
NMSTR	57	96	1
NMSCL	57	96	1	96	72	5
NMSV_	57	96	1	96	72	3
EXSTR	58	0	0
BRSCL	58	0	0	96	72	6
BRSCR	58	0	0	96	72	2
BXTAP	58	96	0
CNSUL	58	168	2	0	72	5
CNSUR	58	168	6	0	72	3
EXTAP	58	312	2
EXHLD	58	336	2	240
NMTTP	59	0	1	E	0	M1
NMTTP	59	96	7	E	0	M1
NMTTP	59	192	0	D	1	M1
EXTAP	59	336	1
EXTAP	59	336	4
EXTAP	60	0	2
NMTAP	60	16	3
NMTAP	60	32	2
NMTAP	60	48	3
NMTAP	60	64	2
NMTAP	60	80	3
NMTAP	60	96	2
BXTAP	60	192	2
NMHLD	60	192	5	96
NMTTP	60	198	2	D	0	M1
NMTTP	60	204	1	A	0	M1
NMTTP	60	210	1	D	0	M1
NMTTP	60	216	0	A	1	M1
NMTAP	61	0	3
NMTAP	61	0	7
NMTAP	61	48	0
NMTAP	61	48	2
NMSTR	61	96	1
NMSCL	61	96	1	96	72	5
NMSV_	61	96	1	96	72	3
EXTAP	62	0	2
EXSTR	62	0	4
NMSCL	62	0	4	96	78	0
EXHLD	62	48	2	528
EXTAP	62	48	4
CNSV_	62	174	0	0	50	7
CNSCL	62	224	7	0	40	5
EXTAP	62	312	4
EXTAP	62	336	4
NMTTP	63	0	2	B	0	M1
NMTTP	63	96	5	B	0	M1
NMTTP	63	192	0	C	1	M1
EXTAP	63	336	2
EXTAP	63	336	5
EXTAP	64	0	4
NMTAP	64	16	3
NMTAP	64	32	4
NMTAP	64	48	3
NMTAP	64	64	4
NMTAP	64	80	3
NMSTR	64	96	4
BRSF_	64	96	4	96	36	0
BXTAP	64	192	4
NMTTP	64	198	0	A	1	M1
NMTTP	64	198	0	D	0	M1
NMTTP	64	198	1	D	0	M1
NMTAP	65	0	3
NMTAP	65	0	7
NMTAP	65	48	0
NMTAP	65	48	2
NMSTR	65	96	1
NMSCL	65	96	1	96	72	5
NMSV_	65	96	1	96	72	3
NMTAP	66	0	0
NMTAP	66	0	2
NMTAP	66	48	1
NMTAP	66	48	6
NMTAP	66	96	5
NMTAP	66	96	7
NMTAP	66	144	3
NMTAP	66	144	4
NMTAP	66	192	2
NMTAP	66	192	3
NMTAP	66	240	0
NMTAP	66	240	7
NMTAP	66	288	4
NMTAP	66	288	5
NMTAP	66	336	0
NMTAP	66	336	7
EXTAP	67	0	0
EXTAP	67	0	1
NMTAP	67	12	2
NMTAP	67	24	3
NMTAP	67	36	4
NMTAP	67	48	5
NMTAP	67	60	6
NMTAP	67	72	7
NMTAP	67	84	0
EXSTR	67	96	1
NMSXR	67	96	1	96	192	3
NMTAP	67	108	2
NMTAP	67	120	3
NMTAP	67	132	4
NMTAP	67	144	5
NMSTR	67	156	6
NMSXL	67	156	6	96	132	3
NMTAP	67	168	7
NMTAP	67	180	0
EXTAP	67	192	1
EXTAP	68	192	3
NMTTP	68	192	5	B	0	M1
NMTTP	68	200	6	E	0	M1
NMTTP	68	208	6	D	0	M1
EXSTR	68	288	3
NMSCL	68	288	3	96	96	5
NMTTP	68	288	7	B	0	M1
NMTTP	68	296	7	E	0	M1
NMTTP	68	304	6	A	0	M1
BRSTR	69	0	5
NMSI_	69	0	5	96	32	7
BRSTR	69	96	3
NMSCL	69	96	3	96	96	6
CNSI_	69	128	7	0	32	1
CNSI_	69	160	1	0	32	3
BRTAP	69	192	5
NMTAP	69	288	3
NMTAP	69	336	4
NMTTP	70	0	0	A	0	M1
NMTTP	70	0	1	E	0	M1
NMTTP	70	0	1	D	0	M1
NMTAP	70	0	5
NMTAP	70	48	5
NMTAP	70	96	2
NMTTP	70	96	7	E	0	M1
NMTTP	70	96	7	A	0	M1
NMTTP	70	96	7	D	0	M1
NMTAP	70	144	2
NMTTP	70	192	1	B	0	M1
NMTTP	70	192	1	A	0	M1
NMTTP	70	192	2	E	0	M1
NMTAP	70	192	5
NMTAP	70	240	5
EXTAP	70	288	2
EXSTR	70	288	5
NMSI_	70	288	5	96	48	2
NMHLD	71	0	4	48
BRTAP	71	0	5
BRSTR	71	96	1
NMSCL	71	96	1	96	48	6
NMHLD	71	96	3	48
BRTAP	71	192	1
NMTAP	71	192	2
EXSTR	71	288	0
NMSI_	71	288	0	96	36	2
NMSI_	71	288	0	96	36	6
NMTAP	71	336	0
EXSTR	72	96	7
NMSXL	72	96	7	96	48	1
NMSXR	72	96	7	96	48	5
NMTAP	72	144	7
EXSTR	72	288	2
BRSCL	72	288	2	96	48	7
BRTAP	73	0	2
NMSTR	73	0	3
BRSV_	73	0	3	96	48	6
NMSTR	73	96	2
BRSCL	73	96	2	96	48	7
BRTAP	73	96	3
BRTAP	73	192	2
NMTAP	73	192	3
NMTAP	73	288	4
NMTAP	73	336	5
NMTAP	74	0	6
NMTAP	74	0	7
NMTAP	74	48	5
NMTAP	74	96	3
NMSTR	74	96	4
NMSXL	74	96	4	96	96	4
NMSXR	74	96	4	96	96	4
NMSTR	75	0	3
NMSCL	75	0	3	96	96	6
NMHLD	75	0	5	96
NMTAP	75	144	4
NMTAP	75	192	4
NMSTR	75	288	2
BRSXR	75	288	2	96	120	4
NMSTR	75	288	5
BRSXL	75	288	5	96	120	3
BRTAP	76	192	2
BRTAP	76	192	5
NMSTR	76	288	3
NMSCR	76	288	3	96	40	7
NMSUR	76	288	3	96	40	7
EXTAP	77	0	3
NMSTR	77	96	3
NMSCL	77	96	3	96	36	0
NMTAP	77	144	2
NMTAP	77	144	4
EXTAP	77	192	3
NMTTP	77	192	4	E	0	M1
NMTTP	77	198	3	E	0	M1
NMTTP	77	204	2	E	0	M1
NMTTP	77	210	1	E	0	M1
NMTAP	77	264	4
NMSTR	77	288	4
NMSCR	77	288	4	96	36	7
NMTAP	77	336	3
NMTAP	77	336	5
EXTAP	78	0	4
NMTTP	78	0	4	E	0	M1
NMTTP	78	6	5	E	0	M1
NMTTP	78	12	6	E	0	M1
NMTTP	78	18	7	E	0	M1
NMTAP	78	72	3
NMSTR	78	96	3
NMSCL	78	96	3	96	36	0
NMTAP	78	144	2
NMTAP	78	144	4
EXTAP	78	192	3
NMTTP	78	192	4	E	0	M1
NMTTP	78	198	3	E	0	M1
NMTTP	78	204	2	E	0	M1
NMTTP	78	210	1	E	0	M1
EXTAP	78	288	3
BRTAP	78	336	1
BRTAP	78	336	5
NMTAP	79	0	0
NMTAP	79	0	6
NMTAP	79	96	2
NMTAP	79	96	3
NMTAP	79	144	4
NMTAP	79	144	5
NMHLD	79	192	1	96
NMHLD	79	192	6	96
NMSTR	79	336	2
NMSI_	79	336	2	96	36	0
NMTAP	79	336	5
NMTAP	80	0	3
NMTAP	80	48	2
NMSTR	80	48	5
NMSI_	80	48	5	96	36	7
NMTAP	80	96	4
NMTAP	80	144	2
NMTAP	80	144	5
NMTAP	80	192	2
BRTAP	80	240	3
BXTAP	80	240	7
BRSTR	80	288	3
NMSCR	80	288	3	96	40	7
NMSUR	80	288	3	96	40	7
BXTAP	80	288	7
EXTAP	81	0	3
NMSTR	81	96	3
NMSCL	81	96	3	96	36	0
NMTAP	81	144	2
NMTAP	81	144	4
EXTAP	81	192	3
NMTTP	81	192	4	E	0	M1
NMTTP	81	198	3	E	0	M1
NMTTP	81	204	2	E	0	M1
NMTTP	81	210	1	E	1	M1
NMTAP	81	264	4
NMSTR	81	288	4
NMSCR	81	288	4	96	36	7
NMTAP	81	336	3
NMTAP	81	336	5
EXTAP	82	0	4
NMTTP	82	0	4	E	0	M1
NMTTP	82	6	5	E	0	M1
NMTTP	82	12	6	E	0	M1
NMTTP	82	18	7	E	1	M1
NMTAP	82	72	3
NMSTR	82	96	3
NMSCL	82	96	3	96	36	0
NMTAP	82	144	2
NMTAP	82	144	4
EXTAP	82	192	3
NMTTP	82	192	4	E	0	M1
NMTTP	82	198	3	E	0	M1
NMTTP	82	204	2	E	0	M1
NMTTP	82	210	1	E	1	M1
EXTAP	82	288	3
BRTAP	82	336	1
BRTAP	82	336	5
NMTAP	83	0	0
NMTAP	83	0	6
NMTAP	83	96	3
NMTAP	83	96	4
NMHLD	83	144	3	42
NMHLD	83	144	4	42
EXTAP	83	192	2
EXTAP	83	192	5
EXTAP	83	198	1
EXTAP	83	198	6
BXHLD	83	204	0	84
BXHLD	83	204	7	84
NMTAP	83	336	2
NMTAP	83	336	6
NMTAP	84	0	4
NMTAP	84	0	5
NMTAP	84	48	0
NMTAP	84	48	7
EXSTR	84	96	1
NMSXR	84	96	1	96	120	3
EXSTR	84	96	6
NMSXL	84	96	6	96	120	3
EXTAP	84	192	1
EXTAP	84	192	6
BRTAP	85	0	1
BRTAP	85	0	6

T_REC_TAP	260
T_REC_BRK	35
T_REC_XTP	54
T_REC_BXX	8
T_REC_HLD	33
T_REC_XHO	3
T_REC_BHO	0
T_REC_BXH	2
T_REC_STR	84
T_REC_BST	9
T_REC_XST	20
T_REC_XBS	2
T_REC_TTP	108
T_REC_THO	2
T_REC_SLD	114
T_REC_BSL	18
T_REC_ALL	752
T_NUM_TAP	526
T_NUM_BRK	74
T_NUM_HLD	38
T_NUM_SLD	114
T_NUM_ALL	752
T_JUDGE_TAP	580
T_JUDGE_HLD	110
T_JUDGE_SLD	132
T_JUDGE_ALL	822
TTM_EACHPAIRS	146
TTM_SCR_TAP	263000
TTM_SCR_BRK	192400
TTM_SCR_HLD	38000
TTM_SCR_SLD	171000
TTM_SCR_ALL	664400
TTM_SCR_S	637300
TTM_SCR_SS	657000
TTM_RAT_ACV	10112

