VERSION	0.00.00	1.05.00
FES_MODE	0
BPM_DEF	132.000	132.000	132.000	132.000
MET_DEF	4	4
RESOLUTION	384
CLK_DEF	384
COMPATIBLE_CODE	MA2

BPM	0	0	132.000
MET	0	0	4	4

EXSTR	2	0	1
NMSXR	2	0	1	96	480	4
EXSTR	2	0	6
NMSXL	2	0	6	96	480	4
NMHLD	4	0	3	288
NMHLD	4	0	5	288
NMHLD	5	0	2	288
NMHLD	5	0	4	288
EXSTR	6	0	1
NMSXR	6	0	1	96	480	3
EXSTR	6	0	6
NMSXL	6	0	6	96	480	3
NMHLD	8	0	2	96
NMHLD	8	0	4	96
NMHLD	8	192	3	96
NMHLD	8	192	5	96
NMTAP	9	0	3
NMTAP	9	0	5
NMHLD	9	96	2	96
NMHLD	9	96	4	96
BRTAP	9	240	2
BRTAP	9	240	3
NMTAP	9	336	1
NMTAP	9	336	3
NMTAP	10	0	1
NMTAP	10	0	3
NMSTR	10	96	0
NMSCR	10	96	0	96	96	4
NMTAP	10	192	5
NMHLD	10	288	6	96
NMTAP	11	0	4
NMTAP	11	48	4
NMTAP	11	96	5
NMTAP	11	144	3
NMTAP	11	192	2
NMTAP	11	288	1
NMTAP	11	288	3
NMTAP	12	0	0
NMHLD	12	48	0	96
NMTTP	12	144	2	E	0	M1
NMTTP	12	192	3	E	0	M1
NMTTP	12	240	4	E	0	M1
NMTTP	12	288	5	E	0	M1
NMTAP	13	0	7
NMHLD	13	48	7	96
NMTTP	13	144	5	E	0	M1
NMTTP	13	192	4	E	0	M1
NMTTP	13	240	3	E	0	M1
NMTTP	13	288	2	E	0	M1
EXTAP	14	0	0
EXTAP	14	0	6
NMTAP	14	96	1
NMSTR	14	96	7
NMSCL	14	96	7	96	96	3
NMTAP	14	192	2
NMHLD	14	288	1	96
NMTAP	15	0	3
NMTAP	15	48	3
NMTAP	15	96	2
NMTAP	15	144	4
NMTAP	15	192	5
NMTAP	15	288	4
NMTAP	15	288	6
NMTAP	16	0	7
NMHLD	16	48	7	96
NMTTP	16	144	7	E	0	M1
NMTTP	16	192	0	E	0	M1
NMTTP	16	240	1	E	0	M1
NMTTP	16	288	2	E	0	M1
NMTAP	17	0	0
NMHLD	17	48	0	96
NMTTP	17	144	1	E	0	M1
NMTTP	17	192	0	E	0	M1
NMTTP	17	240	7	E	0	M1
NMTTP	17	288	6	E	0	M1
EXTAP	18	0	1
EXTAP	18	0	7
NMTAP	18	96	2
NMTAP	18	144	2
NMTAP	18	192	4
NMTAP	18	240	4
NMTAP	18	288	3
NMTAP	18	288	5
NMHLD	19	0	5	96
NMHLD	19	0	7	96
NMHLD	19	192	0	96
NMHLD	19	192	2	96
NMSTR	20	0	0
NMSCL	20	0	0	96	48	5
NMSTR	20	0	1
NMSCR	20	0	1	96	48	4
EXTAP	20	192	3
EXTAP	20	192	6
NMTAP	20	288	4
NMTAP	20	288	5
NMTAP	20	336	4
NMTAP	20	336	5
NMTAP	21	48	6
NMTAP	21	48	7
NMSTR	21	96	6
NMSCL	21	96	6	96	48	3
NMSTR	21	96	7
NMSCR	21	96	7	96	48	2
EXTAP	21	288	1
EXTAP	21	288	4
NMSTR	22	0	0
NMSLR	22	0	0	96	96	4
NMTAP	22	96	5
NMSTR	22	192	7
NMSLL	22	192	7	96	96	3
NMTAP	22	288	2
NMHLD	23	0	1	96
NMTAP	23	96	3
NMTAP	23	144	3
NMTAP	23	192	2
NMTAP	23	288	4
NMTAP	23	288	5
BXTAP	24	0	4
BXTAP	24	0	5
BXTAP	24	96	6
BXTAP	24	96	7
BXTAP	24	192	0
BXTAP	24	192	1
BXTAP	24	288	2
BXTAP	24	288	3
NMTAP	24	336	4
NMTAP	25	0	3
NMTAP	25	0	5
NMTAP	25	96	3
NMTAP	25	96	5
EXTAP	25	240	2
EXTAP	25	240	6
EXTAP	25	288	2
EXTAP	25	288	6
BXSTR	26	0	7
NMSCR	26	0	7	96	48	0
CNSI_	26	144	0	0	240	3
NMTTP	27	192	4	E	0	M1
NMTTP	27	288	5	E	0	M1
BXSTR	28	0	6
NMSCR	28	0	6	96	144	1
CNSI_	28	240	1	0	144	5
CNSI_	29	0	5	0	144	2
EXTAP	29	288	3
EXTAP	29	288	4
NMSTR	30	0	4
NMSCL	30	0	4	96	144	2
NMHLD	30	0	5	96
NMTAP	30	192	5
CNSV_	30	240	2	0	144	1
NMTAP	30	288	5
CNSCL	31	0	1	0	144	7
NMTAP	31	0	5
NMTAP	31	96	5
NMTAP	31	192	5
NMTAP	31	288	5
NMTAP	32	0	7
NMTAP	32	48	7
NMTAP	32	96	0
NMTAP	32	96	6
NMTAP	32	144	0
NMTAP	32	144	6
NMTAP	32	192	1
NMTAP	32	192	5
NMTAP	32	240	1
NMTAP	32	240	5
NMTAP	32	288	2
NMTAP	32	288	4
NMTAP	32	336	2
NMTAP	32	336	4
BRTAP	33	0	2
BRTAP	33	0	4
NMHLD	33	96	1	480
NMTAP	33	192	7
EXSTR	33	288	0
NMSI_	33	288	0	96	48	4
EXSTR	34	0	0
NMSI_	34	0	0	96	48	3
EXSTR	34	96	0
NMSI_	34	96	0	96	48	5
EXTAP	34	192	0
NMTAP	34	288	2
NMTAP	34	336	2
NMTAP	35	0	1
NMTAP	35	0	3
NMTAP	35	96	5
NMTAP	35	144	5
NMTAP	35	192	4
NMHLD	35	192	6	384
EXSTR	35	288	7
NMSI_	35	288	7	96	48	3
EXSTR	36	0	7
NMSI_	36	0	7	96	48	4
EXSTR	36	96	7
NMSI_	36	96	7	96	48	2
EXTAP	36	192	7
NMTAP	36	288	5
NMTAP	36	336	5
NMTAP	37	0	4
NMTAP	37	0	6
NMTAP	37	96	0
NMTAP	37	96	7
NMHLD	37	192	1	384
NMTAP	37	192	3
EXSTR	37	288	0
NMSI_	37	288	0	96	48	4
EXSTR	38	0	0
NMSI_	38	0	0	96	48	3
EXSTR	38	96	0
NMSI_	38	96	0	96	48	5
EXTAP	38	192	0
NMTAP	38	288	2
NMTAP	38	336	2
NMTAP	39	0	1
NMTAP	39	0	3
NMTAP	39	96	5
NMTAP	39	144	5
NMTAP	39	192	4
NMTAP	39	192	6
NMSTR	39	288	6
NMSI_	39	288	6	96	48	4
NMSTR	39	288	7
NMSI_	39	288	7	96	48	3
EXTAP	40	0	6
EXTAP	40	0	7
NMSTR	40	96	0
NMSI_	40	96	0	96	48	4
NMSTR	40	96	1
NMSI_	40	96	1	96	48	3
EXTAP	40	192	0
EXTAP	40	192	1
NMSTR	40	288	6
NMSI_	40	288	6	96	48	4
NMSTR	40	288	7
NMSI_	40	288	7	96	48	3
EXTAP	41	0	6
EXTAP	41	0	7
NMTAP	41	96	0
NMTAP	41	96	1
NMTAP	41	144	0
NMTAP	41	144	1
BRTAP	41	192	2
BRTAP	41	192	7
NMSTR	42	0	7
NMSCL	42	0	7	96	96	3
NMSTR	42	96	3
NMSCL	42	96	3	96	96	7
NMSTR	42	192	7
NMSCL	42	192	7	96	96	3
NMSTR	42	288	3
NMSCL	42	288	3	96	96	7
NMTAP	43	0	7
NMTAP	43	96	3
NMTAP	43	192	1
NMTAP	43	192	5
NMTAP	43	288	1
NMTAP	43	288	5
NMSTR	44	0	0
NMSCR	44	0	0	96	96	4
NMSTR	44	96	4
NMSCR	44	96	4	96	96	0
NMSTR	44	192	0
NMSCR	44	192	0	96	96	4
NMSTR	44	288	4
NMSCR	44	288	4	96	96	0
NMTAP	45	0	0
NMTAP	45	96	4
EXTAP	45	192	2
EXTAP	45	192	6
BXTAP	45	240	2
BXTAP	45	240	6
BXTAP	45	288	2
BXTAP	45	288	6
NMSTR	46	0	7
NMSCL	46	0	7	96	96	3
NMSTR	46	96	3
NMSCL	46	96	3	96	96	7
NMSTR	46	192	7
NMSCL	46	192	7	96	96	3
NMSTR	46	288	3
NMSCL	46	288	3	96	96	7
NMTAP	47	0	7
NMTAP	47	96	3
NMTAP	47	192	1
NMTAP	47	192	5
NMTAP	47	288	1
NMTAP	47	288	5
NMSTR	48	0	0
NMSCR	48	0	0	96	96	4
NMSTR	48	96	4
NMSCR	48	96	4	96	96	0
NMSTR	48	192	0
NMSCR	48	192	0	96	96	4
NMSTR	48	288	4
NMSCR	48	288	4	96	96	0
NMTAP	49	0	0
NMTAP	49	96	4
BRTAP	49	192	2
BRTAP	49	192	6
NMHLD	50	0	1	384
NMTAP	50	96	3
NMTAP	50	288	3
NMTAP	51	0	4
NMTAP	51	48	4
NMTAP	51	96	2
NMTAP	51	144	2
NMTAP	51	192	3
NMTAP	51	192	5
NMSTR	51	288	7
NMSI_	51	288	7	96	96	4
NMSSR	51	288	7	96	96	3
BXHLD	52	192	2	96
BXHLD	52	192	7	96
NMTTP	53	0	6	E	0	M1
NMTTP	53	48	5	E	0	M1
NMTTP	53	96	0	C	0	M1
NMTTP	53	144	3	E	0	M1
NMTTP	53	192	2	E	0	M1
NMSTR	54	0	3
NMSV_	54	0	3	96	96	1
NMSTR	54	0	4
NMSV_	54	0	4	96	96	6
NMTAP	54	48	3
NMTAP	54	48	4
EXHLD	54	288	2	288
NMTTP	55	0	3	E	1	M1
NMTTP	55	96	5	E	1	M1
NMTTP	55	192	4	E	1	M1
EXSTR	55	288	5
NMSI_	55	288	5	96	48	0
NMSV_	55	288	5	96	144	3
CNSI_	56	48	0	0	96	3
BXHLD	56	192	2	96
BXHLD	56	192	7	96
NMTTP	57	0	6	E	0	M1
NMTTP	57	48	7	E	0	M1
NMTTP	57	96	0	C	0	M1
NMTTP	57	144	1	E	0	M1
NMTTP	57	192	2	E	0	M1
NMTAP	58	0	0
NMTAP	58	0	6
NMTAP	58	48	1
NMTAP	58	48	5
NMTAP	58	96	2
NMTAP	58	96	4
NMTAP	58	192	1
NMTAP	58	192	7
NMTAP	58	240	2
NMTAP	58	240	6
NMHLD	58	288	3	288
NMTAP	58	288	5
NMTTP	59	0	3	E	1	M1
NMTTP	59	96	5	E	1	M1
NMTTP	59	192	4	E	1	M1
EXSTR	59	288	0
NMSSL	59	288	0	96	96	4
BXHLD	60	192	2	96
BXHLD	60	192	7	96
NMTTP	61	0	4	E	0	M1
NMTTP	61	48	5	E	0	M1
NMTTP	61	96	0	C	0	M1
NMTTP	61	144	1	E	0	M1
NMTTP	61	192	0	E	0	M1
NMHLD	62	0	6	48
NMHLD	62	0	7	48
NMTAP	62	96	6
NMTAP	62	96	7
NMTAP	62	192	4
NMTAP	62	192	5
NMTAP	62	240	3
NMHLD	62	288	2	288
NMTTP	63	0	3	E	1	M1
NMTTP	63	96	5	E	1	M1
NMTTP	63	192	4	E	1	M1
EXSTR	63	288	4
BRSF_	63	288	4	96	96	0
BXHLD	64	192	2	96
BXHLD	64	192	7	96
NMTTP	65	0	4	E	0	M1
NMTTP	65	48	3	E	0	M1
NMTTP	65	96	0	C	0	M1
NMTTP	65	144	7	E	0	M1
NMTTP	65	192	0	E	0	M1
NMTAP	66	0	0
NMTAP	66	0	1
NMTAP	66	48	0
NMTAP	66	48	1
NMTAP	66	96	2
NMTAP	66	96	7
NMTAP	66	192	6
NMTAP	66	192	7
NMTAP	66	240	6
NMTAP	66	240	7
NMTAP	66	288	0
NMTAP	66	288	5
BXHLD	67	0	2	96
BXHLD	67	96	0	96
BXTAP	67	192	7
NMTAP	67	240	7
BXTAP	67	288	5
NMTAP	67	336	5
EXTAP	68	0	2
EXTAP	68	0	4
NMHLD	68	96	5	480
EXTAP	68	192	0
EXSTR	68	288	7
NMSI_	68	288	7	96	48	3
EXSTR	69	0	7
NMSCL	69	0	7	96	48	4
EXSTR	69	96	7
NMSCR	69	96	7	96	48	2
EXTAP	69	192	7
NMTAP	69	288	6
NMTAP	69	336	6
NMTAP	70	0	0
NMTAP	70	0	7
NMTAP	70	96	1
NMTAP	70	144	1
NMHLD	70	192	2	384
NMTAP	70	192	3
EXSTR	70	288	0
NMSI_	70	288	0	96	48	4
EXSTR	71	0	0
NMSCR	71	0	0	96	48	3
EXSTR	71	96	0
NMSCL	71	96	0	96	48	5
EXTAP	71	192	0
NMTAP	71	288	1
NMTAP	71	336	1
NMTAP	72	0	2
NMTAP	72	0	3
NMTAP	72	96	6
NMTAP	72	144	6
NMTAP	72	192	4
NMHLD	72	192	5	384
EXSTR	72	288	7
NMSI_	72	288	7	96	48	3
EXSTR	73	0	7
NMSCL	73	0	7	96	48	4
EXSTR	73	96	7
NMSCR	73	96	7	96	48	2
EXTAP	73	192	7
NMTAP	73	288	6
NMTAP	73	336	6
NMTAP	74	0	4
NMTAP	74	0	5
NMTAP	74	96	3
NMTAP	74	144	2
NMTAP	74	192	0
NMTAP	74	192	1
NMSTR	74	288	0
NMSUR	74	288	0	96	48	4
NMSTR	74	288	1
NMSCR	74	288	1	96	48	3
EXTAP	75	0	0
EXTAP	75	0	1
NMSTR	75	96	6
NMSCL	75	96	6	96	48	4
NMSTR	75	96	7
NMSUL	75	96	7	96	48	3
EXTAP	75	192	6
EXTAP	75	192	7
NMSTR	75	288	0
NMSUR	75	288	0	96	48	4
NMSTR	75	288	1
NMSCR	75	288	1	96	48	3
EXTAP	76	0	0
EXTAP	76	0	1
NMTAP	76	96	6
NMTAP	76	96	7
NMTAP	76	144	6
NMTAP	76	144	7
BRTAP	76	192	0
BRTAP	76	192	5
EXSTR	76	288	3
NMSI_	76	288	3	96	48	7
EXSTR	76	288	4
NMSI_	76	288	4	96	48	6
NMSTR	77	96	3
NMSI_	77	96	3	96	48	1
NMSTR	77	96	4
NMSI_	77	96	4	96	48	0
NMSTR	77	288	3
NMSI_	77	288	3	96	48	7
NMSTR	77	288	4
NMSI_	77	288	4	96	48	6
NMSTR	78	96	3
NMSI_	78	96	3	96	48	1
NMSTR	78	96	4
NMSI_	78	96	4	96	48	0
NMTAP	78	288	3
NMTAP	78	288	4
NMTAP	79	0	5
NMTAP	79	96	6
NMTAP	79	96	7
NMTAP	79	144	6
NMTAP	79	144	7
BRTAP	79	192	0
BRTAP	79	192	5
NMTAP	79	288	2
NMTAP	79	288	4
NMTAP	79	336	2
NMTAP	79	336	4
NMTAP	80	48	1
NMTAP	80	48	7
NMTAP	80	144	0
NMTAP	80	144	6
NMTAP	80	192	0
NMTAP	80	192	6
NMTAP	80	240	5
EXSTR	80	288	3
NMSI_	80	288	3	96	48	7
EXSTR	80	288	4
NMSI_	80	288	4	96	48	6
NMSTR	81	96	3
NMSI_	81	96	3	96	48	1
NMSTR	81	96	4
NMSI_	81	96	4	96	48	0
NMSTR	81	288	3
NMSI_	81	288	3	96	48	7
NMSTR	81	288	4
NMSI_	81	288	4	96	48	6
NMSTR	82	96	3
NMSI_	82	96	3	96	48	1
NMSTR	82	96	4
NMSI_	82	96	4	96	48	0
NMTAP	82	288	3
NMTAP	82	288	4
NMTAP	83	0	5
NMTAP	83	96	6
NMTAP	83	96	7
NMTAP	83	144	6
NMTAP	83	144	7
BRTAP	83	192	0
BRTAP	83	192	5
NMTAP	83	288	2
NMTAP	83	288	4
NMTAP	83	336	5
NMSTR	84	0	4
NMSCL	84	0	4	96	48	1
NMSTR	84	0	5
NMSCR	84	0	5	96	48	0
EXHLD	84	192	2	96
EXHLD	84	192	7	96
BRTAP	85	0	1
BRTAP	85	0	6

T_REC_TAP	208
T_REC_BRK	16
T_REC_XTP	37
T_REC_BXX	14
T_REC_HLD	33
T_REC_XHO	3
T_REC_BHO	0
T_REC_BXH	10
T_REC_STR	54
T_REC_BST	0
T_REC_XST	29
T_REC_XBS	2
T_REC_TTP	47
T_REC_THO	0
T_REC_SLD	86
T_REC_BSL	1
T_REC_ALL	540
T_NUM_TAP	375
T_NUM_BRK	43
T_NUM_HLD	36
T_NUM_SLD	86
T_NUM_ALL	540
T_JUDGE_TAP	407
T_JUDGE_HLD	164
T_JUDGE_SLD	87
T_JUDGE_ALL	658
TTM_EACHPAIRS	131
TTM_SCR_TAP	187500
TTM_SCR_BRK	111800
TTM_SCR_HLD	36000
TTM_SCR_SLD	129000
TTM_SCR_ALL	464300
TTM_SCR_S	446200
TTM_SCR_SS	460000
TTM_RAT_ACV	10093

