VERSION	0.00.00	1.05.00
FES_MODE	0
BPM_DEF	132.000	132.000	132.000	132.000
MET_DEF	4	4
RESOLUTION	384
CLK_DEF	384
COMPATIBLE_CODE	MA2

BPM	0	0	132.000
MET	0	0	4	4

NMTAP	2	0	2
NMTAP	2	0	3
NMSTR	2	96	2
NMSCL	2	96	2	96	384	5
NMHLD	2	96	3	480
NMTAP	4	0	4
NMTAP	4	0	5
NMHLD	4	96	4	480
NMSTR	4	96	5
NMSCR	4	96	5	96	384	2
NMTAP	6	0	1
NMTAP	6	0	4
NMSTR	6	96	2
NMSCR	6	96	2	96	384	1
NMHLD	6	96	3	480
NMTAP	8	0	4
NMTAP	8	0	6
NMHLD	8	96	4	384
BXSTR	8	96	6
BRSI_	8	96	6	96	192	3
CNSI_	9	0	3	0	96	0
EXTAP	9	288	0
EXTAP	9	288	6
NMTAP	10	0	5
NMTAP	10	96	4
NMTAP	10	96	5
NMTAP	10	192	2
NMTAP	10	240	2
NMTAP	10	288	3
NMTAP	11	0	5
NMTAP	11	48	5
NMTAP	11	96	4
NMHLD	11	192	3	96
NMHLD	11	192	6	96
NMTAP	12	0	7
NMTAP	12	96	7
NMTAP	12	192	4
NMTAP	12	192	6
NMTAP	12	240	4
NMTAP	12	240	6
NMTAP	12	288	4
NMTAP	12	288	6
NMTAP	13	0	3
NMTAP	13	96	2
NMTAP	13	192	1
NMTAP	13	192	3
NMTAP	13	240	1
NMTAP	13	240	3
NMTAP	13	288	1
NMTAP	13	288	3
NMTAP	14	0	2
NMTAP	14	96	1
NMTAP	14	96	3
NMTAP	14	192	5
NMTAP	14	240	5
NMTAP	14	288	4
NMTAP	15	0	2
NMTAP	15	48	2
NMTAP	15	96	3
NMHLD	15	192	1	96
NMHLD	15	192	4	96
NMTAP	16	0	0
NMTAP	16	96	0
NMTAP	16	192	1
NMTAP	16	192	3
NMTAP	16	240	1
NMTAP	16	240	3
NMTAP	16	288	1
NMTAP	16	288	3
NMTAP	17	0	4
NMTAP	17	96	5
NMTAP	17	192	4
NMTAP	17	192	6
NMTAP	17	240	4
NMTAP	17	240	6
NMTAP	17	288	4
NMTAP	17	288	6
NMTAP	18	0	5
NMTAP	18	96	4
NMTAP	18	96	6
NMTAP	18	192	0
NMTAP	18	192	7
NMTAP	18	288	1
NMTAP	18	288	3
NMTAP	19	0	3
NMTAP	19	0	4
NMTAP	19	96	4
NMTAP	19	96	6
NMTAP	19	192	0
NMTAP	19	192	7
NMTAP	19	288	0
NMTAP	19	288	7
NMSTR	20	0	7
NMSCL	20	0	7	96	96	4
NMSTR	20	192	3
NMSCL	20	192	3	96	96	0
NMSTR	21	0	6
NMSCL	21	0	6	96	96	3
NMSTR	21	192	2
NMSCL	21	192	2	96	96	7
NMTAP	22	0	6
NMTAP	22	96	6
NMTAP	22	96	7
NMTAP	22	192	5
NMTAP	22	240	5
NMTAP	22	288	4
NMTAP	23	0	3
NMTAP	23	96	2
NMTAP	23	96	3
NMTAP	23	192	1
NMTAP	23	240	1
NMTAP	23	288	0
NMTAP	24	0	2
NMTAP	24	0	3
NMTAP	24	96	3
NMTAP	24	96	4
NMHLD	24	192	4	96
NMHLD	24	192	5	96
EXTAP	25	0	3
EXTAP	25	0	6
EXTAP	25	96	1
EXTAP	25	96	4
NMTAP	25	240	0
NMTAP	25	240	6
NMTAP	25	288	0
NMTAP	25	288	6
BRSTR	26	0	1
NMSCR	26	0	1	96	240	3
BRSTR	26	0	7
NMSCL	26	0	7	96	240	5
CNSI_	26	336	3	0	240	7
CNSI_	26	336	5	0	240	1
BRSTR	28	0	0
NMSI_	28	0	0	96	96	5
CNSI_	28	192	5	0	96	2
CNSI_	28	288	2	0	288	7
BRSTR	30	0	6
NMSXL	30	0	6	96	336	1
CNSV_	31	48	1	0	144	4
NMTAP	31	288	3
NMTAP	31	288	5
NMTHO	32	0	4	384	E	0	M1
NMTTP	33	96	5	B	0	M1
NMTTP	33	192	2	B	0	M1
NMTTP	33	288	0	C	1	M1
BXTAP	34	0	0
BXTAP	34	0	6
NMTAP	34	96	2
NMTAP	34	96	3
NMTAP	34	192	1
NMTAP	34	192	7
NMTAP	34	288	4
NMTAP	34	288	5
NMTAP	35	0	0
NMTAP	35	0	6
NMTAP	35	96	0
NMTAP	35	96	6
NMTAP	35	192	1
NMTAP	35	192	7
NMTAP	35	288	1
NMTAP	35	288	7
NMTAP	36	0	6
NMTAP	36	0	7
NMTAP	36	96	4
NMTAP	36	96	5
NMTAP	36	192	2
NMTAP	36	192	3
NMTAP	36	288	0
NMTAP	36	288	1
NMTAP	37	0	0
NMTAP	37	0	1
NMTAP	37	96	2
NMTAP	37	96	7
NMTAP	37	192	3
NMTAP	37	192	6
NMTAP	37	288	3
NMTAP	37	288	6
NMHLD	38	0	5	96
NMHLD	38	96	7	96
NMHLD	38	192	0	96
NMTAP	38	288	2
NMHLD	39	0	2	96
NMHLD	39	96	0	96
NMHLD	39	192	7	96
NMSTR	39	288	5
NMSUL	39	288	5	96	192	4
NMTAP	40	288	3
NMTAP	40	288	5
NMSTR	41	0	3
NMSXL	41	0	3	96	192	3
NMSXR	41	0	3	96	192	3
NMTAP	42	0	4
NMTAP	42	0	5
NMTAP	42	96	2
NMTAP	42	96	3
NMTAP	42	192	6
NMTAP	42	192	7
NMTAP	42	288	0
NMTAP	42	288	1
NMTAP	43	0	4
NMTAP	43	0	5
NMTAP	43	96	2
NMTAP	43	96	3
NMTAP	43	192	6
NMTAP	43	192	7
NMTAP	43	288	0
NMTAP	43	288	1
NMTAP	44	0	3
NMTAP	44	0	5
NMTAP	44	96	2
NMTAP	44	96	4
NMHLD	44	192	0	96
NMHLD	44	192	7	96
NMTAP	45	0	0
NMTAP	45	0	6
NMTAP	45	96	1
NMTAP	45	96	7
NMTAP	45	192	2
NMTAP	45	192	6
NMTTP	45	288	0	C	1	M1
EXSTR	46	0	1
NMSUR	46	0	1	96	96	5
NMSTR	46	192	6
NMSUL	46	192	6	96	96	2
NMSTR	47	0	0
NMSUR	47	0	0	96	96	4
NMSTR	47	192	7
NMSUL	47	192	7	96	96	3
NMTAP	48	0	2
NMTAP	48	96	1
NMTAP	48	96	4
NMHLD	48	192	0	96
NMHLD	48	192	5	96
NMTAP	49	0	6
NMSTR	49	96	7
NMSF_	49	96	7	96	96	3
NMSTR	50	0	5
NMSXL	50	0	5	96	336	2
NMTAP	51	192	2
NMTAP	51	192	5
EXTAP	51	336	3
EXTAP	51	336	4
EXHLD	52	0	3	96
EXHLD	52	0	4	96
BXHLD	52	192	7	96
NMSTR	53	0	3
NMSXL	53	0	3	96	144	5
NMSXR	53	0	3	96	144	1
NMTTP	54	0	2	E	0	M1
NMTTP	54	96	0	C	0	M1
NMTTP	54	192	6	E	0	M1
NMTAP	54	288	7
NMTAP	55	0	6
NMTAP	55	96	3
NMHLD	55	96	5	96
NMTTP	55	192	1	B	1	M1
EXTAP	55	336	4
EXTAP	55	336	5
EXHLD	56	0	4	96
EXHLD	56	0	5	96
BXHLD	56	192	7	96
NMSTR	57	0	3
NMSXL	57	0	3	96	192	3
NMSXR	57	0	3	96	192	3
NMTAP	58	0	6
NMTAP	58	96	5
NMTAP	58	192	4
NMHLD	58	288	3	288
NMTAP	59	0	2
NMTAP	59	96	5
NMTTP	59	192	6	B	1	M1
EXTAP	59	336	2
EXTAP	59	336	3
EXHLD	60	0	2	96
EXHLD	60	0	3	96
BXHLD	60	192	7	96
NMSTR	61	0	4
NMSXL	61	0	4	96	192	4
NMSXR	61	0	4	96	192	4
NMSTR	62	0	4
NMSXR	62	0	4	96	96	2
EXHLD	62	192	3	384
NMTTP	63	0	3	E	0	M1
NMTTP	63	96	5	E	0	M1
NMTTP	63	192	0	C	1	M1
EXTAP	63	336	1
EXTAP	63	336	6
EXHLD	64	0	1	96
EXHLD	64	0	6	96
BXHLD	64	192	7	96
NMSTR	65	0	3
NMSXR	65	0	3	96	192	4
NMSTR	65	0	5
NMSXL	65	0	5	96	192	4
NMTAP	66	0	6
NMTAP	66	96	7
NMTAP	66	192	0
NMTAP	66	288	1
BRTAP	67	0	4
BRTAP	67	0	6
BRTAP	67	96	1
BRTAP	67	96	3
BRHLD	67	192	0	96
BRHLD	67	192	7	96
NMTTP	68	0	0	C	1	M1
NMTTP	68	0	1	B	0	M1
NMTTP	68	0	2	B	0	M1
NMTTP	68	0	2	E	0	M1
NMTTP	68	0	3	B	0	M1
NMTTP	68	0	4	B	0	M1
NMTTP	68	0	4	E	0	M1
NMTTP	68	0	5	B	0	M1
NMTTP	68	0	6	B	0	M1
NMTTP	68	0	6	E	0	M1
EXTAP	68	288	2
EXTAP	68	288	5
BRTAP	69	0	1
BRTAP	69	0	7
NMTAP	69	96	4
NMTAP	69	96	5
NMTAP	69	192	0
NMTAP	69	192	6
NMTAP	69	288	2
NMTAP	69	288	3
NMTAP	70	0	1
NMTAP	70	0	7
NMTAP	70	96	1
NMTAP	70	96	7
NMTAP	70	192	0
NMTAP	70	192	6
NMTAP	70	288	0
NMTAP	70	288	6
NMTAP	71	0	0
NMTAP	71	0	1
NMTAP	71	96	2
NMTAP	71	96	3
NMTAP	71	192	4
NMTAP	71	192	5
NMTAP	71	288	6
NMTAP	71	288	7
NMTAP	72	0	6
NMTAP	72	0	7
NMTAP	72	96	0
NMTAP	72	96	5
NMTAP	72	192	1
NMTAP	72	192	4
NMTAP	72	288	2
NMTAP	72	288	3
NMHLD	73	0	1	96
NMHLD	73	96	3	96
NMHLD	73	192	4	96
NMTAP	73	288	6
NMHLD	74	0	6	96
NMHLD	74	96	4	96
NMHLD	74	192	3	96
NMSTR	74	288	1
NMSUL	74	288	1	96	192	3
NMTAP	75	288	2
NMTAP	75	288	4
NMSTR	76	0	2
NMSXR	76	0	2	96	192	3
NMSTR	76	0	4
NMSXL	76	0	4	96	192	3
NMSTR	77	0	6
NMSI_	77	0	6	96	72	3
NMSTR	77	192	2
NMSI_	77	192	2	96	72	0
NMSTR	78	0	7
NMSI_	78	0	7	96	72	3
NMSTR	78	192	1
NMSI_	78	192	1	96	72	5
NMTAP	79	0	6
NMTAP	79	96	7
NMHLD	79	192	0	96
NMHLD	79	192	1	96
NMTAP	80	0	6
NMTAP	80	0	7
NMTAP	80	96	0
NMTAP	80	96	1
NMTAP	80	192	1
NMTAP	80	192	6
BRTAP	80	288	3
BRTAP	80	288	4
NMTAP	81	0	3
NMTAP	81	0	4
NMTAP	81	96	6
NMTAP	81	96	7
NMTAP	81	192	3
NMTAP	81	192	4
NMTAP	81	288	0
NMTAP	81	288	1
NMTAP	82	0	3
NMTAP	82	0	4
NMTAP	82	96	6
NMTAP	82	96	7
NMTAP	82	192	3
NMTAP	82	192	4
NMTAP	82	288	0
NMTAP	82	288	1
NMTAP	83	0	3
NMTAP	83	0	4
NMTAP	83	96	6
NMTAP	83	96	7
NMHLD	83	192	1	96
NMHLD	83	192	7	96
NMTAP	84	0	6
NMSTR	84	96	4
NMSF_	84	96	4	96	96	0
BRTAP	85	0	2
BRTAP	85	0	6

T_REC_TAP	234
T_REC_BRK	10
T_REC_XTP	16
T_REC_BXX	2
T_REC_HLD	32
T_REC_XHO	9
T_REC_BHO	2
T_REC_BXH	4
T_REC_STR	28
T_REC_BST	4
T_REC_XST	1
T_REC_XBS	1
T_REC_TTP	22
T_REC_THO	1
T_REC_SLD	37
T_REC_BSL	1
T_REC_ALL	404
T_NUM_TAP	301
T_NUM_BRK	24
T_NUM_HLD	42
T_NUM_SLD	37
T_NUM_ALL	404
T_JUDGE_TAP	318
T_JUDGE_HLD	142
T_JUDGE_SLD	38
T_JUDGE_ALL	498
TTM_EACHPAIRS	126
TTM_SCR_TAP	150500
TTM_SCR_BRK	62400
TTM_SCR_HLD	42000
TTM_SCR_SLD	55500
TTM_SCR_ALL	310400
TTM_SCR_S	298800
TTM_SCR_SS	308000
TTM_RAT_ACV	10077

