VERSION	0.00.00	1.05.00
FES_MODE	0
BPM_DEF	132.000	132.000	132.000	132.000
MET_DEF	4	4
RESOLUTION	384
CLK_DEF	384
COMPATIBLE_CODE	MA2

BPM	0	0	132.000
MET	0	0	4	4

NMHLD	2	0	2	192
NMHLD	2	192	3	192
NMHLD	3	0	4	192
NMTAP	3	192	5
NMHLD	4	0	5	192
NMHLD	4	192	4	192
NMHLD	5	0	3	192
NMTAP	5	192	2
NMHLD	6	0	1	192
NMHLD	6	192	0	192
NMHLD	7	0	7	192
NMTAP	7	192	6
NMHLD	8	0	6	192
NMHLD	8	192	7	192
NMHLD	9	0	0	192
NMTAP	9	192	1
NMTAP	10	0	7
NMTAP	10	96	7
NMTAP	10	192	6
NMTAP	11	0	5
NMTAP	11	96	5
NMTAP	11	192	4
NMTAP	12	0	3
NMTAP	12	96	3
NMTAP	12	192	2
NMTAP	13	0	1
NMTAP	13	96	1
NMTAP	13	192	0
NMTAP	13	192	7
NMTAP	14	0	0
NMTAP	14	96	0
NMTAP	14	192	1
NMTAP	15	0	2
NMTAP	15	96	2
NMTAP	15	192	3
NMTAP	16	0	4
NMTAP	16	96	4
NMTAP	16	192	5
NMTAP	17	0	6
NMTAP	17	96	6
NMTAP	17	192	0
NMTAP	17	192	7
NMTAP	18	0	6
NMTAP	18	96	6
NMTAP	18	192	6
NMTAP	18	192	7
NMTAP	19	0	5
NMTAP	19	96	5
NMTAP	19	192	4
NMTAP	19	192	5
NMTAP	20	0	3
NMTAP	20	96	3
NMTAP	20	192	2
NMTAP	20	192	3
NMTAP	21	0	0
NMTAP	21	0	1
NMTAP	21	96	0
NMTAP	21	96	1
NMTAP	21	192	0
NMTAP	21	192	1
NMTAP	22	0	1
NMTAP	22	96	1
NMTAP	22	192	0
NMTAP	22	192	1
NMTAP	23	0	2
NMTAP	23	96	2
NMTAP	23	192	2
NMTAP	23	192	3
NMTAP	24	0	4
NMTAP	24	96	4
NMTAP	24	192	4
NMTAP	24	192	5
NMTAP	25	0	6
NMTAP	25	0	7
NMTAP	25	96	6
NMTAP	25	96	7
NMTAP	25	192	6
NMTAP	25	192	7
EXSTR	26	0	0
NMSI_	26	0	0	96	192	4
NMSTR	27	0	6
NMSI_	27	0	6	96	192	2
EXSTR	28	0	1
NMSI_	28	0	1	96	192	5
NMSTR	29	0	6
NMSI_	29	0	6	96	192	3
EXSTR	30	0	2
NMSI_	30	0	2	96	192	7
NMSTR	31	0	6
NMSI_	31	0	6	96	192	2
NMSTR	32	0	0
NMSI_	32	0	0	96	192	4
NMTAP	34	0	2
NMTAP	34	96	2
NMTAP	34	192	1
NMTAP	34	288	1
NMTAP	35	0	0
NMTAP	35	96	0
NMTAP	35	192	6
NMTAP	35	192	7
NMTAP	36	0	5
NMTAP	36	96	5
NMTAP	36	192	6
NMTAP	36	288	6
NMTAP	37	0	7
NMTAP	37	96	7
EXTAP	37	192	0
EXTAP	37	192	1
NMTAP	38	0	1
NMTAP	38	96	1
NMTAP	38	192	2
NMTAP	38	288	2
NMTAP	39	0	3
NMTAP	39	96	3
NMTAP	39	192	4
NMTAP	39	192	5
NMTAP	40	0	6
NMTAP	40	96	6
NMTAP	40	192	5
NMTAP	40	288	5
NMTAP	41	0	4
NMTAP	41	96	4
BXTAP	41	192	2
BXTAP	41	192	3
NMTAP	42	0	2
NMTAP	42	96	2
NMTAP	42	192	1
NMTAP	42	288	1
NMTAP	43	0	0
NMTAP	43	96	0
NMTAP	43	192	6
NMTAP	43	192	7
NMTAP	43	288	6
NMTAP	43	288	7
NMTAP	44	0	5
NMTAP	44	96	5
NMTAP	44	192	6
NMTAP	44	288	6
NMTAP	45	0	7
NMTAP	45	96	7
BXTAP	45	192	0
BXTAP	45	192	1
NMTAP	46	0	1
NMTAP	46	96	1
NMTAP	46	192	2
NMTAP	46	288	2
NMTAP	47	0	3
NMTAP	47	96	3
NMTAP	47	192	4
NMTAP	47	192	5
NMTAP	47	288	4
NMTAP	47	288	5
NMTAP	48	0	6
NMTAP	48	96	6
NMTAP	48	192	5
NMTAP	48	288	5
NMTAP	49	0	4
NMTAP	49	96	4
BRTAP	49	192	2
BRTAP	49	192	3
NMHLD	50	0	0	192
NMHLD	50	0	1	192
NMHLD	51	0	6	192
NMHLD	51	0	7	192
NMHLD	52	0	0	192
BXTAP	52	192	7
NMTAP	53	0	0
NMTAP	53	0	7
NMTAP	53	96	0
NMTAP	53	96	7
NMTAP	53	192	0
NMTAP	53	192	7
NMTAP	54	0	0
NMTAP	54	96	1
NMTAP	54	192	2
NMTAP	54	288	3
NMTAP	55	0	4
NMTAP	55	96	5
NMTAP	55	192	6
NMTAP	55	192	7
NMHLD	56	0	0	192
BXTAP	56	192	7
NMTAP	57	0	0
NMTAP	57	0	7
NMTAP	57	96	0
NMTAP	57	96	7
NMTAP	57	192	0
NMTAP	57	192	7
NMTAP	58	0	7
NMTAP	58	96	6
NMTAP	58	192	5
NMTAP	58	288	4
NMTAP	59	0	3
NMTAP	59	96	2
NMTAP	59	192	1
NMHLD	60	0	0	192
BXTAP	60	192	7
NMTAP	61	0	0
NMTAP	61	0	7
NMTAP	61	96	0
NMTAP	61	96	7
NMTAP	61	192	1
NMTAP	61	192	6
NMTTP	62	0	1	B	0	L1
NMTTP	62	96	2	B	0	L1
NMTTP	62	192	3	B	0	L1
NMTTP	63	0	6	B	0	L1
NMTTP	63	96	5	B	0	L1
NMTTP	63	192	4	B	0	L1
NMTHO	64	0	0	192	C	1	L1
NMTTP	65	0	0	B	0	L1
NMTTP	65	0	1	B	0	L1
NMTTP	65	192	6	B	0	L1
NMTTP	65	192	7	B	0	L1
NMTTP	66	0	1	B	0	L1
NMTTP	66	96	2	B	0	L1
NMTTP	66	192	3	B	0	L1
NMTTP	66	288	4	B	0	L1
NMTTP	67	0	5	B	0	L1
NMTTP	67	96	6	B	0	L1
NMTTP	67	192	0	C	1	L1
NMTAP	69	0	5
NMTAP	69	96	5
NMTAP	69	192	6
NMTAP	69	192	7
NMTAP	69	288	6
NMTAP	69	288	7
NMTAP	70	0	0
NMTAP	70	96	0
NMTAP	70	192	0
NMTAP	70	192	1
NMTAP	71	0	2
NMTAP	71	96	2
NMTAP	71	192	0
NMTAP	71	192	1
NMTAP	71	288	0
NMTAP	71	288	1
NMTAP	72	0	7
NMTAP	72	96	7
NMTAP	72	192	6
NMTAP	72	192	7
NMTAP	73	0	6
NMTAP	73	96	6
NMTAP	73	192	4
NMTAP	73	192	5
NMTAP	73	288	4
NMTAP	73	288	5
NMTAP	74	0	3
NMTAP	74	96	3
NMTAP	74	192	2
NMTAP	74	192	3
NMTAP	75	0	1
NMTAP	75	96	1
NMTAP	75	192	2
NMTAP	75	192	3
NMTAP	75	288	2
NMTAP	75	288	3
NMTAP	76	0	4
NMTAP	76	96	4
BRTAP	76	192	4
BRTAP	76	192	5
NMTAP	77	0	5
NMTAP	77	96	5
NMTAP	77	192	6
NMTAP	77	192	7
NMTAP	77	288	6
NMTAP	77	288	7
NMTAP	78	0	0
NMTAP	78	96	0
NMTAP	78	192	0
NMTAP	78	192	1
NMTAP	78	288	0
NMTAP	78	288	1
NMTAP	79	0	2
NMTAP	79	96	2
NMTAP	79	192	0
NMTAP	79	192	1
NMTAP	79	288	0
NMTAP	79	288	1
NMTAP	80	0	7
NMTAP	80	96	7
NMTAP	80	192	6
NMTAP	80	192	7
NMTAP	81	0	6
NMTAP	81	96	6
NMTAP	81	192	4
NMTAP	81	192	5
NMTAP	81	288	4
NMTAP	81	288	5
NMTAP	82	0	3
NMTAP	82	96	3
NMTAP	82	192	2
NMTAP	82	192	3
NMTAP	82	288	2
NMTAP	82	288	3
NMTAP	83	0	1
NMTAP	83	96	1
NMTAP	83	192	2
NMTAP	83	192	3
NMTAP	83	288	2
NMTAP	83	288	3
NMTAP	84	0	4
NMTAP	84	96	4
NMTAP	84	192	4
NMTAP	84	192	5
EXTAP	85	0	3
EXTAP	85	0	4

T_REC_TAP	241
T_REC_BRK	4
T_REC_XTP	4
T_REC_BXX	7
T_REC_HLD	19
T_REC_XHO	0
T_REC_BHO	0
T_REC_BXH	0
T_REC_STR	4
T_REC_BST	0
T_REC_XST	3
T_REC_XBS	0
T_REC_TTP	17
T_REC_THO	1
T_REC_SLD	7
T_REC_BSL	0
T_REC_ALL	307
T_NUM_TAP	269
T_NUM_BRK	11
T_NUM_HLD	20
T_NUM_SLD	7
T_NUM_ALL	307
T_JUDGE_TAP	280
T_JUDGE_HLD	80
T_JUDGE_SLD	7
T_JUDGE_ALL	367
TTM_EACHPAIRS	63
TTM_SCR_TAP	134500
TTM_SCR_BRK	28600
TTM_SCR_HLD	20000
TTM_SCR_SLD	10500
TTM_SCR_ALL	193600
TTM_SCR_S	186750
TTM_SCR_SS	192500
TTM_RAT_ACV	10057

