VERSION	0.00.00	1.05.00
FES_MODE	0
BPM_DEF	132.000	132.000	132.000	132.000
MET_DEF	4	4
RESOLUTION	384
CLK_DEF	384
COMPATIBLE_CODE	MA2

BPM	0	0	132.000
MET	0	0	4	4

NMTAP	2	0	0
NMTAP	2	192	0
NMTAP	3	0	1
NMTAP	4	0	2
NMTAP	4	192	2
NMTAP	5	0	3
NMTAP	6	0	4
NMTAP	6	192	4
NMTAP	7	0	5
NMTAP	8	0	6
NMTAP	8	192	6
NMTAP	9	0	0
NMTAP	9	0	7
NMTAP	10	0	7
NMTAP	10	192	7
NMTAP	11	0	6
NMTAP	12	0	5
NMTAP	12	192	5
NMTAP	13	0	3
NMTAP	13	0	4
NMTAP	14	0	3
NMTAP	14	192	3
NMTAP	15	0	2
NMTAP	16	0	1
NMTAP	16	192	1
NMTAP	17	0	0
NMTAP	17	0	7
NMTAP	18	0	0
NMTAP	18	0	1
NMTAP	18	192	0
NMTAP	18	192	1
NMTAP	19	0	0
NMTAP	19	0	1
NMTAP	20	0	2
NMTAP	20	0	3
NMTAP	20	192	2
NMTAP	20	192	3
NMTAP	21	0	2
NMTAP	21	0	3
NMTAP	22	0	4
NMTAP	22	0	5
NMTAP	22	192	4
NMTAP	22	192	5
NMTAP	23	0	4
NMTAP	23	0	5
NMTAP	24	0	6
NMTAP	24	0	7
NMTAP	24	192	6
NMTAP	24	192	7
NMTAP	25	0	6
NMTAP	25	0	7
NMHLD	26	0	6	384
NMHLD	26	0	7	384
NMHLD	28	0	4	384
NMHLD	28	0	5	384
NMHLD	30	0	2	384
NMHLD	30	0	3	384
NMHLD	32	0	0	384
NMHLD	32	0	1	384
BXTAP	34	0	0
NMTAP	34	192	0
NMTAP	35	0	1
NMTAP	35	96	1
NMTAP	35	192	1
NMTAP	36	0	2
NMTAP	36	192	2
NMTAP	37	0	3
NMTAP	37	96	3
NMTAP	37	192	3
NMTAP	38	0	4
NMTAP	38	192	4
NMTAP	39	0	5
NMTAP	39	96	5
NMTAP	39	192	5
NMTAP	40	0	6
NMTAP	40	192	6
NMTAP	41	0	0
NMTAP	41	0	7
NMSTR	42	0	7
NMSI_	42	0	7	96	288	3
NMSTR	44	0	0
NMSI_	44	0	0	96	288	4
NMSTR	46	0	6
NMSI_	46	0	6	96	288	2
NMSTR	48	0	1
NMSI_	48	0	1	96	288	5
NMTAP	50	0	7
NMTAP	50	192	7
NMTAP	51	0	0
NMTAP	51	0	7
NMTAP	52	0	0
BXTAP	52	192	0
NMTAP	53	0	1
NMTAP	53	96	1
NMTAP	53	192	1
NMTAP	54	0	2
NMTAP	54	192	2
NMTAP	55	0	3
NMTAP	55	96	3
NMTAP	55	192	3
NMTAP	55	192	4
NMTAP	56	0	4
BXTAP	56	192	4
NMTAP	57	0	5
NMTAP	57	96	5
NMTAP	57	192	5
NMTAP	58	0	6
NMTAP	58	192	6
NMTAP	59	0	7
NMTAP	59	96	7
NMTAP	59	192	0
NMTAP	59	192	7
NMTAP	60	0	7
BXTAP	60	192	7
NMTAP	61	0	6
NMTAP	61	96	6
NMTAP	61	192	6
NMTAP	62	0	5
NMTAP	62	192	5
NMTAP	63	0	4
NMTAP	63	96	4
NMTAP	63	192	3
NMTAP	63	192	4
NMTAP	64	0	3
BXTAP	64	192	3
NMTAP	65	0	2
NMTAP	65	96	2
NMTAP	65	192	2
NMTAP	66	0	1
NMTAP	66	192	1
NMTAP	67	0	0
NMTAP	67	96	0
NMTAP	67	192	0
EXTAP	68	0	0
EXTAP	68	0	7
BRTAP	69	0	0
NMTAP	69	96	0
NMTAP	69	192	0
NMTAP	70	0	1
NMTAP	70	96	1
NMTAP	70	192	1
NMTAP	71	0	2
NMTAP	71	96	2
NMTAP	71	192	2
NMTAP	72	0	3
NMTAP	72	0	4
NMTAP	72	192	3
NMTAP	72	192	4
NMTAP	73	0	4
NMTAP	73	96	4
NMTAP	73	192	4
NMTAP	74	0	5
NMTAP	74	96	5
NMTAP	74	192	5
NMTAP	75	0	6
NMTAP	75	96	6
NMTAP	75	192	6
NMTAP	76	0	0
NMTAP	76	0	7
NMTTP	77	0	0	E	0	L1
NMTTP	78	0	7	E	0	L1
NMTTP	79	0	6	E	0	L1
NMTTP	80	0	5	E	0	L1
NMTTP	81	0	4	E	0	L1
NMTTP	82	0	3	E	0	L1
NMTTP	83	0	2	E	0	L1
NMTTP	84	0	1	E	0	L1
NMTTP	85	0	0	C	1	L1

T_REC_TAP	135
T_REC_BRK	1
T_REC_XTP	2
T_REC_BXX	5
T_REC_HLD	8
T_REC_XHO	0
T_REC_BHO	0
T_REC_BXH	0
T_REC_STR	4
T_REC_BST	0
T_REC_XST	0
T_REC_XBS	0
T_REC_TTP	9
T_REC_THO	0
T_REC_SLD	4
T_REC_BSL	0
T_REC_ALL	168
T_NUM_TAP	150
T_NUM_BRK	6
T_NUM_HLD	8
T_NUM_SLD	4
T_NUM_ALL	168
T_JUDGE_TAP	156
T_JUDGE_HLD	64
T_JUDGE_SLD	4
T_JUDGE_ALL	224
TTM_EACHPAIRS	28
TTM_SCR_TAP	75000
TTM_SCR_BRK	15600
TTM_SCR_HLD	8000
TTM_SCR_SLD	6000
TTM_SCR_ALL	104600
TTM_SCR_S	100900
TTM_SCR_SS	104000
TTM_RAT_ACV	10057

