VERSION	0.00.00	1.05.00
FES_MODE	0
BPM_DEF	162.000	162.000	162.000	160.600
MET_DEF	4	4
RESOLUTION	384
CLK_DEF	384
COMPATIBLE_CODE	MA2

BPM	0	0	162.000
BPM	80	0	160.600
BPM	81	0	162.000
MET	0	0	4	4
MET	95	0	4	3
MET	97	96	4	4

NMTTP	1	240	5	E	0	M1
NMTTP	1	264	4	E	0	M1
NMTTP	1	288	3	E	0	M1
NMTAP	2	0	2
NMTAP	2	0	4
NMTAP	2	96	2
NMTAP	2	96	4
NMTAP	2	192	2
NMTAP	2	192	4
NMTAP	2	240	3
NMTAP	2	288	2
NMTAP	2	288	4
NMTAP	2	336	5
NMTAP	3	0	2
NMTAP	3	0	4
NMTAP	3	96	2
NMTAP	3	96	4
NMTAP	3	192	2
NMTAP	3	192	4
NMTAP	3	240	3
NMTAP	3	288	2
NMTAP	3	288	4
NMTAP	3	336	5
NMTAP	4	0	2
NMTAP	4	0	4
NMTAP	4	96	2
NMTAP	4	96	4
NMTAP	4	192	2
NMTAP	4	192	4
NMTAP	4	240	3
NMTAP	4	288	2
NMTAP	4	288	4
NMTAP	4	336	5
NMHLD	5	0	2	96
NMTAP	5	0	4
NMTAP	5	96	3
NMTAP	5	144	1
NMTAP	5	192	0
NMTAP	5	240	0
NMTAP	5	288	1
NMTAP	5	288	7
BRTAP	6	0	0
NMTAP	6	96	3
NMTAP	6	96	5
NMTAP	6	192	3
NMTAP	6	192	5
NMTAP	6	240	4
NMTAP	6	288	3
NMTAP	6	288	5
NMTAP	6	336	2
NMTAP	7	0	3
NMTAP	7	0	5
NMTAP	7	96	3
NMTAP	7	96	5
NMSTR	7	192	3
NMSCL	7	192	3	96	48	1
NMTAP	7	192	5
NMTAP	7	240	4
NMSTR	7	288	5
NMSI_	7	288	5	96	48	3
NMHLD	8	0	0	96
NMTAP	8	96	2
NMTAP	8	144	2
NMTAP	8	240	1
NMTAP	8	240	3
NMTAP	8	336	4
NMTAP	8	336	6
NMTAP	9	48	0
NMTAP	9	48	7
NMTAP	9	96	0
NMTAP	9	96	7
NMTAP	9	144	1
NMTAP	9	144	6
NMSTR	9	240	2
NMSCL	9	240	2	96	192	5
NMTAP	9	240	5
NMTTP	9	336	0	C	1	M1
NMTAP	10	288	2
NMSTR	10	336	2
NMSV_	10	336	2	96	96	5
NMTAP	11	48	4
NMTAP	11	144	3
NMSTR	11	240	2
NMSCL	11	240	2	96	192	5
NMTAP	11	336	5
NMTAP	12	48	4
NMTAP	12	96	4
NMTAP	12	192	3
NMTAP	12	288	2
NMSTR	12	336	2
NMSI_	12	336	2	96	48	0
NMSTR	13	48	5
NMSI_	13	48	5	96	48	3
NMSTR	13	144	0
NMSI_	13	144	0	96	48	6
NMSTR	13	240	4
NMSI_	13	240	4	96	48	7
BRHLD	13	336	0	240
NMTAP	14	48	6
NMTAP	14	96	5
NMTAP	14	144	4
NMHLD	14	192	3	288
NMTAP	14	288	7
NMTAP	14	336	6
NMTAP	15	0	5
NMTAP	15	48	4
NMHLD	15	96	2	96
NMTAP	15	192	3
NMTAP	15	240	1
NMTAP	15	240	4
NMTAP	15	336	3
NMTAP	15	336	5
NMTAP	16	0	3
NMSTR	16	0	5
NMSI_	16	0	5	96	48	7
NMTAP	16	96	4
NMTAP	16	192	3
NMSTR	16	192	5
NMSCR	16	192	5	96	48	7
NMTAP	16	288	4
NMTAP	17	0	3
NMSTR	17	0	5
NMSI_	17	0	5	96	48	0
NMTAP	17	96	4
NMTAP	17	192	3
NMTAP	17	192	5
NMSTR	17	288	2
NMSI_	17	288	2	96	48	0
NMTAP	17	288	4
NMTAP	18	0	3
NMSTR	18	96	2
NMSCL	18	96	2	96	48	0
NMTAP	18	96	4
NMTAP	18	192	3
NMSTR	18	288	2
NMSI_	18	288	2	96	48	7
NMTAP	18	288	4
NMTAP	19	0	3
NMSTR	19	96	4
NMSI_	19	96	4	96	48	7
NMSTR	19	192	3
NMSI_	19	192	3	96	48	0
EXTAP	19	288	4
NMTAP	20	0	6
NMTAP	20	48	6
NMHLD	20	96	5	72
NMTAP	20	96	7
NMTAP	20	168	4
NMTAP	20	192	5
NMTAP	20	240	5
NMTAP	20	288	4
NMTAP	20	288	6
NMTAP	21	0	2
NMTAP	21	48	2
NMHLD	21	96	1	72
NMTAP	21	96	3
NMTAP	21	168	0
NMTAP	21	192	1
NMTAP	21	240	1
NMTAP	21	288	2
NMTAP	21	288	7
NMHLD	22	0	5	96
NMTTP	22	96	4	B	0	M1
NMTTP	22	96	4	E	0	M1
NMTAP	22	192	1
NMHLD	22	240	1	288
NMTTP	22	336	0	E	0	M1
NMTTP	23	48	2	E	0	M1
NMTTP	23	144	4	E	0	M1
NMTAP	23	240	2
NMTAP	23	240	3
NMTAP	23	288	2
NMTAP	23	288	3
NMTAP	24	0	4
NMTAP	24	0	6
NMTAP	24	96	7
NMHLD	24	144	7	192
NMTTP	24	240	4	B	0	M1
NMTTP	24	240	4	E	0	M1
NMTAP	24	336	5
NMSTR	25	0	5
NMSXR	25	0	5	96	192	4
NMTAP	25	96	6
BRHLD	25	144	6	144
NMTAP	26	0	3
NMTAP	26	0	7
NMTAP	26	48	3
NMSTR	26	48	7
NMSCL	26	48	7	96	96	4
NMSTR	26	144	4
NMSI_	26	144	4	96	96	0
NMSTR	26	240	0
NMSCR	26	240	0	96	96	3
NMSTR	26	336	3
NMSI_	26	336	3	96	96	7
NMTAP	27	48	0
NMTAP	27	96	1
NMTAP	27	144	2
NMTAP	27	240	2
NMTAP	27	240	7
NMTAP	27	288	1
NMTAP	27	288	6
NMTAP	27	336	0
NMTAP	27	336	5
NMTAP	28	0	0
NMHLD	28	0	5	96
NMTAP	28	96	7
NMHLD	28	144	7	96
NMTAP	28	240	0
NMTTP	28	336	0	C	1	M1
NMTTP	28	336	3	B	0	M1
NMTTP	28	336	3	E	0	M1
NMTTP	28	336	4	B	0	M1
NMTTP	28	336	4	E	0	M1
NMTTP	28	336	5	E	0	M1
NMSTR	30	0	2
NMSCR	30	0	2	96	192	5
NMTTP	30	192	5	B	0	M1
NMTTP	30	192	6	E	0	M1
CNSLL	30	288	5	0	288	7
NMTAP	30	336	6
NMTAP	31	48	5
NMTAP	31	96	5
NMTAP	31	192	6
NMTAP	31	288	7
NMTAP	32	0	6
NMSTR	32	0	7
NMSXL	32	0	7	96	480	2
NMTTP	32	192	3	B	0	M1
NMTTP	32	192	4	E	0	M1
NMTAP	32	336	4
NMTAP	33	48	5
NMTAP	33	144	6
NMTAP	33	240	7
NMTAP	33	288	7
BRTAP	33	336	0
BRTAP	33	336	6
NMTAP	34	48	5
NMTAP	34	48	7
NMTAP	34	144	0
NMTAP	34	144	2
NMSTR	34	240	3
NMSXR	34	240	3	96	192	4
NMSTR	34	240	5
NMSXL	34	240	5	96	192	4
NMTAP	35	240	3
NMTAP	35	240	5
NMTAP	35	288	3
NMTAP	35	288	5
NMSTR	36	0	4
NMSCL	36	0	4	96	192	7
NMTAP	36	0	6
NMTAP	36	96	6
NMTAP	36	192	6
NMTAP	36	288	6
NMTAP	37	0	5
NMSTR	37	0	7
NMSCR	37	0	7	96	192	4
NMTAP	37	96	5
NMTAP	37	192	5
NMSTR	37	288	5
NMSI_	37	288	5	96	48	7
NMSTR	38	0	3
NMSI_	38	0	3	96	48	1
NMSTR	38	96	4
NMSI_	38	96	4	96	48	0
EXHLD	38	192	1	96
NMTAP	38	288	7
NMSTR	38	336	7
NMSCL	38	336	7	96	96	4
NMTAP	39	48	0
NMTAP	39	96	1
NMSTR	39	144	2
NMSCR	39	144	2	96	96	5
NMTAP	39	240	1
NMTAP	39	288	0
NMTAP	39	336	7
NMTAP	40	48	4
NMTAP	40	48	6
NMTAP	40	96	4
NMTAP	40	96	6
NMTAP	40	144	5
NMTAP	40	168	4
NMTAP	40	192	6
NMTAP	40	240	2
NMTAP	40	264	3
NMTAP	40	288	1
BRTAP	40	336	0
BRTAP	40	336	4
NMTAP	41	48	2
NMTAP	41	48	3
NMTAP	41	96	3
NMTAP	41	96	4
NMTAP	41	144	4
NMTAP	41	144	5
NMTAP	41	192	3
NMTAP	41	216	4
NMTAP	41	240	2
NMTAP	41	264	3
BRTAP	41	288	0
NMSTR	42	0	2
BRSI_	42	0	2	96	48	0
NMSTR	42	0	3
BRSI_	42	0	3	96	48	7
BRTAP	42	96	2
BRTAP	42	96	3
NMSTR	42	192	2
NMSCL	42	192	2	96	48	0
NMSTR	42	192	3
NMSUR	42	192	3	96	48	7
NMTAP	42	288	2
NMTAP	42	288	3
NMSTR	43	0	4
NMSI_	43	0	4	96	48	0
NMSTR	43	0	5
NMSI_	43	0	5	96	48	7
NMTAP	43	96	4
NMTAP	43	96	5
NMSTR	43	192	4
NMSUL	43	192	4	96	48	0
NMSTR	43	192	5
NMSCR	43	192	5	96	48	7
NMTAP	43	288	4
NMTAP	43	288	5
NMSTR	44	0	6
NMSI_	44	0	6	96	48	1
NMSTR	44	96	2
NMSI_	44	96	2	96	48	5
NMTAP	44	96	6
NMSTR	44	192	0
NMSCL	44	192	0	96	48	5
NMTAP	44	192	2
NMTAP	44	288	0
NMSTR	44	288	4
NMSCL	44	288	4	96	48	1
NMTAP	45	0	4
NMSTR	45	0	6
NMSI_	45	0	6	96	48	2
NMSTR	45	96	0
NMSI_	45	96	0	96	48	3
NMSI_	45	96	0	96	48	5
NMTAP	45	96	6
NMTAP	45	192	0
NMSTR	45	288	2
NMSXR	45	288	2	96	192	5
NMTAP	46	0	4
NMSTR	46	96	5
NMSI_	46	96	5	96	48	0
NMTAP	46	192	6
NMSTR	46	288	7
NMSXR	46	288	7	96	192	2
NMTAP	47	0	1
NMSTR	47	96	2
NMSI_	47	96	2	96	48	7
NMTAP	47	192	3
NMTAP	47	288	4
NMTAP	47	288	6
NMHLD	48	0	6	72
NMHLD	48	72	4	72
NMTAP	48	144	3
NMSTR	48	192	2
NMSI_	48	192	2	96	48	7
NMTAP	48	192	3
NMTAP	48	288	2
NMSTR	48	288	4
NMSCR	48	288	4	96	120	2
BXTAP	49	0	0
EXTAP	49	192	4
NMTAP	49	240	3
NMTAP	49	240	5
NMTAP	49	288	3
NMTAP	49	288	5
NMSTR	50	0	2
NMSI_	50	0	2	96	48	0
NMSTR	50	0	6
NMSI_	50	0	6	96	48	3
NMTAP	50	96	2
NMTAP	50	96	6
NMSTR	50	192	1
NMSI_	50	192	1	96	48	4
NMSTR	50	192	5
NMSI_	50	192	5	96	48	7
NMTAP	50	288	1
NMTAP	50	288	5
NMSTR	51	0	2
NMSI_	51	0	2	96	48	5
NMTAP	51	96	2
NMSTR	51	96	6
NMSI_	51	96	6	96	48	1
NMSTR	51	192	4
NMSCL	51	192	4	96	48	1
NMTAP	51	192	6
NMSTR	51	288	0
NMSCL	51	288	0	96	48	5
NMTAP	51	288	4
NMTAP	52	0	0
NMSTR	52	0	2
NMSI_	52	0	2	96	48	6
NMTAP	52	96	2
NMSTR	52	96	4
NMSI_	52	96	4	96	48	1
NMSI_	52	96	4	96	48	7
NMTAP	52	192	4
NMTAP	52	288	2
NMTAP	52	288	6
BRTAP	52	336	2
BRTAP	52	336	6
NMTAP	53	48	1
NMTAP	53	48	7
NMTAP	53	96	1
NMSTR	53	96	7
NMSI_	53	96	7	96	48	3
NMSTR	53	192	0
NMSLR	53	192	0	96	48	4
NMTAP	53	192	7
NMTAP	53	288	5
NMSTR	53	336	7
NMSLL	53	336	7	96	48	3
NMTAP	54	48	3
NMTAP	54	96	2
NMSTR	54	144	1
NMSI_	54	144	1	96	48	3
NMSI_	54	144	1	96	48	5
NMSTR	54	240	1
NMSCL	54	240	1	96	48	6
BRTAP	54	336	1
BRTAP	54	336	4
NMTAP	55	48	5
NMTAP	55	48	7
NMTAP	55	96	5
NMTAP	55	96	7
NMSTR	55	192	4
NMSUL	55	192	4	96	48	0
NMSTR	55	192	6
NMSCL	55	192	6	96	48	4
BRTAP	56	0	1
BRTAP	56	0	3
NMTAP	56	96	4
NMTAP	56	96	5
NMTAP	56	144	3
NMTAP	56	144	6
NMTAP	56	240	2
NMTAP	56	240	3
NMSTR	56	288	1
NMSLL	56	288	1	96	96	2
NMTAP	56	288	4
CNSI_	57	96	2	0	96	6
BRTAP	57	96	6
NMTAP	57	192	4
NMTAP	57	288	5
NMTTP	58	0	0	C	1	M1
NMTTP	58	0	3	B	0	M1
NMTTP	58	0	4	B	0	M1
NMTTP	58	0	6	B	0	M1
NMTTP	58	0	7	B	0	M1
NMTAP	58	192	0
NMTAP	58	192	1
NMTAP	58	240	0
NMTAP	58	240	1
NMTAP	58	288	7
NMTAP	58	336	6
NMTAP	59	0	0
NMTAP	59	0	5
NMTAP	59	96	2
NMTAP	59	96	7
NMTAP	59	192	5
NMTAP	59	216	4
NMTAP	59	240	5
NMTAP	59	264	4
NMSTR	59	288	5
NMSCR	59	288	5	96	96	1
NMTAP	60	0	3
NMSTR	60	96	2
BRSLL	60	96	2	96	96	6
NMTAP	60	192	4
NMTAP	60	240	4
NMHLD	60	288	5	96
NMHLD	61	0	4	96
NMTAP	61	96	3
NMTAP	61	168	2
NMTAP	61	192	3
NMTAP	61	240	3
NMTAP	61	288	1
NMSTR	61	288	3
NMSCR	61	288	3	96	96	7
NMTAP	62	0	2
NMSTR	62	96	4
NMSCL	62	96	4	96	96	0
NMTAP	62	192	6
NMTAP	62	240	5
NMSTR	62	288	3
NMSCR	62	288	3	96	96	7
NMTAP	63	0	1
NMHLD	63	96	4	72
NMTAP	63	168	6
NMTAP	63	192	4
NMTAP	63	240	4
NMTAP	63	288	3
NMTAP	63	288	5
NMTAP	64	0	2
NMTAP	64	0	4
NMHLD	64	96	1	48
NMTAP	64	144	2
NMHLD	64	192	3	48
NMTAP	64	240	2
NMHLD	64	288	1	48
NMSTR	64	336	2
NMSUR	64	336	2	96	96	7
NMTAP	65	48	0
NMTAP	65	96	1
NMTAP	65	144	2
NMTAP	65	240	0
NMTAP	65	240	3
NMTAP	65	288	0
NMTAP	65	288	3
BRTAP	66	0	0
BRTAP	66	0	7
NMTAP	66	96	6
NMTAP	66	144	6
NMTAP	66	192	7
NMTAP	66	240	5
NMTAP	66	288	0
NMSTR	66	336	4
NMSCR	66	336	4	96	96	7
NMSTR	67	48	7
NMSCR	67	48	7	96	96	2
NMSTR	67	144	2
NMSCR	67	144	2	96	96	5
NMSTR	67	240	5
NMSCR	67	240	5	96	96	0
NMTAP	67	336	1
NMTAP	68	0	1
NMTAP	68	96	2
NMTAP	68	96	3
NMTAP	68	144	2
NMTAP	68	144	3
NMTAP	68	240	5
NMTAP	68	288	4
NMTAP	68	336	3
NMTAP	68	336	6
NMTAP	69	48	0
NMTAP	69	48	5
NMTAP	69	144	0
NMTAP	69	144	5
NMTAP	69	192	6
NMTAP	69	216	7
NMTAP	69	240	6
NMTAP	69	288	0
NMTAP	69	288	5
NMTAP	70	0	0
NMSTR	70	0	5
NMSCR	70	0	5	96	96	2
NMSTR	70	192	3
NMSLL	70	192	3	96	48	7
CNSI_	70	336	7	0	48	5
NMHLD	71	0	4	96
NMTAP	71	96	6
NMTAP	71	192	5
NMTAP	71	192	7
NMTAP	71	264	0
NMTAP	71	264	7
NMTAP	71	336	0
NMTAP	71	336	2
NMSTR	72	0	0
NMSCL	72	0	0	96	240	2
NMTAP	72	0	2
NMTAP	72	192	1
NMTAP	72	288	1
CNSCR	72	336	2	0	240	0
NMTAP	73	0	1
NMTAP	73	96	1
NMTAP	73	192	1
NMTAP	73	288	2
NMTAP	73	288	7
NMTAP	73	336	2
NMTAP	73	336	7
NMTAP	74	48	5
NMTAP	74	72	4
NMTAP	74	96	5
NMTAP	74	144	3
NMTAP	74	168	4
NMTAP	74	192	3
NMTAP	74	240	5
NMTAP	74	264	4
NMTAP	74	288	5
NMTAP	74	336	2
NMTAP	74	360	3
NMTAP	75	0	2
NMTAP	75	48	4
NMTAP	75	72	3
NMTAP	75	96	4
NMTAP	75	144	2
NMTAP	75	168	3
NMTAP	75	192	2
NMTAP	75	240	5
NMTAP	75	264	4
NMTAP	75	288	5
NMTAP	75	336	2
NMTAP	75	360	3
NMTAP	76	0	1
NMTAP	76	48	5
NMTAP	76	72	4
NMTAP	76	96	6
NMTAP	76	144	2
NMTAP	76	168	3
NMTAP	76	192	1
NMTAP	76	240	5
NMTAP	76	264	4
NMTAP	76	288	6
NMTAP	76	336	1
NMTAP	76	360	0
NMTAP	77	0	2
NMTAP	77	48	6
NMTAP	77	72	7
NMTAP	77	96	5
NMTAP	77	144	1
NMTAP	77	168	0
NMTAP	77	192	2
NMTAP	77	240	6
NMTAP	77	264	7
NMTAP	77	288	5
NMTAP	77	336	2
NMTAP	77	360	4
NMTAP	78	0	0
NMTAP	78	48	5
NMTAP	78	72	3
NMTAP	78	96	7
NMTAP	78	144	2
NMTAP	78	168	4
NMTAP	78	192	0
NMTAP	78	240	0
NMTAP	78	288	6
NMTAP	78	288	7
NMTAP	78	336	0
NMTAP	78	336	5
NMTAP	79	48	0
NMTAP	79	48	1
NMTAP	79	96	2
NMTAP	79	96	7
NMTAP	79	144	3
NMTAP	79	144	6
NMTAP	79	240	6
NMTAP	79	240	7
NMTAP	79	288	0
NMTAP	79	288	5
NMSTR	79	336	1
NMSLR	79	336	1	96	96	7
NMTAP	79	336	4
NMTAP	80	192	6
NMTAP	80	216	0
NMTAP	80	240	6
NMTAP	80	264	0
BRTAP	80	288	7
EXSTR	81	0	1
BRSV_	81	0	1	96	48	4
EXSTR	81	0	5
BRSI_	81	0	5	96	48	0
BRTAP	81	96	1
BRTAP	81	96	5
NMSTR	81	192	2
NMSI_	81	192	2	96	48	7
NMSTR	81	192	6
NMSI_	81	192	6	96	48	3
NMTAP	81	288	2
NMTAP	81	288	6
NMTAP	82	0	1
NMSTR	82	0	5
NMSCR	82	0	5	96	48	0
NMSTR	82	96	2
NMSCR	82	96	2	96	48	5
NMTAP	82	96	5
NMTAP	82	192	2
NMSTR	82	192	7
NMSCR	82	192	7	96	48	2
NMSTR	82	288	4
NMSCR	82	288	4	96	48	7
NMTAP	82	288	7
NMSTR	83	0	1
NMSCR	83	0	1	96	48	4
NMTAP	83	0	4
NMTAP	83	96	1
NMSTR	83	96	5
NMSI_	83	96	5	96	48	0
NMSTR	83	192	3
NMSI_	83	192	3	96	48	7
NMTAP	83	192	5
NMTAP	83	288	3
NMSTR	84	0	0
NMSCR	84	0	0	96	96	4
NMSTR	84	0	6
NMSUR	84	0	6	96	96	5
NMSTR	84	288	1
NMSXL	84	288	1	96	192	5
NMTAP	85	0	4
NMSTR	85	96	5
NMSI_	85	96	5	96	48	0
NMTAP	85	192	6
NMSTR	85	288	7
NMSUR	85	288	7	96	96	1
NMSTR	86	0	1
NMSCR	86	0	1	96	96	7
NMTAP	86	96	0
NMTAP	86	192	0
NMTAP	86	288	1
NMTAP	86	288	7
NMHLD	87	0	6	72
NMHLD	87	72	4	72
NMTAP	87	144	3
NMSTR	87	192	3
NMSI_	87	192	3	96	48	7
NMSTR	87	288	1
NMSF_	87	288	1	96	48	5
BRTAP	88	0	1
NMTAP	88	192	3
NMTAP	88	192	6
NMTAP	88	240	3
NMTAP	88	240	6
NMTAP	88	288	4
NMTAP	88	288	5
NMSTR	89	0	2
NMSI_	89	0	2	96	48	0
NMSTR	89	0	3
NMSI_	89	0	3	96	48	6
NMTAP	89	96	2
NMTAP	89	96	3
NMSTR	89	192	2
NMSI_	89	192	2	96	48	7
NMSTR	89	192	3
NMSI_	89	192	3	96	48	5
NMTAP	89	288	2
NMTAP	89	288	3
NMSTR	90	0	4
NMSI_	90	0	4	96	48	2
NMSTR	90	0	5
NMSI_	90	0	5	96	48	0
NMTAP	90	96	4
NMTAP	90	96	5
NMSTR	90	192	4
NMSI_	90	192	4	96	48	1
NMSTR	90	192	5
NMSI_	90	192	5	96	48	7
NMTAP	90	288	4
NMTAP	90	288	5
NMSTR	91	0	2
NMSCL	91	0	2	96	96	6
NMSTR	91	96	6
NMSCL	91	96	6	96	96	2
NMTAP	91	192	2
NMTAP	91	288	6
NMTTP	91	336	0	B	0	M1
NMTTP	91	336	0	C	1	M1
NMTTP	91	336	0	A	0	M1
NMTTP	91	336	4	B	0	M1
NMTTP	91	336	4	A	0	M1
NMTAP	92	48	1
NMTAP	92	48	7
NMTAP	92	96	1
NMTAP	92	96	7
NMSTR	92	192	0
NMSLL	92	192	0	96	48	4
NMTAP	92	192	1
NMTAP	92	288	1
NMSTR	92	336	0
NMSLR	92	336	0	96	48	4
NMTAP	93	48	5
NMTAP	93	96	6
NMSTR	93	144	7
NMSI_	93	144	7	96	48	1
NMSI_	93	144	7	96	48	2
NMSTR	93	240	7
NMSCL	93	240	7	96	96	2
NMTAP	93	336	0
NMTAP	93	336	7
NMTAP	94	48	7
NMTAP	94	96	7
NMSTR	94	192	0
NMSI_	94	192	0	96	48	3
NMSTR	94	192	4
NMSI_	94	192	4	96	48	7
NMTAP	95	0	2
NMTAP	95	0	6
NMTAP	95	96	0
NMTAP	95	96	1
BRTAP	95	144	2
BRTAP	95	144	6
NMTAP	95	240	4
NMTAP	95	240	5
BRTAP	95	288	2
BRTAP	95	288	6
NMTAP	96	0	0
NMTAP	96	0	7
BRTAP	96	48	1
BRTAP	96	48	5
NMTAP	96	144	3
NMTAP	96	144	4
BRTAP	96	192	1
BRTAP	96	192	5
NMTAP	96	288	0
NMTAP	96	288	1
BRTAP	96	336	3
BRTAP	96	336	7
NMTAP	97	48	6
NMTAP	97	48	7
BRTAP	97	96	0
BRSTR	97	96	4
NMSI_	97	96	4	96	336	7
NMTAP	97	192	2
NMTAP	97	240	1
NMTAP	97	288	1
NMTAP	97	336	1
NMTAP	98	0	1
NMTAP	98	48	1
NMTAP	98	96	1
NMTTP	98	288	2	B	0	M1
NMTTP	98	288	3	B	0	M1
NMTTP	98	288	3	E	0	M1
NMTTP	98	288	4	B	0	M1
NMTTP	98	288	4	E	1	M1
NMTTP	98	288	5	B	0	M1
NMTTP	98	288	5	E	0	M1
NMSTR	99	96	6
NMSI_	99	96	6	96	48	3
NMSTR	99	96	7
NMSI_	99	96	7	96	48	2
NMTAP	99	192	6
NMTAP	99	192	7
NMTAP	99	288	1
NMTAP	99	336	1
NMTAP	100	0	3
NMTAP	100	48	2
NMSTR	100	96	4
NMSI_	100	96	4	96	48	1
NMSTR	100	96	5
NMSI_	100	96	5	96	48	0
NMTAP	100	192	4
NMTAP	100	192	5
NMTAP	100	288	2
NMTAP	100	336	2
NMTAP	101	0	0
NMTAP	101	48	1
NMSTR	101	96	6
NMSI_	101	96	6	96	48	2
NMSTR	101	192	7
NMSI_	101	192	7	96	48	3
NMSTR	101	288	0
NMSI_	101	288	0	96	48	4
NMSTR	102	0	1
NMSI_	102	0	1	96	48	5
NMSTR	102	96	2
NMSI_	102	96	2	96	48	6
BRSTR	102	192	3
NMSI_	102	192	3	96	48	7
NMTAP	103	0	1
NMTAP	103	0	5
NMSTR	103	96	0
NMSCR	103	96	0	96	48	3
NMSTR	103	96	6
NMSCL	103	96	6	96	48	3
NMTAP	103	192	0
NMTAP	103	192	6
NMTAP	103	288	5
NMTAP	103	336	5
NMTAP	104	0	3
NMTAP	104	48	4
NMSTR	104	96	2
NMSI_	104	96	2	96	48	7
NMSTR	104	96	3
NMSI_	104	96	3	96	48	7
NMTAP	104	192	2
NMTAP	104	192	3
NMTAP	104	288	6
NMTAP	104	336	6
NMSTR	105	0	0
NMSCR	105	0	0	96	48	3
NMSTR	105	96	0
NMSCL	105	96	0	96	48	5
NMSTR	105	192	0
NMSI_	105	192	0	96	48	4
NMTAP	105	288	0
NMTAP	106	0	3
NMTAP	106	0	5
NMTAP	106	48	2
NMTAP	106	48	6
NMSTR	106	144	1
NMSI_	106	144	1	96	48	5
NMTAP	106	192	0
NMTAP	106	240	1
NMSTR	106	336	6
NMSXL	106	336	6	96	768	1
NMSXR	106	336	6	96	768	3
NMTAP	107	0	7
NMTAP	107	48	6

T_REC_TAP	505
T_REC_BRK	32
T_REC_XTP	2
T_REC_BXX	1
T_REC_HLD	22
T_REC_XHO	1
T_REC_BHO	2
T_REC_BXH	0
T_REC_STR	136
T_REC_BST	2
T_REC_XST	2
T_REC_XBS	0
T_REC_TTP	38
T_REC_THO	0
T_REC_SLD	140
T_REC_BSL	5
T_REC_ALL	888
T_NUM_TAP	683
T_NUM_BRK	42
T_NUM_HLD	23
T_NUM_SLD	140
T_NUM_ALL	888
T_JUDGE_TAP	718
T_JUDGE_HLD	61
T_JUDGE_SLD	145
T_JUDGE_ALL	924
TTM_EACHPAIRS	188
TTM_SCR_TAP	341500
TTM_SCR_BRK	109200
TTM_SCR_HLD	23000
TTM_SCR_SLD	210000
TTM_SCR_ALL	683700
TTM_SCR_S	659150
TTM_SCR_SS	679500
TTM_RAT_ACV	10061

