VERSION	0.00.00	1.05.00
FES_MODE	0
BPM_DEF	162.000	162.000	162.000	160.600
MET_DEF	4	4
RESOLUTION	384
CLK_DEF	384
COMPATIBLE_CODE	MA2

BPM	0	0	162.000
BPM	80	0	160.600
BPM	81	0	162.000
MET	0	0	4	4
MET	95	0	4	3
MET	97	96	4	4

NMTAP	2	0	5
NMTAP	2	96	5
NMTAP	2	192	3
NMTAP	2	192	5
NMTAP	2	288	3
NMTAP	2	288	5
NMTAP	3	0	2
NMTAP	3	96	2
NMTAP	3	192	2
NMTAP	3	192	4
NMTAP	3	288	2
NMTAP	3	288	4
NMTAP	4	0	5
NMTAP	4	96	5
NMTAP	4	192	4
NMTAP	4	192	6
NMTAP	4	288	4
NMTAP	4	288	6
NMTAP	5	0	3
NMTAP	5	96	2
NMTAP	5	192	1
NMTAP	5	192	3
NMTAP	5	288	1
NMTAP	5	288	3
BXTAP	6	0	0
NMTAP	6	96	1
NMTAP	6	192	2
NMTAP	6	192	4
NMTAP	6	288	2
NMTAP	6	288	4
NMTAP	7	0	6
NMTAP	7	96	6
NMTAP	7	192	3
NMTAP	7	192	5
NMTAP	7	288	3
NMTAP	7	288	5
NMHLD	8	0	2	96
NMHLD	8	0	4	96
NMHLD	8	144	3	96
NMHLD	8	144	5	96
EXTAP	8	288	4
EXTAP	8	288	6
EXTAP	8	336	4
EXTAP	8	336	6
NMTAP	9	48	3
NMTAP	9	48	5
NMTAP	9	144	2
NMTAP	9	144	4
NMTAP	9	240	1
NMTAP	9	240	3
BXHLD	9	336	1	240
BXHLD	9	336	3	240
NMSTR	10	288	2
NMSLL	10	288	2	96	192	5
NMTAP	11	288	4
NMTAP	11	288	6
NMHLD	11	336	4	240
NMHLD	11	336	6	240
NMSTR	12	288	5
NMSLL	12	288	5	96	192	0
NMTAP	13	288	7
NMTAP	13	336	7
NMTAP	14	48	6
NMHLD	14	96	6	96
NMTAP	14	192	4
NMHLD	14	288	1	96
NMTAP	15	0	3
NMTAP	15	96	2
NMTAP	15	192	1
NMTAP	15	192	3
NMTAP	15	240	1
NMTAP	15	240	3
NMHLD	15	336	0	432
NMTAP	15	336	4
NMTAP	16	192	3
NMTAP	16	288	3
NMTAP	17	0	4
NMTAP	17	96	5
NMTAP	17	192	6
NMTAP	17	288	3
NMTAP	17	288	7
NMTAP	17	336	3
NMHLD	17	336	7	432
NMTAP	18	192	4
NMTAP	18	288	4
NMTAP	19	0	3
NMTAP	19	96	2
NMTAP	19	192	0
NMTAP	19	192	1
NMTAP	19	240	0
NMTAP	19	240	1
BRTAP	19	336	2
BRTAP	19	336	7
NMTAP	20	48	0
NMTAP	20	48	5
NMTAP	20	96	0
NMSTR	20	96	5
NMSI_	20	96	5	96	96	0
NMSTR	20	288	1
NMSI_	20	288	1	96	96	4
NMTAP	21	96	7
BRTAP	21	192	3
BRTAP	21	192	5
NMTAP	21	288	2
NMTAP	21	288	4
NMHLD	22	0	1	96
NMHLD	22	0	5	96
NMTAP	22	192	6
NMTAP	22	192	7
NMTAP	22	288	0
NMTAP	22	288	5
NMTAP	23	0	1
NMTAP	23	96	0
NMTAP	23	96	1
NMTAP	23	192	2
NMTAP	23	192	7
NMTAP	23	288	3
NMTAP	23	288	6
NMHLD	24	0	3	96
NMHLD	24	0	6	96
NMTAP	24	192	5
NMTAP	24	240	5
NMTAP	24	288	3
NMTAP	25	0	2
NMTAP	25	0	4
NMTAP	25	96	1
NMTAP	25	144	1
NMTAP	25	192	3
NMSTR	25	288	0
NMSCR	25	288	0	96	192	5
NMTAP	25	288	7
NMSTR	26	288	7
NMSLL	26	288	7	96	192	2
NMTAP	27	288	1
NMHLD	28	0	0	96
NMTAP	28	96	7
NMTAP	28	144	7
NMSTR	28	240	6
NMSCL	28	240	6	96	240	3
NMSTR	28	240	7
NMSUL	28	240	7	96	240	2
NMTTP	30	0	0	B	0	M1
NMTTP	30	0	1	B	0	M1
NMTTP	30	0	1	E	0	M1
NMTTP	30	192	4	B	0	M1
NMTTP	30	192	5	B	0	M1
NMTTP	30	192	5	E	0	M1
NMTHO	31	0	0	192	C	0	M1
NMTHO	31	0	2	192	B	0	M1
NMTHO	31	0	6	192	B	0	M1
NMTTP	32	0	6	B	0	M1
NMTTP	32	0	7	B	0	M1
NMTTP	32	0	7	E	0	M1
NMTTP	32	192	2	B	0	M1
NMTTP	32	192	3	B	0	M1
NMTTP	32	192	3	E	0	M1
NMTHO	33	0	0	192	C	0	M1
NMTHO	33	0	1	192	B	0	M1
NMTHO	33	0	5	192	B	0	M1
NMHLD	34	0	7	96
NMHLD	34	96	6	96
NMHLD	34	192	5	96
NMTAP	34	288	4
NMHLD	35	0	3	96
NMHLD	35	96	2	96
NMHLD	35	192	1	96
NMTAP	35	288	0
NMTAP	36	0	2
NMTAP	36	0	7
NMTAP	36	96	3
NMSTR	36	96	6
NMSCR	36	96	6	96	96	1
NMTAP	37	0	2
NMSTR	37	96	1
NMSCL	37	96	1	96	96	6
NMTAP	37	96	3
NMTAP	38	0	5
NMTAP	38	96	4
NMTAP	38	96	6
NMTAP	38	192	0
NMTAP	38	192	7
NMTAP	38	288	1
NMTAP	38	288	3
NMTAP	39	0	3
NMTAP	39	0	4
NMTAP	39	96	4
NMTAP	39	96	6
NMSTR	39	192	5
NMSCR	39	192	5	96	240	2
EXTAP	40	336	0
EXTAP	40	336	1
NMTAP	41	48	0
NMTAP	41	48	7
NMTAP	41	144	6
NMTAP	41	144	7
EXTAP	41	240	0
EXTAP	41	240	7
EXTAP	41	288	0
EXTAP	41	288	7
BRSTR	42	0	0
NMSI_	42	0	0	96	48	4
BRSTR	42	0	1
NMSI_	42	0	1	96	48	4
NMSTR	42	192	6
NMSI_	42	192	6	96	48	3
NMSTR	42	192	7
NMSI_	42	192	7	96	48	3
NMSTR	43	0	0
NMSI_	43	0	0	96	48	4
NMSTR	43	0	1
NMSI_	43	0	1	96	48	4
NMTAP	43	192	6
NMTAP	43	192	7
NMTAP	43	288	0
NMTAP	43	288	5
NMTAP	43	336	0
NMTAP	43	336	5
NMTAP	44	48	2
NMTAP	44	48	3
NMTAP	44	96	2
NMTAP	44	96	3
NMTAP	44	192	0
NMTAP	44	192	1
NMTAP	44	288	6
NMTAP	44	288	7
NMTAP	45	0	4
NMTAP	45	0	5
NMTAP	45	96	2
NMTAP	45	96	3
BRTAP	45	192	1
BRTAP	45	192	4
NMTAP	45	336	6
NMHLD	46	0	6	96
NMHLD	46	96	4	96
NMHLD	46	192	3	96
NMTAP	46	288	1
NMHLD	47	0	1	96
NMHLD	47	96	3	96
NMHLD	47	192	4	96
NMHLD	47	288	6	96
EXTAP	48	0	0
NMTAP	48	96	1
NMTAP	48	144	1
BRTAP	48	192	7
BRTAP	48	288	2
BRTAP	48	288	6
BRTAP	49	0	2
BRTAP	49	0	6
NMTAP	49	192	5
NMTAP	49	240	4
NMSTR	49	288	3
NMSCL	49	288	3	96	96	0
NMSTR	50	96	7
NMSCL	50	96	7	96	96	4
NMTAP	50	288	0
NMTAP	51	0	1
NMTAP	51	48	1
NMTAP	51	96	3
NMTAP	51	192	3
NMTAP	51	192	4
NMTAP	51	288	4
NMSTR	51	288	6
NMSI_	51	288	6	96	96	3
NMSTR	52	96	2
NMSI_	52	96	2	96	96	7
NMTAP	52	288	6
NMTAP	52	336	6
NMTAP	53	48	5
NMTAP	53	48	7
NMTAP	53	144	1
NMTAP	53	192	1
BXTAP	53	288	0
BXTAP	53	288	2
EXTAP	54	0	0
EXTAP	54	0	7
NMTAP	54	48	0
NMTAP	54	48	7
NMTAP	54	144	4
NMHLD	54	144	6	96
NMSTR	54	240	7
NMSCR	54	240	7	96	144	3
NMSUR	54	240	7	96	144	4
NMTAP	55	192	4
NMTAP	55	192	5
NMTAP	55	288	6
NMTAP	55	288	7
NMTAP	56	0	0
NMTAP	56	0	1
NMTAP	56	96	2
NMTAP	56	96	3
NMTAP	56	144	2
NMTAP	56	144	3
NMTAP	56	240	1
NMTAP	56	240	4
NMSTR	56	288	1
NMSUR	56	288	1	96	192	4
NMTAP	56	288	4
NMTTP	57	192	6	B	0	M1
NMTTP	57	192	7	E	1	M1
BXTAP	58	0	1
BXTAP	58	0	7
NMSTR	58	192	6
NMSI_	58	192	6	96	96	3
NMSTR	59	0	2
NMSI_	59	0	2	96	96	7
NMSTR	59	192	5
NMSCL	59	192	5	96	96	2
BRTAP	60	0	0
NMTAP	60	96	1
NMTAP	60	96	3
NMTAP	60	192	4
NMTAP	60	240	5
NMHLD	60	288	6	96
NMTAP	61	0	4
NMTAP	61	96	4
NMTAP	61	96	6
NMTAP	61	192	3
NMTAP	61	240	2
NMHLD	61	288	1	96
NMTAP	62	0	3
NMTAP	62	96	2
NMTAP	62	96	3
NMTAP	62	192	1
NMTAP	62	192	4
NMSTR	62	288	0
NMSI_	62	288	0	96	96	6
NMTAP	62	288	5
CNSI_	63	96	6	0	96	2
CNSI_	63	192	2	0	96	4
EXTAP	63	288	6
EXHLD	63	336	6	96
NMTAP	64	48	4
NMTAP	64	144	3
NMTAP	64	144	5
NMHLD	64	240	2	96
NMTAP	64	336	3
NMSTR	65	48	0
NMSCR	65	48	0	96	96	3
NMSTR	65	48	5
NMSCR	65	48	5	96	96	0
EXTAP	66	0	0
EXTAP	66	0	5
NMHLD	66	96	1	96
NMHLD	66	192	3	96
NMHLD	66	288	5	96
NMHLD	67	0	3	96
NMHLD	67	96	1	96
NMHLD	67	192	7	96
NMHLD	67	288	5	96
EXTAP	68	0	7
NMTAP	68	96	1
NMTAP	68	144	1
NMTAP	68	192	3
NMTAP	68	288	2
NMSTR	68	288	4
NMSSL	68	288	4	96	192	0
NMTAP	70	0	0
NMSTR	70	0	1
NMSCR	70	0	1	96	96	4
CNSV_	70	192	4	0	96	7
NMHLD	70	288	6	96
NMTAP	71	0	7
NMSTR	71	96	7
NMSCL	71	96	7	96	96	4
NMSCR	71	96	7	96	96	2
NMTAP	72	0	1
NMTAP	72	0	3
NMTAP	72	96	1
NMTAP	72	96	3
NMTAP	72	192	0
NMTAP	72	192	7
NMTAP	72	288	0
NMTAP	72	288	7
NMTAP	73	0	4
NMTAP	73	0	6
NMTAP	73	96	4
NMTAP	73	96	6
NMTAP	73	192	3
NMTAP	73	192	4
NMTAP	73	288	2
NMTAP	73	288	5
EXTAP	73	336	2
EXTAP	73	336	5
NMTAP	74	48	1
NMHLD	74	96	1	96
NMHLD	74	192	3	96
NMTAP	74	288	2
NMTAP	74	336	2
NMTAP	75	48	1
NMTAP	75	48	3
NMTAP	75	144	0
NMTAP	75	144	7
BRTAP	75	240	0
BRTAP	75	240	7
EXTAP	75	336	1
EXTAP	75	336	6
NMTAP	76	48	5
NMHLD	76	96	5	96
NMHLD	76	192	7	96
NMTAP	76	288	6
NMTAP	76	336	6
NMTAP	77	48	0
NMTAP	77	48	7
NMTAP	77	144	1
NMTAP	77	144	5
BRTAP	77	240	1
BRTAP	77	240	5
EXTAP	77	336	2
EXTAP	77	336	6
NMTAP	78	48	1
NMHLD	78	96	1	96
NMHLD	78	192	3	96
NMTAP	78	288	2
NMTAP	78	336	2
NMTAP	79	48	0
NMTAP	79	48	5
NMTAP	79	96	0
NMTAP	79	96	5
BRTAP	79	144	0
BRTAP	79	144	5
NMTAP	79	240	1
NMTAP	79	240	7
NMTAP	79	288	1
NMTAP	79	288	7
BRHLD	79	336	1	240
BRTAP	79	336	7
BRTAP	80	192	3
BRTAP	80	288	6
BRTAP	80	288	7
BRSTR	81	0	0
NMSI_	81	0	0	96	48	4
BRSTR	81	0	1
NMSI_	81	0	1	96	48	4
NMSTR	81	192	6
NMSI_	81	192	6	96	48	3
NMSTR	81	192	7
NMSI_	81	192	7	96	48	3
NMSTR	82	0	0
NMSI_	82	0	0	96	48	4
NMSTR	82	0	1
NMSI_	82	0	1	96	48	4
NMTAP	82	192	6
NMTAP	82	192	7
NMTAP	82	288	0
NMTAP	82	288	5
NMTAP	82	336	0
NMTAP	82	336	5
NMTAP	83	48	2
NMTAP	83	48	3
NMTAP	83	96	2
NMTAP	83	96	3
NMTAP	83	192	0
NMTAP	83	192	1
NMTAP	83	288	6
NMTAP	83	288	7
NMTAP	84	0	4
NMTAP	84	0	5
NMTAP	84	96	2
NMTAP	84	96	3
BRTAP	84	192	1
BRTAP	84	192	4
NMTAP	84	336	6
NMHLD	85	0	6	96
NMHLD	85	96	4	96
NMHLD	85	192	3	96
NMTAP	85	288	1
NMHLD	86	0	1	96
NMHLD	86	96	3	96
NMHLD	86	192	4	96
NMHLD	86	288	6	96
EXTAP	87	0	0
NMTAP	87	96	1
NMTAP	87	144	1
BRTAP	87	192	7
BRTAP	87	288	3
BRTAP	87	288	5
BRTAP	88	0	1
BRTAP	88	0	7
NMTAP	88	192	5
NMTAP	88	240	4
NMSTR	88	288	3
NMSCL	88	288	3	96	96	0
NMSTR	89	96	7
NMSCL	89	96	7	96	96	4
NMTAP	89	288	0
NMTAP	90	0	1
NMTAP	90	48	1
NMTAP	90	96	3
NMTAP	90	192	3
NMTAP	90	192	4
NMTAP	90	288	4
NMSTR	90	288	6
NMSI_	90	288	6	96	96	3
NMSTR	91	96	2
NMSI_	91	96	2	96	96	7
NMTAP	91	288	6
NMTAP	91	336	6
NMTAP	92	48	5
NMTAP	92	48	7
NMTAP	92	144	1
NMTAP	92	144	3
NMTAP	92	192	1
NMTAP	92	192	3
NMTAP	92	288	3
NMTAP	92	288	4
NMTAP	93	0	4
NMTAP	93	0	6
NMTAP	93	48	4
NMTAP	93	48	6
NMHLD	93	144	1	96
NMTAP	93	144	3
NMSTR	93	240	0
NMSCL	93	240	0	96	144	4
NMSUL	93	240	0	96	144	3
NMTAP	94	192	2
NMTAP	94	192	3
NMTAP	94	288	0
NMTAP	94	288	1
NMTAP	95	0	2
NMTAP	95	0	7
NMTAP	95	96	4
NMTAP	95	96	5
NMTAP	95	144	4
NMTAP	95	144	5
NMTAP	95	240	2
NMTAP	95	240	3
NMTAP	95	288	2
NMTAP	95	288	3
NMTAP	96	0	4
NMTAP	96	0	5
NMTAP	96	48	3
NMTAP	96	48	6
NMTAP	96	144	2
NMTAP	96	144	3
NMTAP	96	192	1
NMTAP	96	192	4
NMTAP	96	288	6
NMTAP	96	288	7
NMTAP	96	336	0
NMTAP	96	336	5
NMTAP	97	48	0
NMTAP	97	48	1
BRSTR	97	96	2
NMSCL	97	96	2	96	192	4
BRTAP	97	96	7
NMTTP	98	96	0	C	1	M1
NMTAP	98	288	0
NMTAP	98	336	0
NMTAP	99	0	7
NMTAP	99	48	7
NMHLD	99	96	1	96
NMTAP	99	192	3
NMTAP	99	288	5
NMTAP	99	336	5
NMTAP	100	0	4
NMTAP	100	48	4
NMHLD	100	96	6	96
NMTAP	100	192	7
NMTAP	100	288	0
NMTAP	100	336	1
NMTAP	101	0	2
NMTAP	101	0	4
NMHLD	101	96	6	96
NMTAP	101	192	4
NMTAP	101	288	2
NMTAP	101	336	2
NMTAP	102	0	3
NMTAP	102	48	3
NMSTR	102	96	0
NMSCR	102	96	0	96	96	3
NMSTR	102	288	5
NMSCR	102	288	5	96	96	0
EXTAP	103	96	1
NMTAP	103	192	0
NMTAP	103	192	1
NMTAP	103	288	7
NMHLD	103	336	7	96
NMHLD	104	48	5	96
NMHLD	104	144	3	96
NMTAP	104	240	1
NMTAP	104	288	1
NMTAP	105	0	2
NMTAP	105	0	3
NMTAP	105	48	2
NMTAP	105	48	3
NMTAP	105	144	4
NMTAP	105	144	5
NMTAP	105	192	4
NMTAP	105	192	5
NMTAP	105	288	5
NMTAP	105	336	4
NMTAP	106	0	3
NMHLD	106	48	2	96
NMTAP	106	144	0
NMHLD	106	240	5	96
NMTAP	106	336	7
NMSTR	107	48	0
NMSXL	107	48	0	96	720	3
BRSTR	107	48	4
BRSXL	107	48	4	96	720	7

T_REC_TAP	351
T_REC_BRK	30
T_REC_XTP	25
T_REC_BXX	5
T_REC_HLD	62
T_REC_XHO	1
T_REC_BHO	1
T_REC_BXH	2
T_REC_STR	42
T_REC_BST	6
T_REC_XST	0
T_REC_XBS	0
T_REC_TTP	15
T_REC_THO	6
T_REC_SLD	50
T_REC_BSL	1
T_REC_ALL	597
T_NUM_TAP	433
T_NUM_BRK	45
T_NUM_HLD	69
T_NUM_SLD	50
T_NUM_ALL	597
T_JUDGE_TAP	474
T_JUDGE_HLD	185
T_JUDGE_SLD	51
T_JUDGE_ALL	710
TTM_EACHPAIRS	167
TTM_SCR_TAP	216500
TTM_SCR_BRK	117000
TTM_SCR_HLD	69000
TTM_SCR_SLD	75000
TTM_SCR_ALL	477500
TTM_SCR_S	458850
TTM_SCR_SS	473000
TTM_RAT_ACV	10095

