VERSION	0.00.00	1.05.00
FES_MODE	0
BPM_DEF	162.000	162.000	162.000	160.600
MET_DEF	4	4
RESOLUTION	384
CLK_DEF	384
COMPATIBLE_CODE	MA2

BPM	0	0	162.000
BPM	80	0	160.600
BPM	81	0	162.000
MET	0	0	4	4
MET	95	0	4	3
MET	97	96	4	4

NMTAP	2	0	6
NMTAP	2	96	6
NMTAP	2	192	6
NMTAP	3	0	5
NMTAP	3	96	5
NMTAP	3	192	5
NMTAP	4	0	4
NMTAP	4	96	4
NMTAP	4	192	4
NMTAP	5	0	2
NMTAP	5	0	3
NMTAP	5	192	2
NMTAP	5	192	3
NMTAP	6	0	1
NMTAP	6	96	1
NMTAP	6	192	1
NMTAP	7	0	2
NMTAP	7	96	2
NMTAP	7	192	2
NMTAP	8	0	3
NMTAP	8	96	3
NMTAP	8	192	3
NMTAP	9	0	4
NMTAP	9	0	5
NMTAP	9	192	4
NMTAP	9	192	5
NMTAP	10	0	3
NMTAP	10	96	3
NMTAP	10	192	2
NMTAP	11	0	1
NMTAP	11	96	1
NMTAP	11	192	0
NMTAP	12	0	7
NMTAP	12	96	7
NMTAP	12	192	6
NMTAP	13	0	5
NMTAP	13	96	5
NMTAP	13	192	3
NMTAP	13	192	4
NMHLD	14	0	2	192
NMTAP	14	192	3
NMHLD	15	0	5	192
NMTAP	15	192	4
NMTAP	16	0	4
NMTAP	16	96	4
NMTAP	16	192	5
NMTAP	17	0	6
NMTAP	17	96	6
NMTAP	17	192	7
NMTAP	18	0	0
NMTAP	18	96	0
NMTAP	18	192	1
NMTAP	19	0	2
NMTAP	19	96	2
NMTAP	19	192	3
NMTAP	19	192	4
NMHLD	20	0	5	192
NMTAP	20	192	4
NMHLD	21	0	2	192
NMTAP	21	192	3
NMSTR	22	0	2
NMSI_	22	0	2	96	192	5
NMSTR	23	0	6
NMSI_	23	0	6	96	192	3
NMSTR	24	0	2
NMSI_	24	0	2	96	192	7
NMTAP	25	0	6
NMTAP	25	192	6
NMTAP	25	192	7
NMSTR	26	0	5
NMSI_	26	0	5	96	192	2
NMSTR	27	0	1
NMSI_	27	0	1	96	192	4
NMSTR	28	0	5
NMSI_	28	0	5	96	192	0
NMTAP	29	0	1
NMTAP	29	192	0
NMTAP	29	192	1
NMHLD	30	0	2	192
NMHLD	30	192	3	192
NMHLD	31	0	4	192
NMTAP	31	192	5
NMHLD	32	0	5	192
NMHLD	32	192	4	192
NMHLD	33	0	3	192
NMTAP	33	192	2
NMHLD	34	0	1	192
NMHLD	34	192	2	192
NMHLD	35	0	3	192
NMTAP	35	192	4
NMHLD	36	0	6	192
NMHLD	36	192	5	192
NMHLD	37	0	4	192
NMTAP	37	192	3
NMTAP	38	0	2
NMTAP	38	96	2
NMTAP	38	192	2
NMTAP	38	192	3
NMTAP	39	0	4
NMTAP	39	96	4
NMTAP	39	192	3
NMTAP	39	192	4
NMTAP	40	0	5
NMTAP	40	96	5
NMTAP	40	192	4
NMTAP	40	192	5
NMTAP	41	0	3
NMTAP	41	0	4
NMTAP	42	0	5
NMTAP	42	96	5
NMTAP	42	192	6
NMTAP	42	288	6
NMTAP	43	0	7
NMTAP	43	96	7
NMTAP	43	192	0
NMTAP	43	192	1
NMTAP	44	0	2
NMTAP	44	96	2
NMTAP	44	192	1
NMTAP	44	288	1
NMTAP	45	0	0
NMTAP	45	96	0
BXTAP	45	192	6
BXTAP	45	192	7
NMTAP	46	0	6
NMTAP	46	96	6
NMTAP	46	192	5
NMTAP	46	288	5
NMTAP	47	0	4
NMTAP	47	96	4
NMTAP	47	192	2
NMTAP	47	192	3
NMTAP	48	0	1
NMTAP	48	96	1
NMTAP	48	192	2
NMTAP	48	288	2
NMTAP	49	0	3
NMTAP	49	96	3
NMTAP	49	192	4
NMTAP	49	192	5
NMTAP	50	0	5
NMTAP	50	96	5
NMTAP	50	192	6
NMTAP	50	288	6
NMTAP	51	0	7
NMTAP	51	96	7
NMTAP	51	192	0
NMTAP	51	192	1
NMTAP	51	288	0
NMTAP	51	288	1
NMTAP	52	0	2
NMTAP	52	96	2
NMTAP	52	192	1
NMTAP	52	288	1
NMTAP	53	0	0
NMTAP	53	96	0
NMTAP	53	192	6
NMTAP	53	192	7
NMTAP	54	0	6
NMTAP	54	96	6
NMTAP	54	192	5
NMTAP	54	288	5
NMTAP	55	0	4
NMTAP	55	96	4
NMTAP	55	192	2
NMTAP	55	192	3
NMTAP	55	288	2
NMTAP	55	288	3
NMTAP	56	0	1
NMTAP	56	96	1
NMTAP	56	192	2
NMTAP	56	288	2
NMTAP	57	0	3
NMTAP	57	96	3
NMTAP	57	192	4
NMTAP	57	192	5
NMTAP	58	0	6
NMTAP	58	96	6
NMTAP	58	192	6
NMTAP	58	288	6
NMTAP	58	288	7
NMTAP	59	0	5
NMTAP	59	96	5
NMTAP	59	192	5
NMTAP	59	288	4
NMTAP	59	288	5
NMTAP	60	0	3
NMTAP	60	96	3
NMTAP	60	192	3
NMTAP	60	288	2
NMTAP	60	288	3
NMTAP	61	0	1
NMTAP	61	96	1
NMTAP	61	192	0
NMTAP	61	192	1
NMTAP	62	0	1
NMTAP	62	96	1
NMTAP	62	192	1
NMTAP	62	288	0
NMTAP	62	288	1
NMTAP	63	0	2
NMTAP	63	96	2
NMTAP	63	192	2
NMTAP	63	288	2
NMTAP	63	288	3
NMTAP	64	0	4
NMTAP	64	96	4
NMTAP	64	192	4
NMTAP	64	288	4
NMTAP	64	288	5
NMTAP	65	0	6
NMTAP	65	0	7
NMTTP	66	0	6	B	0	L1
NMTTP	66	96	5	B	0	L1
NMTTP	66	192	4	B	0	L1
NMTTP	67	0	1	B	0	L1
NMTTP	67	96	2	B	0	L1
NMTTP	67	192	3	B	0	L1
NMTTP	68	0	6	B	0	L1
NMTTP	68	96	5	B	0	L1
NMTTP	68	192	4	B	0	L1
NMTTP	68	288	3	B	0	L1
NMTTP	69	0	0	C	0	L1
NMTTP	70	0	0	B	0	L1
NMTTP	70	96	1	B	0	L1
NMTTP	70	192	2	B	0	L1
NMTTP	70	192	3	B	0	L1
NMTTP	71	0	7	B	0	L1
NMTTP	71	96	6	B	0	L1
NMTTP	71	192	4	B	0	L1
NMTTP	71	192	5	B	0	L1
NMTTP	72	0	1	B	0	L1
NMTTP	72	96	2	B	0	L1
NMTTP	72	192	3	B	0	L1
NMTTP	72	288	4	B	0	L1
NMTTP	73	0	0	C	1	L1
NMSTR	74	0	7
NMSI_	74	0	7	96	192	3
NMSTR	75	0	2
NMSI_	75	0	2	96	192	7
NMSTR	76	0	6
NMSI_	76	0	6	96	192	2
NMSTR	77	0	1
NMSUR	77	0	1	96	480	4
NMSTR	79	0	6
NMSUL	79	0	6	96	480	3
NMTAP	81	0	2
NMTAP	81	96	2
NMTAP	81	192	0
NMTAP	81	192	1
NMTAP	81	288	0
NMTAP	81	288	1
NMTAP	82	0	7
NMTAP	82	96	7
NMTAP	82	192	6
NMTAP	82	192	7
NMTAP	83	0	5
NMTAP	83	96	5
NMTAP	83	192	6
NMTAP	83	192	7
NMTAP	83	288	6
NMTAP	83	288	7
NMTAP	84	0	0
NMTAP	84	96	0
BRTAP	84	192	0
BRTAP	84	192	1
NMTAP	85	0	1
NMTAP	85	96	1
NMTAP	85	192	2
NMTAP	85	192	3
NMTAP	85	288	2
NMTAP	85	288	3
NMTAP	86	0	4
NMTAP	86	96	4
NMTAP	86	192	4
NMTAP	86	192	5
NMTAP	87	0	6
NMTAP	87	96	6
NMTAP	87	192	4
NMTAP	87	192	5
NMTAP	87	288	4
NMTAP	87	288	5
NMTAP	88	0	3
NMTAP	88	96	3
NMTAP	88	192	2
NMTAP	88	192	3
NMTAP	89	0	2
NMTAP	89	96	2
NMTAP	89	192	0
NMTAP	89	192	1
NMTAP	89	288	0
NMTAP	89	288	1
NMTAP	90	0	7
NMTAP	90	96	7
NMTAP	90	192	6
NMTAP	90	192	7
NMTAP	90	288	6
NMTAP	90	288	7
NMTAP	91	0	5
NMTAP	91	96	5
NMTAP	91	192	6
NMTAP	91	192	7
NMTAP	91	288	6
NMTAP	91	288	7
NMTAP	92	0	0
NMTAP	92	96	0
NMTAP	92	192	0
NMTAP	92	192	1
NMTAP	93	0	2
NMTAP	93	96	1
NMTAP	93	192	0
NMTAP	93	288	7
NMTAP	94	0	6
NMTAP	94	96	5
NMTAP	94	192	3
NMTAP	94	192	4
NMTAP	95	0	2
NMTAP	95	0	3
NMTAP	95	96	2
NMTAP	95	96	3
NMTAP	95	288	3
NMTAP	95	288	4
NMTAP	96	0	3
NMTAP	96	0	4
NMTAP	96	192	4
NMTAP	96	192	5
NMTAP	96	288	4
NMTAP	96	288	5
NMHLD	97	96	3	384
NMHLD	97	96	4	384
NMTAP	99	96	5
NMTAP	99	192	5
NMTAP	99	288	4
NMTAP	99	288	5
NMTAP	100	96	6
NMTAP	100	192	6
NMTAP	100	288	6
NMTAP	100	288	7
NMTAP	101	96	0
NMTAP	101	192	0
NMTAP	101	288	1
NMTAP	102	0	1
NMTAP	102	96	2
NMTAP	102	192	2
NMTAP	102	288	3
NMTAP	102	288	4
NMTAP	103	96	2
NMTAP	103	192	2
NMTAP	103	288	2
NMTAP	103	288	3
NMTAP	104	96	1
NMTAP	104	192	1
NMTAP	104	288	0
NMTAP	104	288	1
NMTAP	105	96	7
NMTAP	105	192	7
NMTAP	105	288	6
NMTAP	106	0	6
NMTAP	106	96	5
NMTAP	106	192	5
NMSTR	106	288	3
NMSXR	106	288	3	96	816	0
NMSTR	106	288	4
NMSXL	106	288	4	96	816	7

T_REC_TAP	292
T_REC_BRK	2
T_REC_XTP	0
T_REC_BXX	2
T_REC_HLD	18
T_REC_XHO	0
T_REC_BHO	0
T_REC_BXH	0
T_REC_STR	13
T_REC_BST	0
T_REC_XST	0
T_REC_XBS	0
T_REC_TTP	24
T_REC_THO	0
T_REC_SLD	13
T_REC_BSL	0
T_REC_ALL	364
T_NUM_TAP	329
T_NUM_BRK	4
T_NUM_HLD	18
T_NUM_SLD	13
T_NUM_ALL	364
T_JUDGE_TAP	333
T_JUDGE_HLD	80
T_JUDGE_SLD	13
T_JUDGE_ALL	426
TTM_EACHPAIRS	63
TTM_SCR_TAP	164500
TTM_SCR_BRK	10400
TTM_SCR_HLD	18000
TTM_SCR_SLD	19500
TTM_SCR_ALL	212400
TTM_SCR_S	205650
TTM_SCR_SS	212000
TTM_RAT_ACV	10018

