VERSION	0.00.00	1.05.00
FES_MODE	0
BPM_DEF	162.000	162.000	162.000	160.600
MET_DEF	4	4
RESOLUTION	384
CLK_DEF	384
COMPATIBLE_CODE	MA2

BPM	0	0	162.000
BPM	80	0	160.600
BPM	81	0	162.000
MET	0	0	4	4
MET	95	0	4	3
MET	97	96	4	4

EXTAP	2	0	3
NMTAP	3	0	3
NMTAP	4	0	3
NMTAP	5	0	3
NMTAP	6	0	4
NMTAP	7	0	4
NMTAP	8	0	4
NMTAP	9	0	3
NMTAP	9	0	4
EXTAP	10	0	3
NMTAP	10	192	3
NMTAP	11	0	2
NMTAP	12	0	2
NMTAP	12	192	2
NMTAP	13	0	1
NMTAP	14	0	1
NMTAP	14	192	1
NMTAP	15	0	0
NMTAP	15	0	7
NMTAP	16	0	7
NMTAP	16	192	7
NMTAP	17	0	6
NMTAP	18	0	6
NMTAP	18	192	6
NMTAP	19	0	5
NMTAP	20	0	5
NMTAP	20	192	5
EXTAP	21	0	3
EXTAP	21	0	4
NMTAP	22	0	4
NMTAP	22	192	4
NMTAP	23	0	5
NMTAP	23	192	5
NMTAP	24	0	6
NMTAP	25	0	0
NMTAP	25	0	7
NMTAP	26	0	0
NMTAP	26	192	0
NMTAP	27	0	1
NMTAP	27	192	1
NMTAP	28	0	2
EXTAP	29	0	3
EXTAP	29	0	4
NMTTP	30	0	3	B	0	L1
NMTTP	31	0	2	B	0	L1
NMTTP	32	0	1	B	0	L1
NMTTP	33	0	0	B	0	L1
NMTTP	34	0	7	B	0	L1
NMTTP	35	0	6	B	0	L1
NMTTP	36	0	5	B	0	L1
NMTTP	37	0	4	B	0	L1
NMTTP	38	0	4	E	0	L1
NMTTP	39	0	3	B	0	L1
NMTTP	39	0	4	B	0	L1
NMTTP	40	0	2	B	0	L1
NMTTP	40	0	5	B	0	L1
NMTTP	41	0	0	C	1	L1
BRTAP	42	0	0
NMTAP	42	96	0
NMTAP	42	192	0
NMTAP	43	0	1
NMTAP	43	192	1
NMTAP	44	0	2
NMTAP	44	192	2
NMTAP	45	0	3
NMTAP	45	0	4
NMTAP	46	0	4
NMTAP	46	96	4
NMTAP	46	192	4
NMTAP	47	0	5
NMTAP	47	192	5
NMTAP	48	0	6
NMTAP	48	192	6
NMTAP	49	0	0
NMTAP	49	0	7
NMTAP	50	0	7
NMTAP	50	96	7
NMTAP	50	192	7
NMTAP	51	0	6
NMTAP	51	192	6
NMTAP	52	0	5
NMTAP	52	96	5
NMTAP	52	192	5
NMTAP	53	0	3
NMTAP	53	0	4
NMTAP	54	0	3
NMTAP	54	96	3
NMTAP	54	192	3
NMTAP	55	0	2
NMTAP	55	192	2
NMTAP	56	0	1
NMTAP	56	96	1
NMTAP	56	192	1
EXTAP	57	0	0
EXTAP	57	0	7
NMSTR	58	0	0
NMSI_	58	0	0	96	288	4
NMSTR	60	0	7
NMSI_	60	0	7	96	288	3
NMSTR	62	0	1
NMSI_	62	0	1	96	288	5
NMSTR	64	0	6
NMSI_	64	0	6	96	288	2
NMHLD	66	0	0	192
NMHLD	66	0	1	192
NMTAP	67	0	0
NMTAP	67	0	1
NMHLD	68	0	2	192
NMHLD	68	0	3	192
NMTAP	69	0	2
NMTAP	69	0	3
NMHLD	70	0	4	192
NMHLD	70	0	5	192
NMTAP	71	0	4
NMTAP	71	0	5
NMHLD	72	0	6	192
NMHLD	72	0	7	192
NMTAP	73	0	6
NMTAP	73	0	7
NMTAP	74	0	7
NMTAP	74	96	7
NMTAP	74	192	7
NMTAP	75	0	6
NMTAP	75	0	7
NMTAP	75	192	6
NMTAP	75	192	7
NMTAP	76	0	0
NMTAP	76	96	0
NMTAP	76	192	0
NMTAP	77	0	0
NMTAP	77	0	1
NMTAP	77	192	0
NMTAP	77	192	1
NMTAP	78	0	7
NMTAP	78	96	7
NMTAP	78	192	7
NMTAP	79	0	0
NMTAP	79	96	0
NMTAP	79	192	0
EXTAP	80	0	0
EXTAP	80	0	7
BRTAP	81	0	7
NMTAP	81	96	7
NMTAP	81	192	7
NMTAP	82	0	6
NMTAP	82	96	6
NMTAP	82	192	6
NMTAP	83	0	5
NMTAP	83	96	5
NMTAP	83	192	5
NMTAP	84	0	3
NMTAP	84	0	4
NMTAP	84	192	3
NMTAP	84	192	4
NMTAP	85	0	3
NMTAP	85	96	3
NMTAP	85	192	3
NMTAP	86	0	2
NMTAP	86	96	2
NMTAP	86	192	2
NMTAP	87	0	1
NMTAP	87	96	1
NMTAP	87	192	1
EXTAP	88	0	0
EXTAP	88	0	7
NMTAP	89	0	1
NMTAP	89	96	1
NMTAP	89	192	1
NMTAP	90	0	2
NMTAP	90	96	2
NMTAP	90	192	2
NMTAP	91	0	3
NMTAP	91	96	3
NMTAP	91	192	3
NMTAP	92	0	4
NMTAP	92	96	4
NMTAP	92	192	4
NMTAP	93	0	5
NMTAP	93	96	5
NMTAP	93	192	5
NMTAP	94	0	6
NMTAP	94	96	6
NMTAP	94	192	6
EXSTR	95	0	7
NMSI_	95	0	7	96	288	4
EXSTR	97	96	3
NMSI_	97	96	3	96	288	0
EXTAP	99	96	7
EXTAP	99	192	7
EXTAP	99	288	7
NMTAP	100	96	6
NMTAP	100	96	7
NMTAP	100	288	6
NMTAP	100	288	7
NMTAP	101	96	5
NMTAP	101	192	5
NMTAP	101	288	5
NMTAP	102	96	3
NMTAP	102	96	4
NMTAP	102	288	3
NMTAP	102	288	4
NMTAP	103	96	3
NMTAP	103	192	3
NMTAP	103	288	3
NMTAP	104	96	2
NMTAP	104	96	3
NMTAP	104	288	2
NMTAP	104	288	3
NMTAP	105	96	1
NMTAP	105	192	1
NMTAP	105	288	1
NMTAP	106	96	0
NMTAP	106	96	7
NMHLD	106	288	0	960
NMHLD	106	288	7	960

T_REC_TAP	162
T_REC_BRK	2
T_REC_XTP	15
T_REC_BXX	0
T_REC_HLD	10
T_REC_XHO	0
T_REC_BHO	0
T_REC_BXH	0
T_REC_STR	4
T_REC_BST	0
T_REC_XST	2
T_REC_XBS	0
T_REC_TTP	14
T_REC_THO	0
T_REC_SLD	6
T_REC_BSL	0
T_REC_ALL	215
T_NUM_TAP	197
T_NUM_BRK	2
T_NUM_HLD	10
T_NUM_SLD	6
T_NUM_ALL	215
T_JUDGE_TAP	199
T_JUDGE_HLD	72
T_JUDGE_SLD	6
T_JUDGE_ALL	277
TTM_EACHPAIRS	33
TTM_SCR_TAP	98500
TTM_SCR_BRK	5200
TTM_SCR_HLD	10000
TTM_SCR_SLD	9000
TTM_SCR_ALL	122700
TTM_SCR_S	118850
TTM_SCR_SS	122500
TTM_RAT_ACV	10016

