VERSION	0.00.00	1.05.00
FES_MODE	0
BPM_DEF	186.000	186.000	186.000	186.000
MET_DEF	4	4
RESOLUTION	384
CLK_DEF	384
COMPATIBLE_CODE	MA2

BPM	0	0	186.000
MET	0	0	4	4

EXTAP	1	0	2
NMTAP	1	24	4
NMTAP	1	48	2
NMTAP	1	72	4
EXTAP	1	96	3
NMTAP	1	120	5
NMTAP	1	144	3
NMTAP	1	168	5
EXTAP	1	192	2
NMTAP	1	216	5
NMTAP	1	240	2
NMTAP	1	264	5
EXHLD	1	288	3	0
EXHLD	1	300	4	0
NMTTP	2	0	0	A	0	M1
NMTTP	2	24	1	A	0	M1
NMTTP	2	48	2	A	0	M1
NMTTP	2	72	3	A	0	M1
NMTTP	2	96	7	A	0	M1
NMTTP	2	120	6	A	0	M1
NMTTP	2	144	5	A	0	M1
NMTTP	2	168	4	A	0	M1
NMTTP	2	192	1	A	0	M1
NMTTP	2	216	2	A	0	M1
NMTTP	2	240	3	A	0	M1
NMTTP	2	264	4	A	0	M1
NMTTP	2	288	7	D	0	M1
NMTTP	2	312	6	D	0	M1
NMTTP	2	336	5	D	0	M1
NMTTP	2	360	4	D	0	M1
NMTAP	3	0	0
EXTAP	3	24	1
EXTAP	3	48	2
EXTAP	3	72	3
NMTAP	3	96	7
EXTAP	3	120	6
EXTAP	3	144	5
EXTAP	3	168	4
NMTAP	3	192	1
EXTAP	3	216	2
EXTAP	3	240	3
EXTAP	3	264	4
NMTAP	3	288	6
EXTAP	3	312	5
EXTAP	3	336	4
EXTAP	3	360	3
NMTTP	4	0	1	A	0	M1
NMTTP	4	24	2	E	0	M1
NMTTP	4	48	3	E	0	M1
NMTTP	4	72	3	A	0	M1
NMTTP	4	96	7	A	0	M1
NMTTP	4	120	7	E	0	M1
NMTTP	4	144	6	E	0	M1
NMTTP	4	168	5	A	0	M1
NMTTP	4	192	0	A	0	M1
NMTTP	4	216	0	B	0	M1
NMTTP	4	240	0	C	0	M1
NMTTP	4	264	4	B	0	M1
EXSTR	4	288	6
BRSCL	4	288	6	96	144	1
BRTAP	5	0	7
NMTTP	5	144	0	C	1	M1
CNSUR	5	144	1	0	144	7
NMSTR	6	0	1
NMSI_	6	0	1	96	48	4
NMTAP	6	0	7
NMSTR	6	96	0
NMSI_	6	96	0	96	48	5
NMTAP	6	192	3
NMTAP	6	240	2
NMTAP	6	288	4
NMSTR	6	336	5
NMSCL	6	336	5	96	48	2
NMSTR	7	48	1
NMSCL	7	48	1	96	48	6
NMTAP	7	144	4
NMTAP	7	240	5
NMHLD	7	288	5	96
NMTAP	8	0	3
EXTAP	8	24	2
EXTAP	8	48	1
EXTAP	8	72	0
NMTAP	8	96	6
EXTAP	8	120	5
EXTAP	8	144	4
EXTAP	8	168	3
NMTAP	8	192	1
EXTAP	8	216	2
EXTAP	8	240	3
EXTAP	8	264	4
NMTAP	8	288	7
EXTAP	8	312	6
EXTAP	8	336	5
EXTAP	8	360	4
NMSTR	9	0	2
NMSI_	9	0	2	96	48	7
NMTAP	9	96	5
NMSTR	9	144	5
NMSI_	9	144	5	96	48	0
NMTAP	9	240	1
NMTAP	9	288	1
NMTTP	10	0	2	A	0	M1
NMTTP	10	48	3	A	0	M1
NMTTP	10	96	4	A	0	M1
NMTHO	10	144	5	96	A	0	M1
NMTAP	10	288	2
NMTAP	10	336	3
NMTAP	11	0	4
NMHLD	11	48	5	96
NMTAP	11	144	2
EXHLD	11	192	3	0
EXHLD	11	204	4	0
BXTAP	11	240	2
NMHLD	12	0	1	96
NMTAP	12	0	5
NMTAP	12	96	5
NMTAP	12	192	0
NMTAP	12	192	5
NMTAP	12	288	0
NMTAP	12	288	5
NMTAP	13	0	5
NMHLD	13	0	7	96
NMTAP	13	96	5
NMTAP	13	192	5
NMTAP	13	192	7
NMTAP	13	288	5
NMSTR	13	288	7
NMSUR	13	288	7	96	192	4
NMTAP	14	0	5
NMTAP	14	96	5
NMTAP	14	192	5
NMSTR	14	288	4
NMSUL	14	288	4	96	192	7
NMTAP	14	288	5
NMTAP	15	0	5
NMTAP	15	96	5
NMTAP	15	192	5
NMTAP	15	288	4
NMTAP	15	288	6
NMSTR	16	0	5
NMSCL	16	0	5	96	96	3
NMTAP	16	96	3
NMTAP	16	192	2
NMTAP	16	288	1
NMTAP	16	288	3
NMSTR	17	0	2
NMSCR	17	0	2	96	96	4
NMTAP	17	96	4
NMTAP	17	192	5
NMTAP	17	288	4
NMSTR	17	288	6
NMSI_	17	288	6	96	96	0
NMTAP	18	0	3
CNSV_	18	96	0	0	96	2
NMTAP	18	96	2
NMTAP	18	192	1
NMHLD	18	288	0	192
NMTAP	18	288	3
NMTTP	19	0	4	E	0	M1
NMTTP	19	24	5	E	0	M1
NMTTP	19	48	6	E	0	M1
NMTTP	19	72	7	E	0	M1
NMTTP	19	96	0	E	0	M1
NMTAP	19	192	2
NMTAP	19	192	5
NMTAP	19	240	2
NMTAP	19	240	5
NMTAP	19	336	1
NMSTR	20	0	1
NMSCL	20	0	1	96	48	6
NMTAP	20	96	3
NMTAP	20	192	5
NMTAP	20	240	5
NMTAP	20	288	4
NMHLD	20	336	6	96
NMTAP	21	48	7
NMTAP	21	96	7
NMTAP	21	192	5
NMTAP	21	240	4
NMTAP	21	288	3
NMTAP	21	336	4
NMSTR	22	0	5
NMSLR	22	0	5	96	96	1
NMTAP	22	96	3
NMTAP	22	144	3
NMHLD	22	240	2	96
NMSTR	22	336	1
NMSCL	22	336	1	96	240	3
NMTAP	23	96	2
NMTAP	23	192	2
NMSTR	23	288	1
NMSI_	23	288	1	96	48	7
NMTAP	24	0	4
NMHLD	24	48	4	96
NMSTR	24	144	7
NMSV_	24	144	7	96	48	4
NMTAP	24	240	5
NMTAP	24	288	6
NMSTR	24	336	7
NMSCL	24	336	7	96	48	4
NMSTR	25	48	4
NMSI_	25	48	4	96	48	0
NMTAP	25	144	3
NMHLD	25	240	1	96
NMTTP	25	336	0	C	0	M1
NMTAP	26	48	0
NMTAP	26	96	1
NMTAP	26	144	7
NMTAP	26	192	3
NMTAP	26	192	6
NMSTR	26	240	4
NMSI_	26	240	4	96	48	7
NMHLD	26	240	5	96
NMTAP	26	336	4
NMTAP	27	96	6
NMTAP	27	96	7
NMTAP	27	192	4
NMTAP	27	192	5
NMTAP	27	288	2
NMTAP	27	288	3
NMHLD	28	0	2	288
NMTAP	28	0	3
NMTAP	28	144	1
NMHLD	28	192	1	96
NMTAP	29	0	0
NMTAP	29	0	3
NMTAP	29	48	0
NMTAP	29	48	3
NMTAP	29	144	4
NMTAP	29	144	7
NMTAP	29	192	4
NMTAP	29	192	7
NMTAP	29	288	5
NMTAP	29	288	6
NMHLD	30	0	4	144
NMTAP	30	0	5
NMTAP	30	144	3
NMSTR	30	192	3
NMSCL	30	192	3	96	144	7
NMSUR	30	192	3	96	144	7
NMTAP	31	144	0
NMTAP	31	144	6
NMTAP	31	192	0
NMTAP	31	192	6
NMTAP	31	288	5
NMTAP	32	0	4
NMHLD	32	0	5	288
NMTAP	32	144	6
NMHLD	32	192	6	96
NMTAP	33	0	4
NMTAP	33	0	7
NMTAP	33	48	4
NMTAP	33	48	7
NMTAP	33	144	0
NMTAP	33	144	3
NMTAP	33	192	0
NMTAP	33	192	3
NMTAP	33	288	1
NMTAP	33	288	2
NMTAP	34	0	2
NMHLD	34	0	3	144
NMTAP	34	144	4
NMSTR	34	192	4
NMSXL	34	192	4	96	192	5
NMSXR	34	192	4	96	192	3
NMTAP	35	192	3
NMTAP	35	192	5
NMTAP	35	288	3
NMSTR	35	288	5
NMSI_	35	288	5	96	48	0
BRTAP	36	0	4
NMTAP	36	96	4
NMSTR	36	96	5
NMSI_	36	96	5	96	48	0
NMTAP	36	192	3
NMSTR	36	288	2
NMSI_	36	288	2	96	48	7
NMTAP	36	288	3
NMTAP	37	0	3
NMSTR	37	96	2
NMSI_	37	96	2	96	48	7
NMTAP	37	96	3
NMTAP	37	192	4
NMTAP	37	288	0
NMTAP	37	288	5
NMTAP	38	0	0
NMSTR	38	0	6
NMSI_	38	0	6	96	48	3
NMTAP	38	96	7
NMTAP	38	192	0
NMSTR	38	192	1
NMSCR	38	192	1	96	48	4
NMTAP	38	288	7
NMSTR	39	0	6
NMSCL	39	0	6	96	48	3
NMTAP	39	0	7
NMTAP	39	96	0
NMTTP	39	192	0	B	0	M1
NMTTP	39	192	1	B	0	M1
NMTTP	39	192	1	E	0	M1
NMTTP	39	192	7	B	0	M1
NMTTP	39	288	4	B	0	M1
NMTTP	39	288	5	B	0	M1
NMTTP	39	288	5	E	0	M1
NMTAP	40	0	2
NMTAP	40	0	3
NMTAP	40	96	2
NMTAP	40	96	3
NMTAP	40	192	6
NMTAP	40	192	7
NMTAP	40	288	0
NMTAP	40	288	1
NMTAP	41	0	4
NMTAP	41	0	5
NMTAP	41	96	4
NMTAP	41	96	5
NMTAP	41	192	0
NMTAP	41	192	1
NMTAP	41	288	6
NMTAP	41	288	7
NMHLD	42	0	3	48
NMHLD	42	0	6	48
NMHLD	42	96	3	48
NMHLD	42	96	6	48
NMHLD	42	192	1	48
NMHLD	42	192	4	48
NMHLD	42	288	1	48
NMHLD	42	288	4	48
BRTAP	43	0	2
BRTAP	43	0	5
BRTAP	43	48	3
BRTAP	43	48	6
BRTAP	43	96	4
BRTAP	43	96	7
NMTAP	43	192	6
NMTAP	43	216	3
NMTAP	43	240	4
NMTAP	43	264	1
NMSTR	43	288	7
NMSCL	43	288	7	96	48	4
NMSCR	43	288	7	96	48	2
BRTAP	44	0	7
NMTAP	44	96	1
NMTAP	44	96	5
NMTAP	44	192	0
NMTAP	44	192	7
NMSTR	44	240	0
NMSI_	44	240	0	96	48	2
NMSTR	44	240	7
NMSI_	44	240	7	96	48	2
NMSTR	44	336	0
NMSI_	44	336	0	96	48	5
NMSTR	44	336	7
NMSI_	44	336	7	96	48	5
BRTAP	45	48	0
BRTAP	45	48	7
NMTAP	45	192	6
NMTAP	45	192	7
NMTAP	45	240	0
NMTAP	45	240	5
NMTAP	45	288	1
NMTAP	45	288	4
NMSTR	45	336	2
NMSI_	45	336	2	96	48	7
NMSTR	46	48	3
NMSI_	46	48	3	96	48	6
NMSTR	46	144	0
NMSI_	46	144	0	96	48	5
NMSTR	46	240	7
NMSI_	46	240	7	96	48	2
NMSTR	46	336	4
NMSCL	46	336	4	96	144	7
NMTTP	47	48	4	B	0	M1
NMTTP	47	48	5	B	0	M1
NMTTP	47	48	5	E	0	M1
EXTAP	47	192	6
NMSTR	47	288	6
NMSCL	47	288	6	96	48	3
BRSTR	48	0	7
NMSV_	48	0	7	96	48	2
NMSTR	48	96	6
NMSCL	48	96	6	96	48	3
NMSTR	48	192	7
NMSV_	48	192	7	96	48	2
NMSTR	48	288	6
NMSCL	48	288	6	96	48	3
NMSTR	49	0	7
NMSV_	49	0	7	96	48	2
NMSTR	49	96	6
NMSCL	49	96	6	96	48	3
NMTAP	49	192	0
NMSTR	49	288	0
NMSI_	49	288	0	96	48	5
NMSTR	49	288	1
NMSI_	49	288	1	96	48	4
BRTAP	50	0	0
BRTAP	50	0	1
NMTAP	50	96	3
NMTAP	50	96	6
NMTAP	50	192	1
NMTAP	50	192	5
NMSTR	50	240	1
NMSXL	50	240	1	96	144	4
NMSTR	50	240	5
NMSXL	50	240	5	96	144	0
BRTAP	50	336	1
BRTAP	50	336	5
NMSTR	51	192	6
NMSCL	51	192	6	96	48	4
NMSTR	51	240	4
NMSI_	51	240	4	96	48	0
NMTAP	51	288	6
NMSTR	51	336	1
NMSI_	51	336	1	96	48	5
NMSCR	51	336	1	96	48	3
NMTAP	52	48	1
NMTAP	52	144	7
NMTAP	52	192	0
NMTAP	52	192	6
NMSTR	52	240	1
NMSI_	52	240	1	96	48	3
NMSTR	52	240	5
NMSI_	52	240	5	96	48	3
NMSTR	52	336	1
NMSI_	52	336	1	96	48	7
NMSTR	52	336	5
NMSI_	52	336	5	96	48	7
NMTAP	53	48	1
NMTAP	53	48	5
EXTAP	53	144	0
EXTAP	53	144	6
NMTAP	53	192	1
NMTAP	53	192	5
NMTAP	53	240	2
NMTAP	53	288	3
NMTAP	53	336	2
NMSTR	53	336	4
NMSCR	53	336	4	96	96	0
NMSTR	54	48	0
NMSCR	54	48	0	96	96	4
NMSTR	54	144	4
NMSLR	54	144	4	96	96	0
NMSTR	54	240	0
NMSLR	54	240	0	96	96	4
NMSTR	54	336	4
NMSCR	54	336	4	96	168	3
NMTTP	55	48	0	C	1	M1
NMTAP	55	288	1
NMTAP	55	288	7
NMTAP	55	336	2
NMTAP	55	336	6
NMTAP	56	0	3
NMSTR	56	0	5
NMSI_	56	0	5	96	48	0
NMSTR	56	96	4
NMSCL	56	96	4	96	48	1
NMTAP	56	192	7
NMTAP	56	240	6
EXSTR	56	288	0
NMSI_	56	288	0	96	48	4
NMTAP	56	288	5
NMTAP	57	0	0
NMSTR	57	96	0
NMSI_	57	96	0	96	48	3
NMSI_	57	96	0	96	48	5
NMTAP	57	192	0
NMSTR	57	288	0
NMSF_	57	288	0	96	48	4
BRTAP	58	0	0
NMTAP	58	96	2
NMTAP	58	96	6
NMTAP	58	144	2
NMTAP	58	144	6
NMTAP	58	240	1
NMTAP	58	240	3
NMHLD	58	288	1	96
NMSTR	58	288	3
NMSI_	58	288	3	96	48	0
BXTAP	59	0	3
NMSTR	59	96	2
NMSI_	59	96	2	96	48	7
NMSTR	59	96	7
NMSCL	59	96	7	96	48	4
NMTAP	59	192	2
NMTAP	59	192	7
NMTAP	59	288	0
EXTAP	59	288	4
NMHLD	60	0	1	192
NMHLD	60	0	3	192
NMSTR	60	240	1
NMSCL	60	240	1	96	336	7
NMTAP	60	288	2
NMHLD	60	336	3	432
CNSI_	61	288	7	0	384	4
NMTHO	63	0	2	192	E	0	M1
NMTHO	63	0	4	192	E	0	M1
NMTTP	63	192	3	E	0	M1
NMTAP	64	0	2
NMTAP	64	48	3
NMTAP	64	96	4
NMTAP	64	144	5
NMTAP	64	192	6
NMTAP	64	240	5
NMTAP	64	288	4
NMTAP	64	336	3
NMTAP	65	0	2
NMTAP	65	48	1
NMTAP	65	96	0
NMHLD	65	144	7	96
NMHLD	65	240	5	96
NMTAP	65	336	3
NMTAP	66	0	4
NMTAP	66	48	5
NMTAP	66	96	6
NMHLD	66	144	7	96
NMTAP	66	240	5
NMTAP	66	288	4
NMTAP	66	336	3
NMTAP	67	0	2
NMTAP	67	48	4
NMTAP	67	96	3
NMTAP	67	96	5
EXHLD	67	192	5	0
EXHLD	67	204	4	0
BXTAP	67	240	6
NMTAP	68	0	3
NMHLD	68	0	5	192
NMTAP	68	96	3
NMTAP	68	192	3
NMTAP	68	288	2
NMSTR	68	288	4
NMSSL	68	288	4	96	288	0
EXTAP	69	0	1
EXTAP	69	96	1
EXTAP	69	192	1
NMTAP	69	288	1
NMHLD	70	0	0	96
NMTAP	70	0	1
NMTAP	70	96	1
NMTAP	70	192	0
NMTAP	70	192	1
NMSTR	70	288	0
NMSUL	70	288	0	96	288	7
NMTAP	70	288	1
EXTAP	71	0	2
EXTAP	71	96	2
EXTAP	71	192	2
NMTAP	71	288	2
NMTAP	72	0	2
NMHLD	72	0	7	96
NMTAP	72	96	2
NMTAP	72	192	0
NMTAP	72	192	2
NMSTR	72	288	0
NMSSL	72	288	0	96	288	4
NMTAP	72	288	2
EXTAP	73	0	1
EXTAP	73	96	1
EXTAP	73	192	2
NMTAP	73	288	2
NMHLD	74	0	3	96
NMTAP	74	0	4
NMHLD	74	96	2	96
NMHLD	74	192	1	96
NMHLD	74	288	0	96
NMHLD	75	0	7	96
NMHLD	75	96	6	96
NMHLD	75	192	5	96
NMTAP	75	288	4
NMTAP	76	0	3
NMSTR	76	0	4
NMSCR	76	0	4	96	96	7
NMSTR	76	96	7
NMSCR	76	96	7	96	96	2
NMSTR	76	192	2
NMSCR	76	192	2	96	96	5
NMSTR	76	288	5
NMSCR	76	288	5	96	96	0
NMSTR	77	0	0
NMSI_	77	0	0	96	96	4
NMTAP	77	96	4
NMTAP	77	192	2
NMSTR	77	288	0
NMSCL	77	288	0	96	288	4
NMSCR	77	288	0	96	288	4
NMTAP	79	0	3
NMTAP	79	24	5
NMTAP	79	48	3
NMTAP	79	72	5
NMTAP	79	96	4
NMTAP	79	120	5
NMTAP	79	144	1
NMTAP	79	168	3
NMTAP	79	192	2
NMTAP	79	216	3
NMTAP	79	240	2
NMTAP	79	264	3
BRTAP	79	288	1
BXTAP	80	0	5
BXTAP	80	0	7
BXHLD	80	48	5	144
BXHLD	80	48	7	144
BXTAP	81	0	0
BXTAP	81	0	2
BXHLD	81	48	0	144
BXHLD	81	48	2	144
EXTAP	81	288	7
NMTAP	82	0	0
NMTAP	82	0	6
NMHLD	82	48	0	48
NMHLD	82	48	6	48
NMHLD	82	144	1	48
NMHLD	82	144	5	48
NMSTR	82	240	2
NMSI_	82	240	2	96	48	7
NMSTR	82	240	6
NMSI_	82	240	6	96	48	2
BRTAP	82	336	2
BRTAP	82	336	6
EXTAP	83	48	1
EXTAP	83	48	5
NMTAP	83	96	2
NMTAP	83	120	4
NMTAP	83	144	2
NMTAP	83	168	4
NMTAP	83	192	3
NMTAP	83	216	5
NMTAP	83	240	3
NMTAP	83	264	5
NMSTR	83	288	4
NMSI_	83	288	4	96	48	0
NMTAP	83	312	6
NMTAP	83	336	4
NMTAP	83	360	6
BRTAP	84	0	4
NMSTR	84	96	1
NMSI_	84	96	1	96	48	3
NMSTR	84	96	7
NMSI_	84	96	7	96	48	3
NMTAP	84	192	1
NMTAP	84	192	7
NMTAP	84	288	0
NMSTR	84	288	6
NMSLR	84	288	6	96	96	2
NMSTR	85	0	2
NMSUL	85	0	2	96	96	5
NMTAP	85	96	5
NMTAP	85	192	4
NMSTR	85	288	3
NMSCL	85	288	3	96	144	5
NMTTP	86	0	0	C	1	M1
NMTAP	86	192	7
NMTAP	86	240	6
NMTAP	86	288	0
NMTAP	86	288	5
NMSTR	86	336	1
NMSLR	86	336	1	96	96	7
NMTAP	86	336	4
NMTAP	87	48	4
NMTAP	87	96	6
NMSTR	87	192	6
NMSI_	87	192	6	96	48	3
NMSTR	87	240	7
NMSCR	87	240	7	96	48	2
NMTAP	87	288	6
NMSTR	87	336	7
BRSCL	87	336	7	96	48	4
EXTAP	88	48	3
NMTAP	88	48	7
NMTAP	88	144	2
NMSTR	88	192	1
NMSI_	88	192	1	96	48	4
NMSTR	88	240	0
NMSCL	88	240	0	96	48	5
NMTAP	88	288	1
NMSTR	88	336	0
BRSCR	88	336	0	96	48	3
NMTAP	89	48	0
EXTAP	89	48	4
NMTAP	89	144	6
NMTAP	89	192	6
NMSTR	89	240	7
NMSI_	89	240	7	96	48	3
NMTAP	89	288	0
NMSTR	89	336	1
NMSI_	89	336	1	96	48	6
NMTAP	89	336	7
NMTAP	90	48	1
NMSTR	90	48	4
NMSI_	90	48	4	96	48	0
NMSTR	90	144	3
NMSI_	90	144	3	96	48	7
NMTAP	90	144	4
NMTAP	90	240	3
NMSTR	90	240	6
NMSCR	90	240	6	96	48	0
NMSTR	90	336	2
NMSLR	90	336	2	96	96	0
NMTAP	90	336	6
NMTAP	91	48	7
NMTTP	91	96	0	C	1	M1
BRTAP	91	96	5
NMTAP	91	192	1
NMTAP	91	192	7
NMTAP	91	240	1
NMTAP	91	240	7
NMSTR	91	288	2
NMSCL	91	288	2	96	48	7
NMTAP	91	288	6
BRTAP	92	0	4
NMSTR	92	96	2
NMSCL	92	96	2	96	48	7
NMTAP	92	96	3
NMTAP	92	192	3
NMTAP	92	240	4
NMSTR	92	288	5
NMSCR	92	288	5	96	48	0
NMTAP	93	0	3
NMTAP	93	96	3
NMSTR	93	96	5
NMSCR	93	96	5	96	48	0
NMTAP	93	192	4
NMTAP	93	240	3
NMHLD	93	288	2	96
NMSTR	94	0	0
NMSI_	94	0	0	96	48	4
NMTAP	94	48	1
NMTAP	94	96	0
NMSTR	94	144	2
NMSI_	94	144	2	96	48	7
NMTAP	94	240	4
NMHLD	94	288	6	96
NMTAP	95	0	7
NMTAP	95	48	0
NMTAP	95	96	1
NMTAP	95	96	5
NMTAP	95	144	4
NMTAP	95	192	2
NMTAP	95	216	3
NMTAP	95	240	2
NMTAP	95	264	3
BRSTR	95	288	0
NMSI_	95	288	0	96	48	5
NMTAP	96	0	0
NMSTR	96	0	6
NMSI_	96	0	6	96	48	3
NMSTR	96	96	2
NMSI_	96	96	2	96	48	7
NMTAP	96	96	6
NMTAP	96	192	2
NMTAP	96	240	4
NMSTR	96	288	0
NMSI_	96	288	0	96	48	5
NMTAP	96	336	6
NMSTR	97	0	0
NMSCR	97	0	0	96	48	3
NMTAP	97	96	0
NMSTR	97	96	7
NMSCL	97	96	7	96	48	4
NMSTR	97	192	7
NMSI_	97	192	7	96	48	2
NMSI_	97	192	7	96	48	3
NMTAP	97	288	7
BRSTR	98	0	1
NMSI_	98	0	1	96	48	5
BRTAP	98	0	4
NMSTR	98	96	5
NMSI_	98	96	5	96	48	1
NMTAP	98	192	7
NMTAP	98	240	7
NMTAP	98	288	6
NMTAP	98	336	6
NMTAP	99	0	0
NMTAP	99	0	6
NMTAP	99	96	2
NMTAP	99	96	7
NMTAP	99	144	1
NMTAP	99	168	1
NMTAP	99	192	0
NMTAP	99	240	2
NMTAP	99	240	7
NMTAP	99	288	1
NMTAP	99	288	6
NMTAP	99	336	0
NMTAP	99	336	5
NMSTR	100	0	4
NMSCR	100	0	4	96	96	2
NMTAP	100	96	2
NMSTR	100	192	3
NMSI_	100	192	3	96	48	7
NMTAP	100	288	4
NMSTR	101	0	5
NMSCR	101	0	5	96	96	3
NMTAP	101	96	3
NMSTR	101	192	4
NMSI_	101	192	4	96	48	0
NMTAP	101	288	5
BRTAP	102	0	1
BRTAP	102	0	7
NMTAP	102	96	0
NMTAP	102	96	1
NMTAP	102	144	0
NMTAP	102	144	1
NMTAP	102	192	0
NMTAP	102	192	7
NMTAP	102	240	0
NMTAP	102	240	7
NMTAP	102	288	6
NMTAP	102	288	7
NMTAP	102	336	6
NMTAP	102	336	7
NMTAP	103	0	0
NMTAP	103	0	5
NMTAP	103	48	2
NMTAP	103	48	7
NMTAP	103	96	1
NMTAP	103	96	4
NMTAP	103	144	3
NMTAP	103	144	6
BRTAP	103	192	2
BRTAP	103	192	5
NMTAP	103	240	3
NMTAP	103	264	4
NMTAP	103	288	2
NMTAP	103	312	5
NMTAP	103	336	1
NMTAP	103	360	6
BRHLD	104	0	0	384
NMTAP	105	0	6
NMTAP	105	24	5
NMTAP	105	48	4
NMTAP	105	72	3
NMTAP	105	96	0
NMTAP	105	120	1
NMTAP	105	144	2
NMTAP	105	168	3
NMTAP	105	192	7
NMTAP	105	204	6
NMTAP	105	216	5
NMTAP	105	228	4
NMTAP	105	240	3
NMTAP	105	252	2
NMTAP	105	264	1
NMTAP	105	276	0
NMSTR	105	288	7
NMSF_	105	288	7	96	48	3
BRSTR	106	0	7
BRSCL	106	0	7	96	528	0
BRSCR	106	0	7	96	528	6
NMTTP	106	6	0	C	1	M1
EXTAP	108	0	1
EXTAP	108	0	5
NMTAP	108	24	2
NMTAP	108	48	3
NMTAP	108	72	4
NMTAP	108	96	5
NMTAP	108	120	6
NMTAP	108	144	7
NMTAP	108	168	0
EXTAP	108	192	1
EXTAP	108	192	5
NMTAP	108	216	4
NMTAP	108	240	3
NMTAP	108	264	2
NMSTR	108	288	1
NMSI_	108	288	1	96	48	5
NMTAP	108	312	0
NMTAP	108	336	7
NMTAP	108	360	6
BXTAP	109	0	1
EXTAP	109	0	5
NMTAP	109	96	6
NMTAP	109	96	7
NMTAP	109	144	0
NMTAP	109	144	5
NMTAP	109	240	0
NMTAP	109	240	1
NMTAP	109	288	2
NMSTR	109	288	7
NMSCR	109	288	7	96	48	2
NMSTR	110	0	3
NMSI_	110	0	3	96	48	7
BRTAP	110	0	7
NMTAP	110	96	4
NMTAP	110	192	6
NMHLD	110	240	5	48
NMTAP	110	288	0
NMHLD	110	336	1	48
NMTAP	111	0	3
NMHLD	111	48	4	48
NMTAP	111	96	2
NMHLD	111	144	3	48
NMTAP	111	192	5
NMHLD	111	240	6	48
EXTAP	111	288	4
NMTAP	112	0	3
NMTAP	112	24	2
NMTAP	112	48	1
NMTAP	112	72	0
NMTAP	112	96	6
NMTAP	112	120	5
NMTAP	112	144	4
NMTAP	112	168	3
NMTAP	112	192	7
NMTAP	112	216	0
NMTAP	112	240	1
NMTAP	112	264	2
NMTAP	112	288	4
NMTAP	112	312	5
NMTAP	112	336	6
NMTAP	112	360	7
NMSTR	113	0	0
NMSI_	113	0	0	96	48	4
NMTAP	113	0	1
NMTAP	113	96	2
NMTAP	113	144	2
CNSCR	113	144	4	0	48	7
NMTAP	113	240	1
NMTAP	113	264	0
NMTAP	113	288	1
NMTAP	113	312	0
NMTAP	113	336	1
NMTAP	113	360	0
BRTAP	114	0	1
EXTAP	114	24	2
EXTAP	114	48	3
EXTAP	114	72	4
NMTAP	114	96	0
EXTAP	114	120	1
EXTAP	114	144	2
EXTAP	114	168	3
NMSTR	114	192	7
NMSI_	114	192	7	96	48	3
EXTAP	114	216	0
EXTAP	114	240	1
EXTAP	114	264	2
EXTAP	114	288	3
BXTAP	114	288	7
NMTAP	115	0	2
NMTAP	115	24	4
NMTAP	115	48	2
NMTAP	115	72	4
NMSTR	115	96	3
NMSCL	115	96	3	96	96	5
NMTAP	115	120	5
NMTAP	115	144	3
NMTAP	115	168	5
BRTAP	115	192	3
NMTAP	116	0	6
NMTAP	116	24	7
NMTAP	116	48	6
NMTAP	116	72	7
NMTAP	116	96	5
NMTAP	116	120	0
NMTAP	116	144	5
NMTAP	116	168	0
NMTAP	116	192	4
NMTAP	116	216	1
NMTAP	116	240	4
NMTAP	116	264	1
NMTAP	116	288	3
NMTAP	116	312	2
NMTAP	116	336	3
NMTAP	116	360	2
NMTTP	117	0	4	B	0	M1
NMTTP	117	0	4	E	1	M1
NMTTP	117	48	1	B	0	M1
NMTTP	117	48	2	E	1	M1
NMTTP	117	96	0	E	1	M1
NMTTP	117	96	7	B	0	M1
NMTHO	117	144	5	144	B	1	M1
NMTHO	117	144	6	144	E	1	M1
NMTTP	117	240	0	B	0	M1
NMTTP	117	252	1	B	0	M1
NMTTP	117	264	2	B	0	M1
NMTTP	117	276	3	B	0	M1
NMTTP	117	288	4	E	0	M1
NMSTR	118	0	6
NMSI_	118	0	6	96	48	2
NMTAP	118	48	6
NMSTR	118	96	7
NMSI_	118	96	7	96	48	3
NMTAP	118	144	7
NMSTR	118	192	0
NMSI_	118	192	0	96	48	4
NMTAP	118	240	0
NMSTR	118	288	1
NMSI_	118	288	1	96	48	5
NMTAP	118	336	1
BRTAP	119	0	7
NMTAP	119	96	6
NMTAP	119	120	3
NMTAP	119	144	5
NMTAP	119	168	4
NMSTR	119	192	7
NMSI_	119	192	7	96	48	3
NMTAP	119	216	2
NMTAP	119	240	0
NMTAP	119	264	1
BRTAP	119	288	7
BXSTR	120	0	2
NMSXR	120	0	2	96	288	7
BXSTR	120	0	4
NMSXL	120	0	4	96	288	7
CNSCL	121	0	7	0	960	7
CNSCR	121	0	7	0	960	7
NMSTR	123	288	7
NMSUR	123	288	7	96	48	3

T_REC_TAP	488
T_REC_BRK	32
T_REC_XTP	61
T_REC_BXX	9
T_REC_HLD	52
T_REC_XHO	6
T_REC_BHO	1
T_REC_BXH	4
T_REC_STR	128
T_REC_BST	4
T_REC_XST	2
T_REC_XBS	2
T_REC_TTP	64
T_REC_THO	5
T_REC_SLD	139
T_REC_BSL	5
T_REC_ALL	1002
T_NUM_TAP	743
T_NUM_BRK	57
T_NUM_HLD	63
T_NUM_SLD	139
T_NUM_ALL	1002
T_JUDGE_TAP	790
T_JUDGE_HLD	154
T_JUDGE_SLD	144
T_JUDGE_ALL	1088
TTM_EACHPAIRS	163
TTM_SCR_TAP	371500
TTM_SCR_BRK	148200
TTM_SCR_HLD	63000
TTM_SCR_SLD	208500
TTM_SCR_ALL	791200
TTM_SCR_S	761950
TTM_SCR_SS	785500
TTM_RAT_ACV	10072

