VERSION	0.00.00	1.05.00
FES_MODE	0
BPM_DEF	186.000	186.000	186.000	186.000
MET_DEF	4	4
RESOLUTION	384
CLK_DEF	384
COMPATIBLE_CODE	MA2

BPM	0	0	186.000
MET	0	0	4	4

EXTAP	1	0	3
EXTAP	1	0	5
EXTAP	1	96	2
EXTAP	1	96	4
EXTAP	1	192	3
EXTAP	1	192	5
EXTAP	1	288	2
EXTAP	1	288	6
NMTAP	2	0	1
NMTAP	2	48	1
NMTAP	2	96	3
NMTAP	2	144	3
NMTAP	2	192	2
NMTAP	2	288	1
NMTAP	2	288	4
NMTAP	3	0	6
NMTAP	3	48	6
NMTAP	3	96	4
NMTAP	3	144	4
NMTAP	3	192	5
NMTAP	3	288	3
NMTAP	3	288	6
NMTAP	4	0	2
NMTAP	4	48	2
NMTAP	4	96	3
NMTAP	4	144	3
NMHLD	4	192	1	96
NMSTR	4	288	3
NMSI_	4	288	3	96	96	0
CNSI_	5	96	0	0	96	4
CNSI_	5	192	4	0	96	7
NMHLD	6	0	6	96
NMTAP	6	96	4
NMTAP	6	192	1
NMTAP	6	240	1
NMTAP	6	288	3
NMHLD	6	336	2	96
NMTAP	7	48	3
NMHLD	7	144	5	96
NMTAP	7	240	4
NMTAP	7	288	4
NMTAP	8	0	6
NMTAP	8	0	7
NMTAP	8	96	4
NMTAP	8	96	5
NMTAP	8	192	2
NMTAP	8	192	3
NMSTR	8	288	0
NMSUR	8	288	0	96	240	5
NMSTR	8	288	1
NMSCR	8	288	1	96	240	4
NMHLD	10	0	6	96
NMTAP	10	96	0
NMTAP	10	144	0
NMHLD	10	288	1	96
NMTAP	11	0	7
NMTAP	11	48	7
NMTAP	11	192	2
NMTAP	11	192	6
NMTAP	11	240	2
NMTAP	11	240	6
NMTAP	12	0	1
NMTAP	12	96	1
NMTAP	12	192	2
NMTAP	12	192	4
NMTAP	12	288	2
NMTAP	12	288	4
NMTAP	13	0	6
NMTAP	13	96	6
NMTAP	13	192	3
NMTAP	13	192	5
NMTAP	13	288	3
NMTAP	13	288	5
NMTAP	14	0	2
NMTAP	14	96	2
NMTAP	14	192	1
NMTAP	14	192	7
NMTAP	14	288	1
NMTAP	14	288	7
NMTAP	15	0	5
NMTAP	15	96	5
NMTAP	15	192	0
NMTAP	15	192	6
NMTAP	15	288	0
NMTAP	15	288	6
NMTAP	16	0	5
NMTAP	16	96	4
NMTAP	16	192	3
NMTAP	16	192	5
NMTAP	16	288	3
NMTAP	16	288	5
NMTAP	17	0	2
NMTAP	17	96	3
NMTAP	17	192	2
NMTAP	17	192	4
NMTAP	17	288	2
NMTAP	17	288	4
NMTAP	18	0	5
NMTAP	18	96	6
NMTAP	18	192	7
NMTAP	18	288	0
NMTAP	19	0	1
NMTAP	19	96	2
NMTAP	19	192	3
NMTAP	19	192	4
NMTAP	19	240	3
NMTAP	19	240	4
NMTAP	19	336	6
NMHLD	20	0	6	96
NMTAP	20	96	4
NMTAP	20	192	1
NMTAP	20	240	1
NMTAP	20	288	3
NMHLD	21	0	5	96
NMTAP	21	96	4
NMHLD	21	192	2	96
NMTAP	21	288	3
NMTAP	21	336	3
NMTAP	22	0	2
NMTAP	22	96	1
NMTAP	22	96	4
NMTAP	22	144	1
NMTAP	22	144	4
NMTAP	22	240	2
NMTAP	22	240	5
NMHLD	22	336	3	96
NMHLD	22	336	6	96
NMTAP	23	96	4
NMTAP	23	96	5
NMTAP	23	192	2
NMTAP	23	192	3
NMTAP	23	288	4
NMTAP	23	288	5
NMTAP	24	0	6
NMHLD	24	48	6	96
NMTAP	24	144	4
NMTAP	24	192	4
NMTAP	24	288	1
NMHLD	24	336	1	96
NMTAP	25	48	3
NMTAP	25	96	3
NMTAP	25	192	2
NMTAP	25	192	4
NMTAP	25	288	2
NMTAP	25	288	4
EXSTR	26	0	5
NMSCR	26	0	5	96	96	0
NMSTR	26	192	1
NMSUR	26	192	1	96	288	3
NMTAP	27	192	5
NMTAP	27	288	4
NMTAP	28	0	3
NMSTR	28	96	3
NMSCL	28	96	3	96	96	0
NMHLD	29	0	7	192
NMHLD	29	192	5	192
NMHLD	30	0	4	192
NMTAP	30	192	3
NMTAP	30	288	3
NMTAP	31	0	2
NMTAP	31	0	4
NMTAP	31	192	2
NMTAP	31	288	3
NMTAP	32	0	4
NMSTR	32	96	4
NMSCR	32	96	4	96	96	7
NMHLD	33	0	0	192
NMHLD	33	192	2	192
NMHLD	34	0	3	192
NMTAP	34	192	4
NMTAP	34	288	4
NMTAP	35	0	3
NMTAP	35	0	5
NMTAP	35	192	2
NMTAP	35	192	6
BRTAP	35	288	2
BRTAP	35	288	6
NMHLD	36	0	1	96
NMTAP	36	96	3
NMTAP	36	192	5
NMTAP	36	240	5
NMTAP	36	288	4
NMHLD	37	0	6	96
NMTAP	37	96	4
NMTAP	37	192	2
NMTAP	37	240	2
NMTAP	37	288	3
NMHLD	38	0	1	96
NMTAP	38	96	3
NMTAP	38	192	6
NMTAP	38	240	6
NMTAP	38	288	4
NMTAP	38	336	4
NMTAP	39	0	5
NMTAP	39	96	4
NMTAP	39	96	5
NMTAP	39	192	2
NMTAP	39	192	3
NMTAP	39	288	0
NMTAP	39	288	1
NMTAP	40	0	0
NMTAP	40	0	1
NMTAP	40	96	2
NMTAP	40	96	3
NMTAP	40	192	4
NMTAP	40	192	5
NMTAP	40	288	6
NMTAP	40	288	7
EXTAP	41	0	0
EXTAP	41	0	1
EXTAP	41	96	2
EXTAP	41	96	3
EXTAP	41	192	4
EXTAP	41	192	5
EXTAP	41	288	6
EXTAP	41	288	7
EXTAP	42	0	0
EXTAP	42	0	1
EXSTR	42	96	0
NMSI_	42	96	0	96	96	5
EXSTR	42	96	1
NMSI_	42	96	1	96	96	4
BRTAP	43	0	3
BRTAP	43	0	6
NMTAP	43	192	2
NMTAP	43	192	3
NMTAP	43	288	0
NMTAP	43	288	1
NMSTR	43	336	0
NMSI_	43	336	0	96	48	4
NMSTR	43	336	1
NMSI_	43	336	1	96	48	4
NMTAP	44	144	6
NMHLD	44	192	6	96
NMTAP	44	288	7
NMTAP	44	336	7
NMTAP	45	48	4
NMTAP	45	48	5
NMTAP	45	96	4
NMTAP	45	96	5
NMTAP	45	192	6
NMTAP	45	240	6
NMTAP	45	288	4
NMHLD	45	336	5	96
NMHLD	46	48	7	96
NMHLD	46	144	0	96
NMHLD	46	240	2	96
NMTAP	46	336	4
NMTAP	47	48	1
NMTAP	47	48	5
NMTAP	47	96	1
NMTAP	47	96	5
NMSTR	47	192	6
NMSI_	47	192	6	96	48	2
NMSTR	48	0	0
NMSI_	48	0	0	96	48	4
NMSTR	48	192	7
NMSI_	48	192	7	96	48	3
NMSTR	49	0	1
NMSI_	49	0	1	96	48	5
NMTAP	49	192	7
NMSTR	49	288	7
NMSCL	49	288	7	96	192	2
EXTAP	50	288	0
EXTAP	50	288	7
EXTAP	50	336	0
EXTAP	50	336	7
EXTAP	51	48	1
EXTAP	51	48	6
EXTAP	51	96	1
EXTAP	51	96	6
NMTAP	51	192	0
NMTAP	51	192	5
NMTAP	51	288	6
NMTAP	51	288	7
NMSTR	51	336	6
NMSI_	51	336	6	96	48	3
NMSTR	51	336	7
NMSI_	51	336	7	96	48	3
NMTAP	52	144	1
NMHLD	52	192	1	96
NMTAP	52	288	0
NMTAP	52	336	0
NMTAP	53	48	2
NMTAP	53	48	3
NMTAP	53	96	2
NMTAP	53	96	3
NMTAP	53	192	1
NMTAP	53	240	1
NMTAP	53	288	3
NMHLD	53	336	2	96
NMHLD	54	48	0	96
NMHLD	54	144	7	96
NMTAP	54	240	5
NMSTR	54	336	4
NMSI_	54	336	4	96	72	1
NMSTR	54	336	5
NMSI_	54	336	5	96	72	0
NMTAP	55	288	1
NMTAP	55	336	1
NMTAP	56	0	3
NMTAP	56	96	2
NMTAP	56	96	4
NMTAP	56	192	6
NMTAP	56	240	6
NMTAP	56	288	4
NMTAP	57	0	3
NMTAP	57	0	5
NMHLD	57	96	2	96
NMHLD	57	192	0	96
NMHLD	57	288	7	96
NMHLD	58	0	5	96
NMTAP	58	96	4
NMTAP	58	144	4
NMTAP	58	240	6
NMTAP	58	240	7
NMTAP	58	288	6
NMTAP	58	288	7
NMTAP	59	0	0
NMTAP	59	0	1
NMTAP	59	96	2
NMHLD	59	192	3	1248
NMTAP	59	288	4
EXSTR	60	0	5
NMSI_	60	0	5	96	288	2
CNSI_	61	0	2	0	288	7
CNSI_	61	288	7	0	288	4
NMTAP	63	0	3
NMTAP	63	96	3
NMTAP	63	192	3
NMTAP	63	288	3
NMTAP	64	0	4
NMTAP	64	0	6
NMTAP	64	96	4
NMTAP	64	96	6
NMTAP	64	192	4
NMTAP	64	192	5
NMTAP	64	288	3
NMTAP	64	288	4
NMTAP	65	0	1
NMTAP	65	0	3
NMTAP	65	96	1
NMTAP	65	96	3
NMTAP	65	192	2
NMTAP	65	192	3
NMTAP	65	288	3
NMTAP	65	288	4
NMTAP	66	0	4
NMTAP	66	0	6
NMTAP	66	96	4
NMTAP	66	96	6
NMTAP	66	192	4
NMTAP	66	192	5
NMTAP	66	288	3
NMTAP	66	288	4
NMTAP	67	0	2
NMHLD	67	96	1	96
BRTAP	67	192	3
NMTAP	68	0	3
NMHLD	68	0	5	768
NMTTP	68	192	6	E	0	M1
NMTTP	68	288	7	E	0	M1
NMTTP	69	0	0	E	0	M1
NMTTP	69	96	1	E	0	M1
NMTTP	69	192	2	E	0	M1
NMHLD	70	0	2	768
NMTTP	70	192	2	E	0	M1
NMTTP	70	288	1	E	0	M1
NMTTP	71	0	0	E	0	M1
NMTTP	71	96	7	E	0	M1
NMTTP	71	192	6	E	0	M1
NMHLD	72	0	4	768
NMTTP	72	192	5	E	0	M1
NMTTP	72	288	4	E	0	M1
NMTTP	73	0	3	E	0	M1
NMTTP	73	96	2	E	0	M1
NMTTP	73	192	1	E	0	M1
NMSTR	74	0	1
NMSI_	74	0	1	96	96	4
NMSTR	74	192	5
NMSI_	74	192	5	96	96	0
NMSTR	75	0	2
NMSCR	75	0	2	96	96	5
NMTAP	75	192	7
NMTAP	75	288	7
NMSTR	76	0	6
NMSI_	76	0	6	96	96	3
NMSTR	76	192	2
NMSI_	76	192	2	96	96	7
NMHLD	77	0	5	192
BRTAP	77	192	0
NMSTR	77	288	0
NMSCL	77	288	0	96	96	6
CNSI_	78	96	6	0	96	2
CNSCR	78	192	2	0	96	4
NMTAP	79	0	4
NMTAP	79	0	6
NMTAP	79	48	4
NMTAP	79	48	6
NMTAP	79	144	1
NMTAP	79	144	3
NMTAP	79	192	1
NMTAP	79	192	3
NMSTR	79	288	0
NMSCR	79	288	0	96	96	3
NMSTR	79	288	7
NMSCL	79	288	7	96	96	4
NMSTR	80	288	0
NMSSL	80	288	0	96	144	4
NMTAP	81	288	3
NMTAP	81	288	5
NMTAP	81	336	3
NMTAP	81	336	5
NMTAP	82	48	4
NMTAP	82	48	6
NMTAP	82	144	1
NMTAP	82	144	3
NMTAP	82	240	5
NMTAP	82	240	7
NMTAP	82	336	0
NMTAP	82	336	2
NMTAP	83	48	6
NMHLD	83	96	6	96
NMTAP	83	192	4
BRTAP	83	288	3
BRTAP	83	288	5
NMSTR	84	0	7
NMSI_	84	0	7	96	48	3
NMSTR	84	192	0
NMSI_	84	192	0	96	48	4
NMSTR	85	0	5
NMSI_	85	0	5	96	48	2
NMTAP	85	192	0
NMSTR	85	288	0
NMSCR	85	288	0	96	192	5
EXTAP	86	288	0
EXTAP	86	288	7
EXTAP	86	336	0
EXTAP	86	336	7
EXTAP	87	48	1
EXTAP	87	48	6
EXTAP	87	96	1
EXTAP	87	96	6
NMTAP	87	192	2
NMTAP	87	192	7
NMTAP	87	288	0
NMTAP	87	288	1
NMSTR	87	336	0
NMSI_	87	336	0	96	48	5
NMSTR	87	336	1
NMSI_	87	336	1	96	48	4
NMTAP	88	144	6
NMHLD	88	192	6	96
NMTAP	88	288	7
NMTAP	88	336	7
NMTAP	89	48	4
NMTAP	89	48	5
NMTAP	89	96	4
NMTAP	89	96	5
NMTAP	89	192	6
NMTAP	89	240	6
NMTAP	89	288	4
NMHLD	89	336	5	96
NMHLD	90	48	7	96
NMHLD	90	144	0	96
NMTAP	90	240	2
NMSTR	90	336	2
NMSI_	90	336	2	96	72	7
NMSTR	90	336	3
NMSI_	90	336	3	96	72	6
NMTAP	91	288	6
NMTAP	91	336	6
NMTAP	92	0	4
NMTAP	92	96	3
NMTAP	92	96	5
NMTAP	92	192	1
NMTAP	92	240	1
NMTAP	92	288	3
NMTAP	93	0	2
NMTAP	93	0	4
NMHLD	93	96	5	96
NMHLD	93	192	7	96
NMHLD	93	288	0	96
NMHLD	94	0	2	96
NMTAP	94	96	3
NMTAP	94	144	3
NMTAP	94	240	4
NMTAP	94	240	5
NMTAP	94	288	4
NMTAP	94	288	5
NMTAP	95	0	1
NMTAP	95	0	7
NMSTR	95	96	1
NMSCR	95	96	1	96	96	4
NMSTR	95	96	7
NMSCL	95	96	7	96	96	4
NMTAP	96	0	3
NMTAP	96	0	5
NMTAP	96	96	3
NMTAP	96	96	5
NMTAP	96	192	2
NMTAP	96	192	4
NMTAP	96	288	2
NMTAP	96	288	4
NMTAP	97	0	4
NMTAP	97	0	6
NMTAP	97	96	4
NMTAP	97	96	6
NMTAP	97	192	1
NMTAP	97	192	3
NMTAP	97	288	1
NMTAP	97	288	3
NMTAP	98	0	6
NMTAP	98	0	7
NMTAP	98	96	6
NMTAP	98	96	7
NMTAP	98	192	0
NMTAP	98	192	1
NMTAP	98	288	0
NMTAP	98	288	1
NMTAP	99	0	2
NMTAP	99	0	3
NMTAP	99	96	4
NMTAP	99	96	5
NMTAP	99	192	6
NMTAP	99	192	7
NMTAP	99	288	0
NMTAP	99	288	1
NMTAP	100	0	2
NMTAP	100	0	3
NMTAP	100	48	2
NMTAP	100	48	3
NMSTR	100	96	2
NMSCL	100	96	2	96	96	7
NMTAP	100	96	3
NMTAP	101	0	4
NMTAP	101	0	5
NMTAP	101	48	4
NMTAP	101	48	5
NMTAP	101	96	4
NMSTR	101	96	5
NMSCR	101	96	5	96	96	0
BRTAP	102	0	2
BRTAP	102	0	4
NMTAP	102	96	5
NMTAP	102	144	5
NMTAP	102	192	4
NMTAP	102	240	4
NMTAP	102	288	6
NMTAP	102	336	6
NMTAP	103	0	2
NMTAP	103	48	2
NMTAP	103	96	3
NMTAP	103	144	3
NMTAP	103	192	1
NMTAP	103	240	1
NMSTR	103	288	7
NMSCL	103	288	7	96	240	0
CNSLR	104	240	0	0	144	4
CNSI_	105	0	4	0	96	6
BXTAP	105	288	0
BXTAP	105	288	7
NMHLD	106	0	6	96
NMTAP	106	96	4
NMHLD	106	192	1	96
NMTAP	106	288	3
NMHLD	107	0	5	96
NMTAP	107	96	7
NMHLD	107	192	2	96
NMTAP	107	288	0
NMTAP	108	0	6
NMTAP	108	48	6
NMTAP	108	96	4
NMTAP	108	144	5
NMTAP	108	192	2
NMTAP	108	240	2
NMSTR	108	288	3
NMSI_	108	288	3	96	96	7
NMSTR	109	96	1
NMSI_	109	96	1	96	96	5
NMTAP	109	288	7
NMTAP	110	0	4
NMTAP	110	0	6
NMTAP	110	96	5
NMTAP	110	192	1
NMTAP	110	240	1
NMTAP	110	288	3
NMHLD	110	336	2	96
NMHLD	111	48	0	96
NMHLD	111	144	7	96
NMTAP	111	240	5
NMTAP	111	288	5
NMTAP	112	0	4
NMTAP	112	0	5
NMTAP	112	96	6
NMTAP	112	96	7
NMTAP	112	192	0
NMTAP	112	192	1
NMTAP	112	288	2
NMTAP	112	288	3
NMTAP	113	0	4
NMTAP	113	0	5
NMSTR	113	96	6
NMSCL	113	96	6	96	96	3
NMSTR	113	96	7
NMSUL	113	96	7	96	96	2
NMSTR	114	0	1
NMSI_	114	0	1	96	48	3
NMSTR	114	96	7
NMSI_	114	96	7	96	48	5
NMSTR	114	192	0
NMSI_	114	192	0	96	48	4
NMTAP	114	288	7
NMTAP	115	0	6
NMTAP	115	48	6
NMTAP	115	96	3
NMTAP	115	96	5
NMTAP	115	192	1
NMTAP	115	240	1
NMTAP	115	288	2
NMTAP	115	288	4
NMSTR	116	0	6
NMSI_	116	0	6	96	48	4
NMSTR	116	96	0
NMSI_	116	96	0	96	48	2
NMSTR	116	192	7
NMSI_	116	192	7	96	48	3
NMTAP	116	288	0
NMTAP	117	0	1
NMTAP	117	48	1
NMTAP	117	96	2
NMTAP	117	96	4
NMTAP	117	192	6
NMTAP	117	240	6
NMTAP	117	288	3
NMTAP	117	288	5
NMTAP	118	0	1
NMTAP	118	0	3
NMTAP	118	96	0
NMTAP	118	96	7
NMTAP	118	192	4
NMTAP	118	192	6
NMTAP	118	288	1
NMTAP	118	288	3
NMTAP	119	0	0
NMTAP	119	0	7
NMTAP	119	96	4
NMTAP	119	96	6
NMTAP	119	192	1
NMTAP	119	192	3
NMSTR	119	288	0
NMSCR	119	288	0	96	1536	7
NMTTP	120	0	0	C	1	M1

T_REC_TAP	418
T_REC_BRK	10
T_REC_XTP	34
T_REC_BXX	2
T_REC_HLD	57
T_REC_XHO	0
T_REC_BHO	0
T_REC_BXH	0
T_REC_STR	50
T_REC_BST	0
T_REC_XST	4
T_REC_XBS	0
T_REC_TTP	16
T_REC_THO	0
T_REC_SLD	54
T_REC_BSL	0
T_REC_ALL	645
T_NUM_TAP	522
T_NUM_BRK	12
T_NUM_HLD	57
T_NUM_SLD	54
T_NUM_ALL	645
T_JUDGE_TAP	534
T_JUDGE_HLD	194
T_JUDGE_SLD	54
T_JUDGE_ALL	782
TTM_EACHPAIRS	158
TTM_SCR_TAP	261000
TTM_SCR_BRK	31200
TTM_SCR_HLD	57000
TTM_SCR_SLD	81000
TTM_SCR_ALL	430200
TTM_SCR_S	416150
TTM_SCR_SS	429000
TTM_RAT_ACV	10027

