VERSION	0.00.00	1.05.00
FES_MODE	0
BPM_DEF	186.000	186.000	186.000	186.000
MET_DEF	4	4
RESOLUTION	384
CLK_DEF	384
COMPATIBLE_CODE	MA2

BPM	0	0	186.000
MET	0	0	4	4

NMTAP	2	0	0
NMTAP	2	96	0
NMTAP	2	192	0
NMTAP	3	0	1
NMTAP	3	96	1
NMTAP	3	192	1
NMTAP	4	0	2
NMTAP	4	96	2
NMTAP	4	192	2
NMTAP	5	0	3
NMTAP	5	0	4
NMTAP	6	0	4
NMTAP	6	96	4
NMTAP	6	192	4
NMTAP	7	0	5
NMTAP	7	96	5
NMTAP	7	192	5
NMTAP	8	0	6
NMTAP	8	96	6
NMTAP	8	192	6
NMTAP	9	0	0
NMTAP	9	0	7
NMHLD	10	0	0	384
NMHLD	10	0	7	384
NMTAP	12	0	7
NMTAP	12	96	7
NMTAP	12	192	6
NMTAP	13	0	5
NMTAP	13	96	5
NMTAP	13	192	4
NMTAP	14	0	3
NMTAP	14	96	3
NMTAP	14	192	2
NMTAP	15	0	0
NMTAP	15	0	1
NMTAP	15	192	0
NMTAP	15	192	1
NMTAP	16	0	0
NMTAP	16	96	0
NMTAP	16	192	1
NMTAP	17	0	2
NMTAP	17	96	2
NMTAP	17	192	3
NMTAP	18	0	4
NMTAP	18	96	4
NMTAP	18	192	5
NMTAP	19	0	6
NMTAP	19	0	7
NMTAP	19	192	6
NMTAP	19	192	7
NMTAP	20	0	6
NMTAP	20	96	6
NMTAP	20	192	6
NMTAP	20	192	7
NMTAP	21	0	5
NMTAP	21	96	5
NMTAP	21	192	4
NMTAP	21	192	5
NMTAP	22	0	3
NMTAP	22	96	3
NMTAP	22	192	2
NMTAP	22	192	3
NMTAP	23	0	0
NMTAP	23	0	1
NMTAP	23	96	0
NMTAP	23	96	1
NMTAP	23	192	0
NMTAP	23	192	1
NMTAP	24	0	1
NMTAP	24	96	1
NMTAP	24	192	0
NMTAP	24	192	1
NMTAP	25	0	2
NMTAP	25	96	2
NMTAP	25	192	2
NMTAP	25	192	3
NMTAP	26	0	4
NMTAP	26	96	4
NMTAP	26	192	4
NMTAP	26	192	5
NMTAP	27	0	6
NMTAP	27	0	7
NMTAP	27	96	6
NMTAP	27	96	7
NMTAP	27	192	6
NMTAP	27	192	7
NMSTR	28	0	6
NMSI_	28	0	6	96	288	3
NMTAP	29	192	2
NMSTR	30	0	1
NMSI_	30	0	1	96	288	4
NMTAP	31	192	5
NMSTR	32	0	5
NMSI_	32	0	5	96	288	0
NMTAP	33	192	1
NMSTR	34	0	2
NMSI_	34	0	2	96	288	7
NMTAP	35	192	6
NMHLD	36	0	5	192
NMHLD	36	192	4	192
NMHLD	37	0	3	192
NMTAP	37	192	2
NMHLD	38	0	2	192
NMHLD	38	192	3	192
NMHLD	39	0	4	192
NMTAP	39	192	5
NMHLD	40	0	6	192
NMHLD	40	192	5	192
NMHLD	41	0	4	192
NMTAP	41	192	3
NMHLD	42	0	1	192
NMHLD	42	192	2	192
NMTAP	43	0	3
NMTAP	43	192	3
NMTAP	43	192	4
NMTAP	44	0	2
NMTAP	44	96	2
NMTAP	44	192	1
NMTAP	44	288	1
NMTAP	45	0	0
NMTAP	45	96	0
NMTAP	45	192	6
NMTAP	45	192	7
NMTAP	46	0	5
NMTAP	46	96	5
NMTAP	46	192	6
NMTAP	46	288	6
NMTAP	47	0	7
NMTAP	47	96	7
NMTAP	47	192	0
NMTAP	47	192	1
NMTAP	48	0	1
NMTAP	48	96	1
NMTAP	48	192	2
NMTAP	48	288	2
NMTAP	49	0	3
NMTAP	49	96	3
NMTAP	49	192	4
NMTAP	49	192	5
NMTAP	50	0	6
NMTAP	50	96	6
NMTAP	50	192	5
NMTAP	50	288	5
NMTAP	51	0	4
NMTAP	51	96	4
BXTAP	51	192	2
BXTAP	51	192	3
NMTAP	52	0	2
NMTAP	52	96	2
NMTAP	52	192	1
NMTAP	52	288	1
NMTAP	53	0	0
NMTAP	53	96	0
NMTAP	53	192	6
NMTAP	53	192	7
NMTAP	53	288	6
NMTAP	53	288	7
NMTAP	54	0	5
NMTAP	54	96	5
NMTAP	54	192	6
NMTAP	54	288	6
NMTAP	55	0	7
NMTAP	55	96	7
NMTAP	55	192	0
NMTAP	55	192	1
NMTAP	56	0	1
NMTAP	56	96	1
NMTAP	56	192	2
NMTAP	56	288	2
NMTAP	57	0	3
NMTAP	57	96	3
NMTAP	57	192	4
NMTAP	57	192	5
NMTAP	57	288	4
NMTAP	57	288	5
NMTAP	58	0	6
NMTAP	58	96	6
NMTAP	58	192	5
NMTAP	58	288	5
NMTAP	59	0	4
NMTAP	59	96	4
NMTAP	59	192	2
NMTAP	59	192	3
NMSTR	60	0	3
NMSXR	60	0	3	96	1056	0
NMSTR	60	0	4
NMSXL	60	0	4	96	1056	7
NMTTP	64	0	1	B	0	L1
NMTTP	64	96	2	B	0	L1
NMTTP	64	192	3	B	0	L1
NMTTP	65	0	6	B	0	L1
NMTTP	65	96	5	B	0	L1
NMTTP	65	192	4	B	0	L1
NMTTP	66	0	2	B	0	L1
NMTTP	66	96	3	B	0	L1
NMTTP	66	192	4	B	0	L1
NMTTP	66	288	5	B	0	L1
NMTTP	67	0	0	C	0	L1
NMTAP	68	0	6
NMTAP	68	96	6
NMTAP	68	192	6
NMTAP	68	288	6
NMTAP	69	0	7
NMTAP	69	96	7
NMTAP	69	192	7
NMTAP	69	288	7
NMTAP	70	0	0
NMTAP	70	96	0
NMTAP	70	192	0
NMTAP	70	288	0
NMTAP	71	0	0
NMTAP	71	0	1
NMTAP	72	0	2
NMTAP	72	96	2
NMTAP	72	192	2
NMTAP	72	288	2
NMTAP	73	0	1
NMTAP	73	96	1
NMTAP	73	192	1
NMTAP	73	288	1
NMTAP	74	0	0
NMTAP	74	96	0
NMTAP	74	192	0
NMTAP	74	288	0
NMTAP	75	0	6
NMTAP	75	0	7
NMTAP	76	0	6
NMTAP	76	0	7
NMTAP	76	96	6
NMTAP	76	96	7
NMTAP	76	192	6
NMTAP	76	192	7
NMTAP	77	0	0
NMTAP	77	0	1
NMTAP	77	96	0
NMTAP	77	96	1
NMTAP	77	192	0
NMTAP	77	192	1
NMSTR	78	0	0
NMSI_	78	0	0	96	288	3
NMSTR	78	0	7
NMSI_	78	0	7	96	288	4
EXTAP	80	0	3
EXTAP	80	0	5
EXTAP	81	0	2
EXTAP	81	0	4
NMTAP	82	0	3
NMTAP	82	96	3
NMTAP	82	192	4
NMTAP	82	288	4
NMTAP	83	0	3
NMTAP	83	0	4
NMTAP	83	192	3
NMTAP	83	192	4
NMTAP	84	0	4
NMTAP	84	96	5
NMTAP	84	192	6
NMTAP	84	288	7
NMTAP	85	0	0
NMTAP	85	96	1
NMTAP	85	192	2
NMTAP	85	192	3
NMTAP	86	0	3
NMTAP	86	96	2
NMTAP	86	192	1
NMTAP	86	288	0
NMTAP	87	0	7
NMTAP	87	96	6
BRTAP	87	192	4
BRTAP	87	192	5
NMTAP	88	0	5
NMTAP	88	96	5
NMTAP	88	192	6
NMTAP	88	192	7
NMTAP	88	288	6
NMTAP	88	288	7
NMTAP	89	0	0
NMTAP	89	96	0
NMTAP	89	192	0
NMTAP	89	192	1
NMTAP	90	0	2
NMTAP	90	96	2
NMTAP	90	192	0
NMTAP	90	192	1
NMTAP	90	288	0
NMTAP	90	288	1
NMTAP	91	0	7
NMTAP	91	96	7
NMTAP	91	192	6
NMTAP	91	192	7
NMTAP	92	0	6
NMTAP	92	96	6
NMTAP	92	192	4
NMTAP	92	192	5
NMTAP	92	288	4
NMTAP	92	288	5
NMTAP	93	0	3
NMTAP	93	96	3
NMTAP	93	192	2
NMTAP	93	192	3
NMTAP	94	0	1
NMTAP	94	96	1
NMTAP	94	192	2
NMTAP	94	192	3
NMTAP	94	288	2
NMTAP	94	288	3
NMTAP	95	0	4
NMTAP	95	96	4
NMTAP	95	192	4
NMTAP	95	192	5
NMTAP	96	0	6
NMTAP	96	0	7
NMTAP	96	96	6
NMTAP	96	96	7
NMTAP	96	192	5
NMTAP	96	288	5
NMTAP	97	0	3
NMTAP	97	0	4
NMTAP	97	96	3
NMTAP	97	96	4
NMTAP	97	192	2
NMTAP	97	288	2
NMTAP	98	0	0
NMTAP	98	0	1
NMTAP	98	96	0
NMTAP	98	96	1
NMTAP	98	192	2
NMTAP	98	288	2
NMTAP	99	0	3
NMTAP	99	0	4
NMTAP	99	96	3
NMTAP	99	96	4
NMTAP	99	192	3
NMTAP	99	192	4
NMHLD	100	0	5	192
NMTAP	100	192	4
NMHLD	101	0	2	192
NMTAP	101	192	3
NMTAP	102	0	0
NMTAP	102	0	1
NMTAP	102	96	0
NMTAP	102	96	1
NMTAP	102	192	0
NMTAP	102	192	1
NMTAP	103	0	6
NMTAP	103	0	7
NMTAP	103	96	6
NMTAP	103	96	7
NMTAP	103	192	6
NMTAP	103	192	7
NMSTR	104	0	0
NMSI_	104	0	0	96	288	3
NMSTR	104	0	7
NMSI_	104	0	7	96	288	4
NMTAP	106	0	4
NMTAP	106	96	4
NMTAP	106	192	5
NMTAP	106	288	5
NMTAP	107	0	6
NMTAP	107	96	6
NMTAP	107	192	7
NMTAP	107	288	7
NMTAP	108	0	0
NMTAP	108	96	0
NMTAP	108	192	1
NMTAP	108	288	1
NMTAP	109	0	2
NMTAP	109	96	2
NMTAP	109	192	3
NMTAP	109	192	4
NMTAP	110	0	2
NMTAP	110	96	2
NMTAP	110	192	2
NMTAP	110	288	2
NMTAP	110	288	3
NMTAP	111	0	1
NMTAP	111	96	1
NMTAP	111	192	1
NMTAP	111	288	0
NMTAP	111	288	1
NMTAP	112	0	7
NMTAP	112	96	7
NMTAP	112	192	7
NMTAP	112	288	6
NMTAP	112	288	7
NMTAP	113	0	4
NMTAP	113	0	5
NMTAP	113	96	4
NMTAP	113	96	5
NMTAP	113	192	4
NMTAP	113	192	5
NMTAP	114	0	5
NMTAP	114	96	5
NMTAP	114	192	5
NMTAP	114	288	4
NMTAP	114	288	5
NMTAP	115	0	6
NMTAP	115	96	6
NMTAP	115	192	6
NMTAP	115	288	6
NMTAP	115	288	7
NMTAP	116	0	0
NMTAP	116	96	0
NMTAP	116	192	0
NMTAP	116	288	0
NMTAP	116	288	1
NMTAP	117	0	2
NMTAP	117	0	3
NMTTP	118	0	3	E	0	L1
NMTTP	118	96	2	E	0	L1
NMTTP	118	192	1	E	0	L1
NMTTP	118	288	0	E	0	L1
NMTTP	119	0	7	E	0	L1
NMTTP	119	96	6	E	0	L1
NMTTP	119	192	5	E	0	L1
NMTTP	119	288	4	E	0	L1
NMTHO	120	0	0	1536	C	0	L1

T_REC_TAP	354
T_REC_BRK	2
T_REC_XTP	4
T_REC_BXX	2
T_REC_HLD	15
T_REC_XHO	0
T_REC_BHO	0
T_REC_BXH	0
T_REC_STR	10
T_REC_BST	0
T_REC_XST	0
T_REC_XBS	0
T_REC_TTP	19
T_REC_THO	1
T_REC_SLD	10
T_REC_BSL	0
T_REC_ALL	417
T_NUM_TAP	387
T_NUM_BRK	4
T_NUM_HLD	16
T_NUM_SLD	10
T_NUM_ALL	417
T_JUDGE_TAP	391
T_JUDGE_HLD	100
T_JUDGE_SLD	10
T_JUDGE_ALL	501
TTM_EACHPAIRS	85
TTM_SCR_TAP	193500
TTM_SCR_BRK	10400
TTM_SCR_HLD	16000
TTM_SCR_SLD	15000
TTM_SCR_ALL	234900
TTM_SCR_S	227500
TTM_SCR_SS	234500
TTM_RAT_ACV	10017

