VERSION	0.00.00	1.05.00
FES_MODE	0
BPM_DEF	186.000	186.000	186.000	186.000
MET_DEF	4	4
RESOLUTION	384
CLK_DEF	384
COMPATIBLE_CODE	MA2

BPM	0	0	186.000
MET	0	0	4	4

EXTAP	2	0	0
NMTAP	2	192	0
NMTAP	3	0	1
NMTAP	4	0	2
NMTAP	4	192	2
NMTAP	5	0	3
NMTAP	5	0	4
NMTAP	6	0	4
NMTAP	6	192	4
NMTAP	7	0	5
NMTAP	8	0	6
NMTAP	8	192	6
NMTAP	9	0	0
NMTAP	9	0	7
EXHLD	10	0	0	384
EXHLD	10	0	7	384
NMTAP	12	0	7
NMTAP	12	192	7
NMTAP	13	0	6
NMTAP	13	192	6
NMTAP	14	0	5
NMTAP	15	0	4
NMTAP	15	0	5
NMTAP	16	0	3
NMTAP	16	192	3
NMTAP	17	0	2
NMTAP	17	192	2
NMTAP	18	0	1
NMTAP	19	0	0
NMTAP	19	0	1
NMHLD	20	0	0	192
NMHLD	20	0	1	192
NMTAP	21	0	0
NMTAP	21	0	1
NMHLD	22	0	2	192
NMHLD	22	0	3	192
NMTAP	23	0	2
NMTAP	23	0	3
NMHLD	24	0	4	192
NMHLD	24	0	5	192
NMTAP	25	0	4
NMTAP	25	0	5
NMHLD	26	0	6	192
NMHLD	26	0	7	192
NMTAP	27	0	6
NMTAP	27	0	7
NMTAP	28	0	6
NMTAP	28	0	7
NMTAP	28	192	6
NMTAP	28	192	7
NMTAP	29	0	6
NMTAP	29	0	7
NMTAP	30	0	4
NMTAP	30	0	5
NMTAP	30	192	4
NMTAP	30	192	5
NMTAP	31	0	4
NMTAP	31	0	5
NMTAP	32	0	2
NMTAP	32	0	3
NMTAP	32	192	2
NMTAP	32	192	3
NMTAP	33	0	2
NMTAP	33	0	3
NMTAP	34	0	0
NMTAP	34	0	1
NMTAP	34	192	0
NMTAP	34	192	1
NMTAP	35	0	0
NMTAP	35	0	1
NMTTP	36	0	1	E	0	L1
NMTTP	37	0	2	E	0	L1
NMTTP	38	0	3	E	0	L1
NMTTP	39	0	4	E	0	L1
NMTTP	40	0	5	E	0	L1
NMTTP	41	0	6	E	0	L1
NMTTP	42	0	7	E	0	L1
NMTTP	43	0	0	C	1	L1
EXTAP	44	0	7
NMTAP	44	192	7
NMTAP	45	0	6
NMTAP	45	96	6
NMTAP	45	192	6
NMTAP	46	0	5
NMTAP	46	192	5
NMTAP	47	0	4
NMTAP	47	96	4
NMTAP	47	192	4
NMTAP	48	0	3
NMTAP	48	192	3
NMTAP	49	0	2
NMTAP	49	96	2
NMTAP	49	192	2
NMTAP	50	0	1
NMTAP	50	192	1
EXTAP	51	0	0
EXTAP	51	0	7
EXTAP	52	0	0
NMTAP	52	192	0
NMTAP	53	0	1
NMTAP	53	96	1
NMTAP	53	192	1
NMTAP	54	0	2
NMTAP	54	192	2
NMTAP	55	0	3
NMTAP	55	96	3
NMTAP	55	192	3
NMTAP	56	0	4
NMTAP	56	192	4
NMTAP	57	0	5
NMTAP	57	96	5
NMTAP	57	192	5
NMTAP	58	0	6
NMTAP	58	192	6
EXTAP	59	0	0
EXTAP	59	0	7
NMSTR	60	0	7
NMSI_	60	0	7	96	288	3
NMSTR	62	0	0
NMSI_	62	0	0	96	288	4
NMSTR	64	0	6
NMSI_	64	0	6	96	288	2
NMSTR	66	0	1
NMSI_	66	0	1	96	288	5
NMTTP	68	0	7	E	0	L1
NMTTP	69	0	6	E	0	L1
NMTTP	70	0	5	E	0	L1
NMTTP	71	0	4	E	0	L1
NMTTP	72	0	3	E	0	L1
NMTTP	73	0	2	E	0	L1
NMTTP	74	0	1	E	0	L1
NMTTP	75	0	0	E	0	L1
NMTTP	76	0	0	B	0	L1
NMTTP	76	0	7	B	0	L1
NMTTP	77	0	1	B	0	L1
NMTTP	77	0	6	B	0	L1
NMTTP	78	0	0	C	1	L1
EXHLD	80	0	0	384
EXHLD	80	0	7	384
EXTAP	82	0	0
EXTAP	82	0	7
EXTAP	82	192	0
EXTAP	82	192	7
EXTAP	83	0	0
EXTAP	83	0	7
BRTAP	84	0	0
NMTAP	84	96	0
NMTAP	84	192	0
NMTAP	85	0	1
NMTAP	85	192	0
NMTAP	85	192	1
NMTAP	86	0	7
NMTAP	86	96	7
NMTAP	86	192	7
NMTAP	87	0	6
NMTAP	87	192	6
NMTAP	87	192	7
NMTAP	88	0	0
NMTAP	88	96	0
NMTAP	88	192	0
NMTAP	89	0	1
NMTAP	89	192	1
NMTAP	90	0	2
NMTAP	90	96	2
NMTAP	90	192	2
NMTAP	91	0	3
NMTAP	91	0	4
NMTAP	91	192	3
NMTAP	91	192	4
NMTAP	92	0	4
NMTAP	92	96	4
NMTAP	92	192	4
NMTAP	93	0	5
NMTAP	93	192	5
NMTAP	94	0	6
NMTAP	94	96	6
NMTAP	94	192	6
NMTAP	95	0	0
NMTAP	95	0	7
NMTAP	96	0	7
NMTAP	96	96	7
NMTAP	96	192	7
NMTAP	97	0	6
NMTAP	97	192	6
NMTAP	98	0	5
NMTAP	98	96	5
NMTAP	98	192	5
NMTAP	99	0	3
NMTAP	99	0	4
NMTAP	99	192	3
NMTAP	99	192	4
NMTAP	100	0	3
NMTAP	100	96	3
NMTAP	100	192	3
NMTAP	101	0	2
NMTAP	101	192	2
NMTAP	102	0	1
NMTAP	102	96	1
NMTAP	102	192	1
NMTAP	103	0	0
NMTAP	103	0	7
NMTAP	103	192	0
NMTAP	103	192	7
NMSTR	104	0	0
NMSI_	104	0	0	96	288	3
BXTAP	106	0	4
NMTAP	106	96	4
NMTAP	106	192	4
NMTAP	107	0	5
NMTAP	107	96	5
NMTAP	107	192	5
NMTAP	108	0	6
NMTAP	108	96	6
NMTAP	108	192	6
NMTAP	109	0	7
NMTAP	109	96	7
NMTAP	109	192	0
NMTAP	109	192	7
NMTAP	110	0	0
NMTAP	110	96	0
NMTAP	110	192	0
NMTAP	111	0	1
NMTAP	111	96	1
NMTAP	111	192	1
NMTAP	112	0	2
NMTAP	112	96	2
NMTAP	112	192	2
NMTAP	113	0	3
NMTAP	113	0	4
NMTAP	113	192	3
NMTAP	113	192	4
NMTAP	114	0	2
NMTAP	114	96	2
NMTAP	114	192	2
NMTAP	115	0	1
NMTAP	115	96	1
NMTAP	115	192	0
NMTAP	115	192	1
NMTAP	116	0	0
NMTAP	116	96	0
NMTAP	116	192	0
NMTAP	117	0	7
NMTAP	117	96	7
NMTAP	117	192	6
NMTAP	117	192	7
NMTAP	118	0	6
NMTAP	118	96	6
NMTAP	118	192	6
NMTAP	119	0	5
NMTAP	119	96	5
NMTAP	119	192	4
NMTAP	119	192	5
NMHLD	120	0	3	1440
NMHLD	120	0	4	1440

T_REC_TAP	194
T_REC_BRK	1
T_REC_XTP	13
T_REC_BXX	1
T_REC_HLD	10
T_REC_XHO	4
T_REC_BHO	0
T_REC_BXH	0
T_REC_STR	5
T_REC_BST	0
T_REC_XST	0
T_REC_XBS	0
T_REC_TTP	21
T_REC_THO	0
T_REC_SLD	5
T_REC_BSL	0
T_REC_ALL	254
T_NUM_TAP	233
T_NUM_BRK	2
T_NUM_HLD	14
T_NUM_SLD	5
T_NUM_ALL	254
T_JUDGE_TAP	235
T_JUDGE_HLD	124
T_JUDGE_SLD	5
T_JUDGE_ALL	364
TTM_EACHPAIRS	47
TTM_SCR_TAP	116500
TTM_SCR_BRK	5200
TTM_SCR_HLD	14000
TTM_SCR_SLD	7500
TTM_SCR_ALL	143200
TTM_SCR_S	138750
TTM_SCR_SS	143000
TTM_RAT_ACV	10013

