VERSION	0.00.00	1.05.00
FES_MODE	0
BPM_DEF	185.000	185.000	185.000	185.000
MET_DEF	4	4
RESOLUTION	384
CLK_DEF	384
COMPATIBLE_CODE	MA2

BPM	0	0	185.000
MET	0	0	4	4

NMTTP	2	0	1	E	0	M1
NMTTP	2	24	1	B	0	M1
NMTTP	2	48	2	B	0	M1
NMTTP	2	72	3	E	0	M1
NMTTP	2	96	7	E	0	M1
NMTTP	2	120	6	B	0	M1
NMTTP	2	144	5	B	0	M1
NMTTP	2	168	5	E	0	M1
NMTTP	2	192	1	A	0	M1
NMTTP	2	216	2	E	0	M1
NMTTP	2	240	3	E	0	M1
NMTTP	2	264	3	A	0	M1
NMTTP	2	288	6	A	0	M1
NMTTP	2	312	6	E	0	M1
NMTTP	2	336	5	E	0	M1
NMTTP	2	360	4	A	0	M1
NMTTP	3	0	0	E	0	M1
NMTTP	3	24	1	E	0	M1
NMTTP	3	48	2	E	0	M1
NMTTP	3	72	3	E	0	M1
NMTTP	3	96	4	E	0	M1
NMTTP	3	120	5	E	0	M1
NMTTP	3	144	6	E	0	M1
NMTTP	3	168	7	E	0	M1
NMTTP	3	192	0	A	0	M1
NMTTP	3	216	1	A	0	M1
NMTTP	3	240	2	A	0	M1
NMTTP	3	264	3	A	0	M1
NMTTP	3	288	4	A	0	M1
NMTTP	3	312	5	A	0	M1
NMTTP	3	336	6	A	0	M1
NMTTP	3	360	7	A	0	M1
NMTTP	4	0	0	C	1	M1
NMTTP	4	0	0	A	0	M1
NMTAP	4	336	1
NMTAP	5	48	2
NMTAP	5	96	3
NMTAP	5	96	5
BRTAP	5	144	3
BRTAP	5	144	5
NMTAP	5	240	7
NMTAP	5	288	7
NMHLD	5	336	0	96
NMHLD	5	336	6	96
NMSTR	6	96	1
NMSI_	6	96	1	96	48	3
NMSTR	6	96	5
NMSI_	6	96	5	96	48	7
NMTAP	6	192	1
NMTAP	6	192	5
NMSTR	6	288	7
NMSCR	6	288	7	96	96	3
NMSTR	7	0	3
NMSCR	7	0	3	96	96	7
NMTAP	7	96	7
NMTAP	7	192	3
NMTAP	7	288	1
NMTAP	7	288	5
NMTAP	8	0	2
NMTAP	8	0	6
NMSTR	8	96	3
NMSI_	8	96	3	96	48	1
NMSTR	8	96	5
NMSI_	8	96	5	96	48	7
NMTAP	8	192	3
NMTAP	8	192	5
EXTAP	8	288	1
EXTAP	8	288	7
NMSTR	9	0	0
NMSI_	9	0	0	96	48	4
NMSTR	9	48	6
NMSI_	9	48	6	96	48	2
BRTAP	9	96	0
BRTAP	9	144	6
BRTAP	9	192	0
BRTAP	9	288	1
BRTAP	9	288	3
NMTAP	10	0	2
EXTAP	10	12	3
NMTAP	10	144	5
EXTAP	10	156	4
NMTAP	10	336	6
EXTAP	10	348	7
NMTAP	11	144	0
NMTAP	11	144	6
NMTAP	11	240	0
NMTAP	11	240	7
NMSTR	11	336	1
NMSI_	11	336	1	96	48	4
NMHLD	12	48	1	48
NMSTR	12	144	7
NMSI_	12	144	7	96	48	3
NMHLD	12	240	7	48
NMSTR	12	336	0
NMSI_	12	336	0	96	48	4
NMHLD	13	48	0	48
NMSTR	13	144	6
NMSI_	13	144	6	96	48	3
NMHLD	13	240	6	48
NMTAP	14	0	2
EXTAP	14	12	3
NMTAP	14	144	3
NMTAP	14	144	4
NMTAP	14	240	5
NMTAP	14	264	4
NMTAP	14	288	5
NMTAP	14	312	4
BXTAP	14	336	5
BRTAP	15	48	4
BRTAP	15	48	6
BRTAP	15	144	4
BRHLD	15	144	7	144
NMTAP	15	240	3
NMTAP	15	288	2
NMHLD	15	336	1	144
NMTAP	16	48	3
NMTAP	16	96	4
NMHLD	16	144	5	144
NMTAP	16	240	2
NMTAP	16	288	1
NMHLD	16	336	0	96
NMTAP	17	48	1
NMTAP	17	96	1
NMTAP	17	192	6
NMTAP	17	192	7
NMTAP	17	288	4
NMTAP	17	288	5
NMTAP	18	0	2
NMSTR	18	0	3
NMSI_	18	0	3	96	48	6
NMTAP	18	96	3
NMTAP	18	192	2
NMSTR	18	192	3
NMSI_	18	192	3	96	48	7
NMTAP	18	288	3
EXTAP	19	0	2
EXTAP	19	0	7
NMSTR	19	96	3
NMSI_	19	96	3	96	48	0
NMSTR	19	96	7
NMSI_	19	96	7	96	48	4
CNSI_	19	240	0	0	48	3
CNSI_	19	240	4	0	48	7
NMSTR	20	0	2
NMSCL	20	0	2	96	48	7
NMTAP	20	0	3
NMTAP	20	96	2
NMTAP	20	192	4
NMSTR	20	192	5
NMSCR	20	192	5	96	48	0
NMTAP	20	288	5
NMTAP	21	0	4
NMSTR	21	0	5
NMSI_	21	0	5	96	48	0
NMSTR	21	96	4
NMSI_	21	96	4	96	48	1
NMTAP	21	96	5
NMTAP	21	192	4
NMTAP	21	192	5
EXTAP	21	288	1
EXTAP	21	288	5
NMTAP	22	0	6
NMTAP	22	48	6
NMTAP	22	96	4
NMHLD	22	144	5	192
NMTAP	22	240	0
NMTAP	22	288	0
NMHLD	22	336	7	192
NMTAP	23	48	3
NMTAP	23	96	3
NMHLD	23	144	2	144
NMTAP	23	240	7
NMTAP	23	288	0
NMTAP	23	336	1
NMTAP	24	0	2
NMTAP	24	48	3
NMTAP	24	96	4
NMTAP	24	144	3
NMTAP	24	144	5
NMTAP	24	192	3
NMTAP	24	192	5
NMTAP	24	288	0
NMTAP	24	288	6
NMTAP	24	336	0
NMTAP	24	336	6
NMTAP	25	48	1
NMTAP	25	48	5
BXHLD	25	96	2	144
BXHLD	25	96	6	144
NMTAP	25	288	1
NMTAP	25	288	5
NMSTR	25	336	1
NMSI_	25	336	1	96	48	7
NMTAP	25	336	5
NMTAP	26	48	1
NMSTR	26	48	4
NMSI_	26	48	4	96	48	7
NMTAP	26	144	0
NMTAP	26	144	4
EXTAP	26	240	7
NMTAP	26	288	6
NMTAP	26	336	0
NMSTR	26	336	5
NMSI_	26	336	5	96	48	3
NMSTR	27	48	0
NMSI_	27	48	0	96	48	2
NMTAP	27	48	5
NMTAP	27	144	0
NMTAP	27	144	4
NMTAP	27	240	4
NMTAP	27	240	5
NMSTR	27	288	4
NMSV_	27	288	4	96	96	2
NMSTR	27	288	5
NMSLR	27	288	5	96	96	1
NMTAP	28	192	1
NMTAP	28	192	3
NMSTR	28	240	1
NMSCL	28	240	1	96	96	4
NMHLD	28	240	3	192
NMTAP	28	336	1
NMTAP	29	144	2
NMTAP	29	144	6
NMTAP	29	192	2
NMTAP	29	192	6
NMSTR	29	240	1
NMSI_	29	240	1	96	48	4
NMTAP	29	288	0
NMTAP	29	336	1
NMSTR	30	48	6
NMSI_	30	48	6	96	48	2
NMTAP	30	96	7
NMTAP	30	144	6
NMSTR	30	240	1
NMSLR	30	240	1	96	96	5
NMSTR	30	336	5
NMSCL	30	336	5	96	96	1
NMSTR	31	48	1
NMSLL	31	48	1	96	96	5
NMHLD	31	144	7	144
NMTAP	31	288	4
NMTAP	31	336	4
NMTAP	32	48	3
NMTAP	32	96	2
NMHLD	32	144	1	96
NMTAP	32	240	0
NMTAP	32	288	7
NMSTR	32	336	2
NMSCL	32	336	2	96	48	7
NMSTR	32	336	6
NMSCL	32	336	6	96	48	3
NMTAP	33	48	2
NMTAP	33	48	6
EXSTR	33	144	3
NMSI_	33	144	3	96	48	6
EXSTR	33	144	7
NMSI_	33	144	7	96	48	2
NMTAP	33	240	3
NMTAP	33	240	7
EXTAP	33	336	2
EXSTR	33	336	6
NMSI_	33	336	6	96	48	0
NMSTR	34	48	3
NMSI_	34	48	3	96	48	0
NMTAP	34	48	6
NMTAP	34	144	3
NMTAP	34	144	7
EXTAP	34	240	0
NMTAP	34	288	1
NMSTR	34	336	2
NMSI_	34	336	2	96	48	4
NMTAP	34	336	7
NMTAP	35	48	2
NMSTR	35	48	7
NMSI_	35	48	7	96	48	5
NMTAP	35	144	3
NMTAP	35	144	7
NMTAP	35	240	3
NMTAP	35	288	2
NMTAP	35	336	1
NMTAP	35	336	3
NMTAP	36	48	0
NMTAP	36	48	7
NMTAP	36	96	0
NMTAP	36	96	7
NMTAP	36	192	4
NMTAP	36	192	6
NMTAP	36	240	4
NMSTR	36	240	6
NMSXL	36	240	6	96	192	3
NMTTP	36	336	3	E	1	M1
NMSTR	37	144	2
NMSLL	37	144	2	96	96	6
NMTAP	37	240	5
NMTAP	37	288	4
NMSTR	37	336	3
NMSLR	37	336	3	96	96	7
NMTAP	38	48	0
NMTAP	38	96	1
NMSTR	38	144	2
NMSLL	38	144	2	96	96	6
NMTAP	38	240	5
NMTAP	38	288	4
NMSTR	38	336	3
NMSLR	38	336	3	96	96	7
NMTAP	39	48	0
NMTAP	39	96	1
NMTAP	39	144	2
NMTAP	39	240	2
NMTAP	39	240	7
NMTAP	39	288	2
NMTAP	39	288	7
NMTAP	40	0	0
NMSTR	40	0	1
NMSI_	40	0	1	96	48	4
NMSTR	40	96	0
NMSI_	40	96	0	96	48	4
NMTAP	40	96	1
NMTAP	40	192	0
NMSTR	40	192	7
NMSI_	40	192	7	96	48	3
NMTAP	40	288	7
NMTAP	41	0	2
NMTAP	41	96	2
NMTAP	41	144	1
BRTAP	41	192	0
BRTAP	41	192	1
BRTAP	41	264	6
BRTAP	41	264	7
BRTAP	41	336	4
BRTAP	41	336	5
BXSTR	42	0	4
NMSCR	42	0	4	96	240	1
BXSTR	42	0	5
NMSCL	42	0	5	96	240	0
CNSLR	42	336	0	0	240	5
CNSLL	42	336	1	0	240	4
NMHLD	44	0	5	672
NMTTP	44	96	4	B	0	M1
NMTTP	44	96	4	A	0	M1
NMTTP	44	288	4	E	0	M1
NMTTP	44	288	4	D	0	M1
NMTTP	45	96	4	B	0	M1
NMTTP	45	96	4	A	0	M1
NMTTP	45	288	4	E	0	M1
NMTTP	45	288	4	D	0	M1
NMHLD	46	0	1	672
NMTTP	46	96	7	B	0	M1
NMTTP	46	96	7	A	0	M1
NMTTP	46	288	7	E	0	M1
NMTTP	46	288	7	D	0	M1
NMTTP	47	96	7	B	0	M1
NMTTP	47	96	7	A	0	M1
NMTTP	47	288	7	E	0	M1
NMTTP	47	288	7	D	0	M1
NMTTP	48	0	4	A	0	M1
NMTTP	48	48	5	A	0	M1
NMTTP	48	96	6	A	0	M1
NMTTP	48	144	7	B	0	M1
NMTTP	48	144	7	A	0	M1
NMTTP	48	240	3	A	0	M1
NMTTP	48	288	2	A	0	M1
NMTTP	48	336	1	A	0	M1
NMTTP	49	0	0	B	0	M1
NMTTP	49	0	0	A	0	M1
NMTHO	49	96	3	288	B	0	M1
NMTHO	49	96	3	288	E	0	M1
NMTHO	49	96	3	288	A	0	M1
NMTHO	49	96	4	288	B	0	M1
NMTHO	49	96	4	288	E	0	M1
NMTHO	49	96	4	288	A	0	M1
NMTHO	49	96	5	288	E	0	M1
NMTAP	51	96	4
NMTAP	51	96	5
NMTAP	51	192	4
NMTAP	51	192	5
NMTAP	51	288	3
NMTAP	51	336	3
NMHLD	52	0	2	240
NMTAP	52	0	4
NMSTR	52	96	1
NMSI_	52	96	1	96	48	4
NMTAP	52	144	1
NMTAP	52	336	4
NMTAP	52	336	5
NMTAP	53	48	3
NMSTR	53	48	6
NMSI_	53	48	6	96	48	2
NMTAP	53	96	3
NMTAP	53	96	6
NMTAP	53	288	2
NMTAP	53	336	2
NMHLD	54	0	1	96
NMTAP	54	0	3
NMHLD	54	144	0	96
NMTAP	54	144	2
NMTAP	54	288	1
NMTAP	54	336	1
NMTAP	55	0	7
NMTAP	55	48	7
NMTAP	55	96	0
BXHLD	55	192	0	96
BXHLD	55	192	1	96
BXHLD	55	336	5	96
BXHLD	55	336	6	96
BXHLD	56	96	2	96
BXHLD	56	96	4	96
BRTAP	56	288	0
BRTAP	56	288	6
BXTAP	57	0	1
NMTAP	57	48	3
NMTAP	57	96	2
NMTAP	57	144	6
NMTAP	57	192	4
NMHLD	57	240	5	96
BXTAP	57	336	0
NMTAP	58	0	3
NMTAP	58	48	2
NMTAP	58	96	7
NMTAP	58	144	4
NMSTR	58	192	5
NMSI_	58	192	5	96	48	3
BXTAP	58	288	5
NMSTR	58	336	2
NMSI_	58	336	2	96	48	6
BXTAP	59	48	2
NMSTR	59	96	7
NMSCR	59	96	7	96	144	4
BXTAP	59	192	7
NMTAP	60	48	5
NMTAP	60	72	4
NMTAP	60	96	5
NMTAP	60	120	4
NMTAP	60	144	5
NMTAP	60	168	4
NMTAP	60	192	5
NMTAP	60	216	4
NMTAP	60	240	5
NMTAP	60	264	4
NMTAP	60	288	3
NMSTR	60	288	6
NMSI_	60	288	6	96	48	3
NMSTR	61	96	2
NMSUL	61	96	2	96	96	5
NMHLD	61	96	4	96
NMTAP	62	0	3
NMTAP	62	0	5
NMHLD	62	96	5	96
NMSTR	62	96	6
NMSUR	62	96	6	96	96	3
NMTAP	63	0	2
NMTAP	63	0	3
NMHLD	63	96	0	96
NMSTR	63	96	1
NMSUR	63	96	1	96	96	6
NMTAP	64	0	6
NMTAP	64	0	7
NMHLD	64	96	4	96
NMSTR	64	96	5
NMSLR	64	96	5	96	96	1
NMTAP	65	0	2
NMTAP	65	48	2
NMTAP	65	96	3
NMHLD	65	144	1	192
NMTAP	65	240	7
NMTAP	65	288	7
NMHLD	65	336	0	432
NMTAP	66	48	3
NMTAP	66	96	3
NMTAP	66	144	4
NMSTR	66	192	5
NMSI_	66	192	5	96	48	2
NMTAP	66	288	5
NMTAP	67	0	1
NMTAP	67	48	1
NMTAP	67	96	3
NMHLD	67	144	3	336
NMTAP	67	240	7
NMTAP	67	288	7
NMHLD	67	336	6	96
NMSTR	68	96	6
NMSCR	68	96	6	96	96	3
NMTAP	68	192	6
NMTAP	68	288	5
NMSTR	69	0	6
NMSLR	69	0	6	96	192	2
NMTTP	69	96	5	A	0	M1
NMTTP	69	192	4	A	0	M1
NMTTP	69	288	3	A	0	M1
NMSTR	70	0	2
NMSCL	70	0	2	96	192	6
NMTTP	70	96	3	A	0	M1
NMTTP	70	192	4	A	0	M1
NMTTP	70	288	5	A	0	M1
NMTAP	71	0	4
NMTAP	71	48	5
NMTAP	71	96	6
NMTAP	71	144	3
NMTAP	71	192	2
NMTAP	71	288	0
NMTAP	71	288	5
NMTAP	71	336	0
NMTAP	71	336	5
NMTAP	72	48	2
NMTAP	72	48	7
BRHLD	72	96	2	144
BRHLD	72	96	7	144
NMTAP	72	288	0
NMTAP	72	288	1
NMTTP	72	336	0	B	0	M1
NMTTP	72	336	0	C	1	M1
NMTTP	72	336	1	B	0	M1
NMTTP	72	336	2	B	0	M1
NMTTP	72	336	3	B	0	M1
NMTTP	72	336	4	B	0	M1
NMTTP	72	336	4	E	0	M1
NMTTP	72	336	4	A	0	M1
NMTTP	72	336	4	D	0	M1
NMTTP	72	336	5	B	0	M1
NMTTP	72	336	5	E	0	M1
NMTTP	72	336	5	A	0	M1
NMTTP	72	336	5	D	0	M1
NMTTP	72	336	6	B	0	M1
NMTTP	72	336	6	E	0	M1
NMTTP	72	336	6	D	0	M1
NMTTP	72	336	7	B	0	M1
NMTAP	73	288	6
NMTAP	73	288	7
NMTTP	73	336	0	B	0	M1
NMTTP	73	336	0	C	1	M1
NMTTP	73	336	1	B	0	M1
NMTTP	73	336	2	B	0	M1
NMTTP	73	336	2	E	0	M1
NMTTP	73	336	2	A	0	M1
NMTTP	73	336	2	D	0	M1
NMTTP	73	336	3	B	0	M1
NMTTP	73	336	3	E	0	M1
NMTTP	73	336	3	A	0	M1
NMTTP	73	336	3	D	0	M1
NMTTP	73	336	4	B	0	M1
NMTTP	73	336	4	E	0	M1
NMTTP	73	336	4	D	0	M1
NMTTP	73	336	5	B	0	M1
NMTTP	73	336	6	B	0	M1
NMTTP	73	336	7	B	0	M1
NMTAP	74	192	1
NMTAP	74	192	5
NMTAP	74	240	2
NMTAP	74	240	6
NMTAP	74	288	3
NMTAP	74	288	7
BRHLD	74	336	3	96
BRHLD	74	336	7	96
NMTAP	75	96	5
NMTAP	75	144	5
NMTAP	75	192	4
NMSTR	75	240	3
NMSCL	75	240	3	96	96	7
NMHLD	75	240	6	96
NMTAP	75	336	3
NMTAP	76	144	1
NMTAP	76	144	5
NMTAP	76	192	1
NMTAP	76	192	5
NMSTR	76	240	6
NMSI_	76	240	6	96	48	3
NMTAP	76	288	7
NMTAP	76	336	6
NMSTR	77	48	1
NMSI_	77	48	1	96	48	5
NMTAP	77	96	0
NMTAP	77	144	1
NMSTR	77	240	6
NMSLL	77	240	6	96	96	2
NMSTR	77	336	2
NMSCR	77	336	2	96	96	6
NMSTR	78	48	6
NMSLR	78	48	6	96	96	2
NMHLD	78	144	0	144
NMTAP	78	288	3
NMTAP	78	336	3
NMTAP	79	48	4
NMTAP	79	96	5
NMHLD	79	144	6	96
NMTAP	79	240	7
NMTAP	79	288	0
NMSTR	79	336	1
NMSCR	79	336	1	96	48	4
NMSTR	79	336	5
NMSCR	79	336	5	96	48	0
NMTAP	80	48	1
NMTAP	80	48	5
EXSTR	80	144	0
NMSI_	80	144	0	96	48	5
EXSTR	80	144	4
NMSI_	80	144	4	96	48	1
NMTAP	80	240	0
NMTAP	80	240	4
NMTAP	80	336	2
NMSTR	80	336	6
NMSI_	80	336	6	96	48	0
NMSTR	81	48	3
NMSI_	81	48	3	96	48	0
NMTAP	81	48	6
NMTAP	81	144	3
NMTAP	81	144	7
EXTAP	81	240	0
NMTAP	81	288	1
NMSTR	81	336	2
NMSI_	81	336	2	96	48	4
NMTAP	81	336	7
NMTAP	82	48	2
NMSTR	82	48	7
NMSI_	82	48	7	96	48	5
NMTAP	82	144	3
NMTAP	82	144	7
NMTAP	82	240	3
NMTAP	82	288	2
NMTAP	82	336	1
NMTAP	82	336	3
NMTAP	83	48	0
NMTAP	83	48	7
NMTAP	83	96	0
NMTAP	83	96	7
NMTAP	83	192	4
NMTAP	83	192	6
NMTAP	83	240	4
NMSTR	83	240	6
NMSXL	83	240	6	96	192	3
NMTTP	83	336	3	E	1	M1
NMSTR	84	144	2
NMSLL	84	144	2	96	96	6
NMTAP	84	240	5
NMTAP	84	288	4
NMSTR	84	336	3
NMSLR	84	336	3	96	96	7
NMTAP	85	48	0
NMTAP	85	96	1
NMSTR	85	144	2
NMSLL	85	144	2	96	96	6
NMTAP	85	240	5
NMTAP	85	288	4
NMSTR	85	336	3
NMSLR	85	336	3	96	96	7
NMTAP	86	48	0
NMTAP	86	96	1
NMTAP	86	144	2
NMTAP	86	240	2
NMTAP	86	240	7
NMTAP	86	288	2
NMTAP	86	288	7
NMSTR	87	0	1
NMSI_	87	0	1	96	48	4
NMTAP	87	48	1
NMSTR	87	96	0
NMSI_	87	96	0	96	48	4
NMTAP	87	144	0
NMSTR	87	192	7
NMSI_	87	192	7	96	48	3
NMTAP	87	240	7
NMSTR	87	288	6
NMSCL	87	288	6	96	96	2
NMSTR	88	0	2
NMSCL	88	0	2	96	96	6
NMTAP	88	96	6
BRTAP	88	192	2
BRTAP	88	264	1
BRTAP	88	264	5
BRTAP	88	336	0
BRTAP	88	336	6
NMHLD	89	0	1	48
NMTAP	89	48	3
NMTAP	89	72	2
NMHLD	89	96	6	48
NMTAP	89	144	4
NMTAP	89	168	5
NMHLD	89	192	1	48
NMTAP	89	240	3
NMTAP	89	264	2
NMHLD	89	288	6	48
NMTAP	89	336	4
NMTAP	89	360	5
NMHLD	90	0	0	48
NMTAP	90	48	3
NMTAP	90	72	2
NMHLD	90	96	7	48
NMTAP	90	144	4
NMTAP	90	168	5
NMTAP	90	192	3
NMTAP	90	240	2
NMSTR	90	240	6
NMSXL	90	240	6	96	192	2
NMTAP	90	288	1
NMHLD	90	336	0	240
NMTAP	91	288	1
NMTAP	91	288	3
NMTAP	91	336	1
NMTAP	91	336	3
NMTAP	92	0	2
NMTAP	92	48	4
NMTAP	92	96	3
NMTAP	92	144	5
BRTAP	92	192	4
BRTAP	92	192	6
BRTAP	92	264	0
BRTAP	92	264	7
BRTAP	92	336	1
BRTAP	92	336	3
NMSTR	93	0	4
NMSCR	93	0	4	96	96	0
NMHLD	93	96	2	96
NMTAP	93	96	4
NMTAP	93	288	3
NMTAP	94	0	2
NMSTR	94	0	3
NMSCL	94	0	3	96	96	7
NMTAP	94	96	3
NMHLD	94	96	5	96
NMTAP	94	288	5
NMTAP	94	288	6
NMTTP	95	0	0	B	0	M1
NMTTP	95	0	0	C	1	M1
NMTTP	95	0	1	B	0	M1
NMTTP	95	0	2	B	0	M1
NMTTP	95	0	3	B	0	M1
NMTTP	95	0	4	B	0	M1
NMTTP	95	0	5	B	0	M1
NMTTP	95	0	6	B	0	M1
NMTTP	95	0	7	B	0	M1
NMHLD	95	336	1	96
NMHLD	95	336	4	96
NMTAP	96	96	2
NMTAP	96	96	5
BRTAP	96	144	2
BRTAP	96	144	5
EXSTR	96	192	3
NMSXR	96	192	3	96	96	1
EXSTR	96	192	4
NMSCR	96	192	4	96	96	0
EXTAP	96	240	3
EXTAP	96	240	4
NMSTR	97	96	1
NMSI_	97	96	1	96	48	3
NMSTR	97	96	5
NMSI_	97	96	5	96	48	7
NMTAP	97	192	1
NMTAP	97	192	5
NMSTR	97	288	7
NMSCR	97	288	7	96	96	3
NMSTR	98	0	3
NMSCR	98	0	3	96	96	7
NMTAP	98	96	7
NMTAP	98	192	3
NMTAP	98	288	0
NMTAP	98	288	5
NMTAP	99	0	1
NMTAP	99	0	3
NMSTR	99	96	3
NMSI_	99	96	3	96	48	1
NMSTR	99	96	5
NMSI_	99	96	5	96	48	7
NMTAP	99	192	3
NMTAP	99	192	5
EXTAP	99	288	1
EXTAP	99	288	7
NMSTR	100	0	0
NMSI_	100	0	0	96	48	4
NMSTR	100	48	6
NMSI_	100	48	6	96	48	2
BRTAP	100	96	0
BRTAP	100	144	6
BRTAP	100	192	0
NMTAP	100	288	3
NMTAP	100	336	0
NMTAP	100	336	2
NMTAP	101	48	1
NMTAP	101	72	0
NMTAP	101	96	1
NMTAP	101	120	0
BXTAP	101	144	1
NMTAP	101	240	6
NMTAP	101	264	7
NMTAP	101	288	6
NMTAP	101	312	7
BXTAP	101	336	6
NMSTR	102	48	5
NMSI_	102	48	5	96	48	2
NMSTR	102	48	6
NMSI_	102	48	6	96	48	1
NMTAP	102	96	5
NMTAP	102	96	6

T_REC_TAP	347
T_REC_BRK	34
T_REC_XTP	18
T_REC_BXX	8
T_REC_HLD	43
T_REC_XHO	0
T_REC_BHO	5
T_REC_BXH	8
T_REC_STR	94
T_REC_BST	0
T_REC_XST	7
T_REC_XBS	2
T_REC_TTP	111
T_REC_THO	7
T_REC_SLD	103
T_REC_BSL	0
T_REC_ALL	787
T_NUM_TAP	577
T_NUM_BRK	57
T_NUM_HLD	50
T_NUM_SLD	103
T_NUM_ALL	787
T_JUDGE_TAP	621
T_JUDGE_HLD	204
T_JUDGE_SLD	103
T_JUDGE_ALL	928
TTM_EACHPAIRS	148
TTM_SCR_TAP	288500
TTM_SCR_BRK	148200
TTM_SCR_HLD	50000
TTM_SCR_SLD	154500
TTM_SCR_ALL	641200
TTM_SCR_S	616450
TTM_SCR_SS	635500
TTM_RAT_ACV	10089

