VERSION	0.00.00	1.05.00
FES_MODE	0
BPM_DEF	185.000	185.000	185.000	185.000
MET_DEF	4	4
RESOLUTION	384
CLK_DEF	384
COMPATIBLE_CODE	MA2

BPM	0	0	185.000
MET	0	0	4	4

NMTHO	2	0	0	384	C	0	M1
NMTTP	4	0	0	C	1	M1
NMTTP	4	0	2	B	0	M1
NMTTP	4	0	3	B	0	M1
NMTTP	4	0	4	B	0	M1
NMTTP	4	0	5	B	0	M1
EXTAP	4	336	0
EXTAP	4	336	7
EXTAP	5	48	1
EXTAP	5	48	6
EXHLD	5	144	2	96
EXHLD	5	144	5	96
EXTAP	5	288	3
EXTAP	5	288	4
NMTAP	6	0	2
NMTAP	6	96	1
NMTAP	6	192	0
NMTAP	6	192	6
NMTAP	6	288	5
NMTAP	7	0	4
NMTAP	7	0	6
NMTAP	7	96	7
BXTAP	7	192	0
BXTAP	7	192	1
BXTAP	7	288	0
BXTAP	7	288	1
NMTAP	8	0	7
NMTAP	8	96	0
NMTAP	8	96	6
NMTAP	8	192	5
NMTAP	8	288	6
NMTAP	8	288	7
NMTAP	9	0	0
NMTAP	9	96	1
NMSTR	9	96	3
NMSI_	9	96	3	96	96	7
EXTAP	10	0	6
EXTAP	10	0	7
EXHLD	10	144	6	192
EXHLD	10	144	7	192
NMTAP	11	144	4
NMTAP	11	144	5
NMTAP	11	240	4
NMTAP	11	240	5
BXTAP	11	336	3
BXTAP	11	336	6
NMTAP	12	48	7
NMTAP	12	144	0
NMTAP	12	240	1
NMTAP	12	240	3
NMTAP	12	336	1
NMTAP	12	336	3
NMSTR	13	48	2
NMSUR	13	48	2	96	240	4
NMTAP	14	0	5
NMTAP	14	96	4
NMTAP	14	96	6
NMHLD	14	144	4	96
NMHLD	14	144	6	96
NMTTP	14	336	6	E	0	M1
NMTTP	15	48	0	C	0	M1
NMTTP	15	144	2	E	0	M1
EXTAP	15	240	1
EXTAP	15	336	0
EXTAP	15	336	1
NMTAP	16	48	6
NMTAP	16	144	6
NMTAP	16	144	7
NMTAP	16	240	5
NMTAP	16	288	5
NMTAP	16	336	4
NMTAP	17	48	2
NMTAP	17	48	3
NMSTR	17	96	2
NMSCL	17	96	2	96	96	7
NMTAP	17	96	3
NMTAP	18	0	4
NMTAP	18	0	6
BXTAP	18	96	7
NMTAP	18	192	1
NMTAP	18	192	3
BXTAP	18	288	0
NMTAP	19	0	4
NMTAP	19	0	6
BXTAP	19	96	7
BXTAP	19	192	0
BXTAP	19	192	1
BXTAP	19	288	0
BXTAP	19	288	1
NMTAP	20	0	2
NMTAP	20	0	3
BXTAP	20	96	0
NMTAP	20	192	4
NMTAP	20	192	5
BXTAP	20	288	7
NMTAP	21	0	2
NMTAP	21	0	3
BXTAP	21	96	0
BXTAP	21	192	6
BXTAP	21	192	7
BXTAP	21	288	6
BXTAP	21	288	7
NMTAP	22	0	0
NMTAP	22	96	1
NMHLD	22	144	1	96
NMTAP	22	240	0
NMHLD	22	336	6	96
NMTAP	23	48	7
NMTAP	23	144	0
NMTAP	23	144	5
NMTAP	23	240	1
NMTAP	23	240	6
NMTAP	23	336	2
NMTAP	23	336	7
NMTAP	24	48	0
NMTAP	24	48	1
NMTAP	24	96	0
NMHLD	24	96	1	96
NMHLD	24	192	3	96
NMTAP	24	288	4
NMTAP	24	336	4
BXTAP	25	48	1
BXTAP	25	48	6
BXTAP	25	96	1
BXTAP	25	96	6
EXTAP	25	288	0
EXTAP	25	288	7
EXTAP	25	336	0
EXTAP	25	336	7
NMTAP	26	48	1
NMTAP	26	48	3
NMTAP	26	96	1
NMTAP	26	96	3
EXTAP	26	192	7
EXTAP	26	240	7
NMTAP	26	336	4
NMTAP	26	336	6
NMTAP	27	48	1
NMTAP	27	48	3
NMTAP	27	96	1
NMTAP	27	96	3
EXTAP	27	192	0
EXTAP	27	240	0
NMTAP	27	336	3
NMTAP	27	336	5
NMTAP	28	48	2
NMTAP	28	48	6
NMTAP	28	96	2
NMTAP	28	96	6
NMTAP	28	192	1
NMTAP	28	192	5
NMTAP	28	288	2
NMTAP	28	288	4
BRTAP	29	0	0
BRTAP	29	0	1
BRTAP	29	96	0
BRTAP	29	96	1
BRTAP	29	192	2
BRTAP	29	192	7
NMTAP	29	288	6
NMTAP	29	336	6
NMTAP	30	48	4
NMTAP	30	48	5
NMTAP	30	144	6
NMTAP	30	144	7
NMTAP	30	240	1
NMTAP	30	288	1
NMTAP	30	336	0
NMSTR	31	48	2
NMSCL	31	48	2	96	96	7
NMTAP	31	48	3
EXTAP	31	288	6
EXHLD	31	336	6	96
NMTAP	32	48	7
NMHLD	32	144	1	96
NMTAP	32	240	0
BRSTR	32	336	2
NMSI_	32	336	2	96	96	7
BRSTR	32	336	3
NMSI_	32	336	3	96	96	7
EXTAP	33	288	0
EXTAP	33	288	6
EXTAP	33	336	0
EXTAP	33	336	6
NMTAP	34	48	5
NMTAP	34	96	5
NMTAP	34	192	0
NMTAP	34	192	6
NMTAP	34	240	0
NMTAP	34	240	6
NMTAP	34	336	1
NMTAP	34	336	7
NMTAP	35	48	2
NMTAP	35	96	2
NMTAP	35	192	1
NMTAP	35	192	7
NMTAP	35	240	1
NMTAP	35	240	7
NMTAP	35	336	0
NMTAP	35	336	6
NMTAP	36	48	1
NMTAP	36	48	7
NMHLD	36	96	1	96
NMSTR	36	96	7
NMSCL	36	96	7	96	192	2
BXTAP	37	0	0
BXTAP	37	96	0
BXTAP	37	192	2
BXTAP	37	192	6
EXHLD	37	336	1	96
NMTAP	38	48	0
NMHLD	38	144	6	96
NMTAP	38	240	7
NMTAP	38	336	4
NMTAP	38	336	5
NMTAP	39	48	2
NMTAP	39	48	3
NMTAP	39	144	0
NMTAP	39	144	1
NMTAP	39	240	6
NMTAP	39	240	7
EXTAP	39	336	4
EXTAP	39	336	5
NMTAP	40	48	6
NMHLD	40	96	6	96
NMHLD	40	192	4	96
NMHLD	40	288	3	96
NMSTR	41	0	1
NMSI_	41	0	1	96	96	6
CNSI_	41	192	6	0	96	2
CNSI_	41	288	2	0	96	5
BXHLD	42	0	7	1152
NMTTP	43	0	6	E	0	M1
NMTTP	43	96	7	E	0	M1
NMTTP	43	192	0	E	0	M1
NMTTP	43	288	1	E	0	M1
NMTTP	44	0	2	E	0	M1
NMTTP	44	96	3	E	0	M1
NMTTP	44	192	4	E	0	M1
NMTTP	44	288	0	C	0	M1
NMTTP	45	0	0	E	1	M1
NMHLD	46	0	0	1344
NMSTR	46	192	7
NMSI_	46	192	7	96	192	3
NMTAP	47	288	3
NMSTR	48	0	3
NMSCL	48	0	3	96	288	6
EXTAP	49	192	6
EXTAP	49	288	6
NMTAP	50	0	4
NMTAP	50	0	5
NMTAP	50	96	2
NMTAP	50	96	3
NMTAP	50	192	1
NMTAP	50	240	1
NMTAP	50	288	0
NMTAP	51	0	2
NMTAP	51	0	3
NMTAP	51	96	4
NMTAP	51	96	5
NMTAP	51	192	6
NMTAP	51	240	6
NMTAP	51	288	7
NMTAP	52	0	0
NMSTR	52	0	5
NMSCL	52	0	5	96	96	2
NMTAP	52	192	1
NMTAP	52	288	1
NMSTR	53	0	1
NMSCL	53	0	1	96	96	6
NMTAP	53	192	5
NMTAP	53	288	5
NMTAP	54	0	4
NMTAP	54	0	6
NMTAP	54	96	3
NMTAP	54	96	4
NMTAP	54	192	1
NMTAP	54	192	3
NMTAP	54	288	3
NMTAP	54	288	5
NMTAP	55	0	6
NMTAP	55	96	2
NMTAP	55	96	4
NMHLD	55	192	1	96
NMTAP	55	288	0
NMHLD	55	336	0	96
NMTAP	56	48	1
NMTAP	56	96	1
NMTAP	56	192	2
NMTAP	56	192	7
NMTAP	56	288	6
NMTAP	56	288	7
BXSTR	57	0	0
NMSSL	57	0	0	96	288	4
NMTAP	57	0	5
BXSTR	57	336	5
NMSUL	57	336	5	96	288	3
BXSTR	58	288	0
BRSSL	58	288	0	96	336	4
EXTAP	60	192	3
EXTAP	60	192	5
EXTAP	60	288	2
EXTAP	60	288	4
NMTAP	61	0	1
NMHLD	61	0	3	144
NMTAP	61	144	0
NMHLD	61	192	0	144
NMTAP	61	336	2
NMTAP	62	0	2
NMTAP	62	144	1
NMTAP	62	144	3
NMTAP	62	192	1
NMTAP	62	192	3
NMTAP	62	288	3
NMTAP	62	288	4
NMHLD	63	0	4	144
NMTAP	63	0	6
NMTAP	63	144	7
NMHLD	63	192	7	144
NMTAP	63	336	5
NMTAP	64	0	5
NMTAP	64	144	4
NMTAP	64	144	6
NMTAP	64	192	4
NMTAP	64	192	6
NMTAP	64	288	4
NMTAP	64	288	5
EXTAP	65	0	3
EXTAP	65	0	4
NMTAP	65	96	2
NMHLD	65	144	2	96
NMHLD	65	240	0	96
NMHLD	65	336	7	96
NMTAP	66	48	5
NMHLD	66	96	5	96
NMTAP	66	192	4
NMTAP	66	288	4
NMTAP	66	288	5
NMTAP	67	0	4
NMTAP	67	0	6
NMTAP	67	96	7
NMSTR	67	144	7
NMSI_	67	144	7	96	96	3
NMSTR	67	336	1
NMSI_	67	336	1	96	96	5
NMTAP	68	144	6
EXTAP	68	192	6
NMSTR	68	288	1
NMSCR	68	288	1	96	336	6
NMTAP	68	288	7
CNSUL	69	336	6	0	240	0
NMTAP	71	0	6
NMTAP	71	48	6
NMTAP	71	96	7
NMTAP	71	192	4
NMTAP	71	192	5
NMTAP	71	288	3
NMTAP	71	288	6
NMTAP	71	336	3
NMTAP	71	336	6
NMTAP	72	48	1
NMTAP	72	48	4
NMTAP	72	96	1
NMTAP	72	96	4
BXTAP	72	288	0
BXTAP	72	288	2
BXHLD	72	336	0	240
BXHLD	72	336	2	240
BXTAP	73	288	5
BXTAP	73	288	7
BXHLD	73	336	5	240
BXHLD	73	336	7	240
EXTAP	74	288	2
EXTAP	74	288	4
EXTAP	74	336	2
EXTAP	74	336	4
EXTAP	75	48	3
EXTAP	75	48	5
EXTAP	75	96	3
EXTAP	75	96	5
NMHLD	75	192	2	96
NMHLD	75	192	6	96
BRTAP	76	0	1
BRTAP	76	0	3
BRTAP	76	96	4
BRTAP	76	96	6
BRTAP	76	192	0
BRTAP	76	192	5
NMTAP	76	288	1
NMHLD	76	336	1	96
NMTAP	77	48	3
NMHLD	77	144	5	96
NMTAP	77	240	7
NMHLD	77	336	2	96
NMTAP	78	48	0
NMTAP	78	144	2
NMTAP	78	144	3
NMTAP	78	240	5
NMTAP	78	288	5
NMTAP	78	336	4
NMTAP	78	336	6
NMTAP	79	48	2
NMTAP	79	96	2
NMTAP	79	144	1
NMTAP	79	144	3
NMTAP	79	240	0
NMTAP	79	240	7
NMSTR	79	288	0
NMSUL	79	288	0	96	192	3
NMSTR	79	288	7
NMSCL	79	288	7	96	192	4
NMTAP	80	288	4
NMTAP	80	288	5
EXTAP	80	336	4
EXTAP	80	336	5
NMTAP	81	48	1
NMTAP	81	48	7
NMTAP	81	144	0
NMTAP	81	144	6
NMTAP	81	192	0
NMTAP	81	192	6
NMTAP	81	288	2
NMTAP	81	288	3
NMTAP	81	336	2
NMTAP	81	336	3
NMTAP	82	48	0
NMTAP	82	48	6
NMTAP	82	144	1
NMTAP	82	144	7
NMTAP	82	192	1
NMTAP	82	192	7
NMTAP	82	288	4
NMTAP	82	288	5
NMTAP	82	336	4
NMTAP	82	336	5
NMTAP	83	48	6
NMTAP	83	48	7
NMTAP	83	96	6
NMTAP	83	96	7
NMTAP	83	192	0
NMTAP	83	192	5
NMTAP	83	240	0
NMTAP	83	240	5
NMTTP	83	336	0	C	1	M1
NMTTP	83	336	1	B	0	M1
NMTTP	83	336	2	B	0	M1
NMTTP	83	336	2	E	0	M1
NMTTP	83	336	3	B	0	M1
NMTTP	83	336	4	B	0	M1
NMTAP	84	240	0
NMTAP	84	240	7
BRTAP	84	336	0
BRTAP	84	336	7
NMTAP	85	48	6
NMTAP	85	96	6
NMTAP	85	144	7
NMTAP	85	240	1
NMTAP	85	288	1
NMTAP	85	336	0
NMTAP	86	48	5
NMTAP	86	96	5
NMTAP	86	144	4
NMTAP	86	240	3
NMTAP	86	240	6
NMTAP	86	288	3
NMTAP	86	288	6
NMTAP	87	0	2
NMTAP	87	0	3
NMTAP	87	96	0
NMTAP	87	96	1
NMTAP	87	192	6
NMTAP	87	192	7
NMTAP	87	288	4
NMTAP	87	288	5
NMTAP	88	0	2
NMTAP	88	0	3
NMTAP	88	96	2
NMSTR	88	96	3
NMSI_	88	96	3	96	96	7
NMHLD	89	0	7	96
NMHLD	89	96	1	96
NMHLD	89	192	3	96
NMHLD	89	288	5	96
NMHLD	90	0	7	96
NMTAP	90	96	1
NMTAP	90	144	1
NMTAP	90	240	0
NMTAP	90	240	6
NMTAP	90	336	2
NMTAP	90	336	4
NMTAP	91	48	1
NMTAP	91	48	3
NMTAP	91	96	1
NMTAP	91	96	3
NMTAP	91	192	5
NMTAP	91	192	7
NMTAP	91	288	0
NMTAP	91	288	2
NMTAP	92	0	4
NMTAP	92	0	6
NMTAP	92	96	0
NMTAP	92	96	7
BRTAP	92	192	1
BRTAP	92	192	5
NMSTR	93	0	2
NMSI_	93	0	2	96	96	5
NMSTR	93	192	6
NMSI_	93	192	6	96	96	2
NMSTR	94	0	0
NMSI_	94	0	0	96	96	4
NMTAP	94	192	5
NMTAP	94	288	4
NMTAP	94	288	6
NMTAP	95	0	3
BXHLD	95	0	7	336
NMTTP	95	336	0	C	1	M1
EXTAP	96	48	0
EXTAP	96	48	7
EXTAP	96	96	0
EXTAP	96	96	7
EXTAP	96	144	0
EXTAP	96	144	7
BRHLD	96	192	1	480
BRSTR	96	192	6
BRSUL	96	192	6	96	48	2
NMTAP	97	96	0
NMTAP	97	192	0
NMTAP	97	288	3
NMTAP	98	0	2
NMTAP	98	0	3
NMTAP	98	96	2
NMTAP	98	96	3
BRTAP	98	192	0
BRTAP	98	192	5
BRTAP	98	288	2
BRTAP	98	288	7
NMHLD	99	0	6	288
NMTAP	99	96	7
NMTAP	99	192	7
NMTAP	99	288	4
NMTAP	100	0	4
NMTAP	100	0	5
NMTAP	100	96	4
NMTAP	100	96	5
BRTAP	100	192	2
BRTAP	100	192	7
BRTAP	100	288	0
BRTAP	100	288	5
NMTAP	100	336	0
NMTAP	100	336	5
NMTAP	101	48	1
NMTAP	101	96	2
NMHLD	101	144	3	96
NMHLD	101	240	5	96
NMTAP	101	336	7
EXTAP	102	48	0
EXTAP	102	48	6
EXTAP	102	96	0
EXTAP	102	96	6
BXTAP	102	144	1
BXTAP	102	144	5

T_REC_TAP	321
T_REC_BRK	24
T_REC_XTP	55
T_REC_BXX	34
T_REC_HLD	36
T_REC_XHO	6
T_REC_BHO	1
T_REC_BXH	6
T_REC_STR	19
T_REC_BST	3
T_REC_XST	0
T_REC_XBS	3
T_REC_TTP	24
T_REC_THO	1
T_REC_SLD	23
T_REC_BSL	2
T_REC_ALL	558
T_NUM_TAP	419
T_NUM_BRK	73
T_NUM_HLD	43
T_NUM_SLD	23
T_NUM_ALL	558
T_JUDGE_TAP	483
T_JUDGE_HLD	191
T_JUDGE_SLD	25
T_JUDGE_ALL	699
TTM_EACHPAIRS	178
TTM_SCR_TAP	209500
TTM_SCR_BRK	189800
TTM_SCR_HLD	43000
TTM_SCR_SLD	34500
TTM_SCR_ALL	476800
TTM_SCR_S	455450
TTM_SCR_SS	469500
TTM_RAT_ACV	10155

