VERSION	0.00.00	1.05.00
FES_MODE	0
BPM_DEF	185.000	185.000	185.000	185.000
MET_DEF	4	4
RESOLUTION	384
CLK_DEF	384
COMPATIBLE_CODE	MA2

BPM	0	0	185.000
MET	0	0	4	4

NMTAP	6	0	1
NMTAP	6	96	1
NMTAP	6	192	1
NMTAP	7	0	0
NMTAP	7	96	0
NMTAP	7	192	0
NMTAP	8	0	7
NMTAP	8	96	7
NMTAP	8	192	7
NMTAP	9	0	6
NMTAP	9	0	7
NMTAP	10	0	0
NMTAP	10	96	0
NMTAP	10	192	1
NMTAP	11	0	2
NMTAP	11	96	2
NMTAP	11	192	3
NMTAP	12	0	4
NMTAP	12	96	4
NMTAP	12	192	5
NMTAP	13	0	6
NMTAP	13	96	6
NMTAP	13	192	6
NMTAP	13	192	7
NMTAP	14	0	7
NMTAP	14	96	7
NMTAP	14	192	6
NMTAP	15	0	5
NMTAP	15	96	5
NMTAP	15	192	4
NMTAP	16	0	3
NMTAP	16	96	3
NMTAP	16	192	2
NMTAP	17	0	1
NMTAP	17	96	1
NMTAP	17	192	0
NMTAP	17	192	1
NMHLD	18	0	2	192
NMHLD	18	192	3	192
NMHLD	19	0	4	192
NMTAP	19	192	5
NMHLD	20	0	5	192
NMHLD	20	192	4	192
NMHLD	21	0	3	192
NMTAP	21	192	2
NMHLD	22	0	1	192
NMHLD	22	192	2	192
NMHLD	23	0	3	192
NMTAP	23	192	4
NMTAP	24	0	3
NMTAP	24	0	4
NMTAP	24	192	3
NMTAP	24	192	4
NMTAP	24	288	3
NMTAP	24	288	4
EXTAP	25	0	3
EXTAP	25	0	4
NMTAP	25	192	5
NMTAP	25	288	5
NMTAP	26	0	6
NMTAP	26	96	6
NMTAP	26	192	7
NMTAP	26	288	7
NMTAP	27	0	0
NMTAP	27	96	0
NMTAP	27	192	0
NMTAP	27	192	1
NMTAP	28	0	2
NMTAP	28	96	2
NMTAP	28	192	1
NMTAP	28	288	1
NMTAP	29	0	0
NMTAP	29	96	0
BRTAP	29	192	6
BRTAP	29	192	7
NMTAP	30	0	6
NMTAP	30	96	6
NMTAP	30	192	5
NMTAP	30	288	5
NMTAP	31	0	4
NMTAP	31	96	4
NMTAP	31	192	2
NMTAP	31	192	3
NMTAP	32	0	1
NMTAP	32	96	1
NMTAP	32	192	2
NMTAP	32	288	2
NMTAP	33	0	3
NMTAP	33	96	3
EXTAP	33	192	4
EXTAP	33	192	5
NMTAP	34	0	5
NMTAP	34	96	5
NMTAP	34	192	6
NMTAP	34	288	6
NMTAP	35	0	7
NMTAP	35	96	7
NMTAP	35	192	0
NMTAP	35	192	1
NMTAP	35	288	0
NMTAP	35	288	1
NMTAP	36	0	2
NMTAP	36	96	2
NMTAP	36	192	1
NMTAP	36	288	1
NMTAP	37	0	0
NMTAP	37	96	0
EXTAP	37	192	6
EXTAP	37	192	7
NMTAP	38	0	6
NMTAP	38	96	6
NMTAP	38	192	5
NMTAP	38	288	5
NMTAP	39	0	4
NMTAP	39	96	4
NMTAP	39	192	2
NMTAP	39	192	3
NMTAP	39	288	2
NMTAP	39	288	3
NMTAP	40	0	1
NMTAP	40	96	1
NMTAP	40	192	2
NMTAP	40	288	2
NMTAP	41	0	3
NMTAP	41	96	3
NMTAP	41	192	4
NMTAP	41	192	5
NMTTP	42	0	6	B	0	L1
NMTTP	42	96	5	B	0	L1
NMTTP	42	192	4	B	0	L1
NMTTP	43	0	1	B	0	L1
NMTTP	43	96	2	B	0	L1
NMTTP	43	192	3	B	0	L1
NMTTP	44	0	6	B	0	L1
NMTTP	44	96	5	B	0	L1
NMTTP	44	192	4	B	0	L1
NMTTP	44	288	3	B	0	L1
NMTTP	45	0	0	C	0	L1
NMTTP	46	0	1	B	0	L1
NMTTP	46	96	2	B	0	L1
NMTTP	46	192	3	B	0	L1
NMTTP	47	0	6	B	0	L1
NMTTP	47	96	5	B	0	L1
NMTTP	47	192	4	B	0	L1
NMTTP	48	0	1	B	0	L1
NMTTP	48	96	2	B	0	L1
NMTTP	48	192	3	B	0	L1
NMTTP	48	288	4	B	0	L1
NMTTP	49	0	0	C	1	L1
NMTAP	50	0	1
NMTAP	50	96	1
NMTAP	50	192	1
NMTAP	50	288	1
NMTAP	51	0	0
NMTAP	51	96	0
NMTAP	51	192	0
NMTAP	51	288	0
NMTAP	52	0	7
NMTAP	52	96	7
NMTAP	52	192	7
NMTAP	52	288	7
NMTAP	53	0	6
NMTAP	53	0	7
NMTAP	54	0	5
NMTAP	54	96	5
NMTAP	54	192	5
NMTAP	54	288	5
NMTAP	55	0	6
NMTAP	55	96	6
NMTAP	55	192	6
NMTAP	55	288	6
NMTAP	56	0	7
NMTAP	56	96	7
NMTAP	56	192	7
NMTAP	56	288	7
NMTAP	57	0	0
NMTAP	57	0	1
NMTAP	57	192	0
NMTAP	57	192	1
NMSTR	58	0	7
NMSXR	58	0	7	96	672	3
EXSTR	61	0	2
NMSI_	61	0	2	96	288	5
NMTAP	62	192	6
NMSTR	63	0	6
NMSI_	63	0	6	96	288	2
NMTAP	64	192	1
NMSTR	65	0	0
NMSI_	65	0	0	96	288	4
NMTAP	66	192	5
NMSTR	67	0	5
NMSI_	67	0	5	96	288	0
NMTAP	68	192	1
NMSTR	69	0	2
NMSI_	69	0	2	96	288	7
NMSTR	69	0	3
NMSI_	69	0	3	96	288	6
NMTAP	70	192	4
NMTAP	70	192	5
NMSTR	71	0	4
NMSI_	71	0	4	96	288	1
NMSTR	71	0	5
NMSI_	71	0	5	96	288	0
NMTAP	73	0	7
NMTAP	73	96	7
NMTAP	73	192	7
NMTAP	74	0	0
NMTAP	74	96	0
NMTAP	74	192	0
NMTAP	75	0	0
NMTAP	75	0	7
NMTAP	75	96	0
NMTAP	75	96	7
NMTAP	75	192	1
NMTAP	75	192	6
NMTAP	75	288	1
NMTAP	75	288	6
NMTAP	76	0	2
NMTAP	76	0	5
NMTAP	76	96	2
NMTAP	76	96	5
BXTAP	76	192	3
BXTAP	76	192	4
NMTAP	77	0	2
NMTAP	77	96	2
NMTAP	77	192	1
NMTAP	77	288	1
NMTAP	78	0	0
NMTAP	78	96	0
NMTAP	78	192	7
NMTAP	78	288	7
NMTAP	79	0	6
NMTAP	79	96	6
NMTAP	79	192	5
NMTAP	79	288	5
NMTAP	80	0	3
NMTAP	80	0	4
NMTAP	80	96	3
NMTAP	80	96	4
NMTAP	80	192	3
NMTAP	80	192	4
NMTAP	81	0	5
NMTAP	81	96	5
NMTAP	81	192	6
NMTAP	81	192	7
NMTAP	81	288	6
NMTAP	81	288	7
NMTAP	82	0	0
NMTAP	82	96	0
NMTAP	82	192	0
NMTAP	82	192	1
NMTAP	83	0	2
NMTAP	83	96	2
NMTAP	83	192	0
NMTAP	83	192	1
NMTAP	83	288	0
NMTAP	83	288	1
NMTAP	84	0	7
NMTAP	84	96	7
BRTAP	84	192	6
BRTAP	84	192	7
NMTAP	85	0	6
NMTAP	85	96	6
NMTAP	85	192	4
NMTAP	85	192	5
NMTAP	85	288	4
NMTAP	85	288	5
NMTAP	86	0	3
NMTAP	86	96	3
NMTAP	86	192	2
NMTAP	86	192	3
NMTAP	87	0	1
NMTAP	87	96	1
NMTAP	87	192	2
NMTAP	87	192	3
NMTAP	87	288	2
NMTAP	87	288	3
NMTAP	88	0	4
NMTAP	88	96	4
NMTAP	88	192	4
NMTAP	88	192	5
NMTAP	89	0	6
NMTAP	89	96	6
NMTAP	89	192	6
NMTAP	89	192	7
NMTAP	89	288	6
NMTAP	89	288	7
NMTAP	90	0	5
NMTAP	90	96	5
NMTAP	90	192	4
NMTAP	90	192	5
NMTAP	90	288	4
NMTAP	90	288	5
NMTAP	91	0	3
NMTAP	91	96	3
NMTAP	91	192	2
NMTAP	91	192	3
NMTAP	91	288	2
NMTAP	91	288	3
NMTAP	92	0	1
NMTAP	92	96	1
NMTAP	92	192	0
NMTAP	92	192	1
NMSTR	93	0	0
NMSI_	93	0	0	96	288	3
NMSTR	93	0	7
NMSI_	93	0	7	96	288	4
NMTHO	95	0	0	336	C	1	L1
NMTAP	97	0	0
NMTAP	97	0	1
NMTAP	97	96	0
NMTAP	97	96	1
NMTAP	97	192	2
NMTAP	97	192	7
NMTAP	98	0	2
NMTAP	98	0	3
NMTAP	98	96	2
NMTAP	98	96	3
NMTAP	98	192	1
NMTAP	98	192	4
NMTAP	99	0	4
NMTAP	99	0	5
NMTAP	99	96	4
NMTAP	99	96	5
NMTAP	99	192	3
NMTAP	99	192	6
NMTAP	100	0	6
NMTAP	100	0	7
NMTAP	100	96	6
NMTAP	100	96	7
NMTAP	100	192	0
NMTAP	100	192	5
NMTAP	101	0	7
NMTAP	101	96	7
NMTAP	101	192	0
NMTAP	101	288	0
NMSTR	102	0	7
NMSI_	102	0	7	96	288	3

T_REC_TAP	270
T_REC_BRK	4
T_REC_XTP	6
T_REC_BXX	2
T_REC_HLD	9
T_REC_XHO	0
T_REC_BHO	0
T_REC_BXH	0
T_REC_STR	11
T_REC_BST	0
T_REC_XST	1
T_REC_XBS	0
T_REC_TTP	22
T_REC_THO	1
T_REC_SLD	12
T_REC_BSL	0
T_REC_ALL	338
T_NUM_TAP	310
T_NUM_BRK	6
T_NUM_HLD	10
T_NUM_SLD	12
T_NUM_ALL	338
T_JUDGE_TAP	316
T_JUDGE_HLD	43
T_JUDGE_SLD	12
T_JUDGE_ALL	371
TTM_EACHPAIRS	65
TTM_SCR_TAP	155000
TTM_SCR_BRK	15600
TTM_SCR_HLD	10000
TTM_SCR_SLD	18000
TTM_SCR_ALL	198600
TTM_SCR_S	192100
TTM_SCR_SS	198000
TTM_RAT_ACV	10030

