VERSION	0.00.00	1.05.00
FES_MODE	0
BPM_DEF	185.000	185.000	185.000	185.000
MET_DEF	4	4
RESOLUTION	384
CLK_DEF	384
COMPATIBLE_CODE	MA2

BPM	0	0	185.000
MET	0	0	4	4

EXTAP	6	0	0
NMTAP	7	0	0
NMTAP	8	0	7
NMTAP	9	0	7
NMTAP	10	0	0
NMTAP	10	192	0
NMTAP	11	0	1
NMTAP	12	0	2
NMTAP	12	192	2
NMTAP	13	0	3
NMTAP	14	0	4
NMTAP	14	192	4
NMTAP	15	0	5
NMTAP	16	0	6
NMTAP	16	192	6
NMTAP	17	0	0
NMTAP	17	0	7
NMHLD	18	0	6	384
NMHLD	18	0	7	384
NMHLD	20	0	4	384
NMHLD	20	0	5	384
NMHLD	22	0	2	384
NMHLD	22	0	3	384
NMHLD	24	0	0	384
NMHLD	24	0	1	384
BXTAP	26	0	0
NMTAP	26	192	0
NMTAP	27	0	1
NMTAP	27	192	1
NMTAP	28	0	2
NMTAP	28	192	2
NMTAP	29	0	3
NMTAP	29	0	4
NMTAP	30	0	4
NMTAP	30	192	4
NMTAP	31	0	5
NMTAP	31	192	5
NMTAP	32	0	6
NMTAP	32	192	6
NMTAP	33	0	0
NMTAP	33	0	7
NMTAP	34	0	7
NMTAP	34	192	7
NMTAP	35	0	6
NMTAP	35	192	6
NMTAP	36	0	5
NMTAP	36	192	5
EXTAP	37	0	3
EXTAP	37	0	4
NMTAP	38	0	3
NMTAP	38	192	3
NMTAP	39	0	2
NMTAP	39	192	2
NMTAP	40	0	1
NMTAP	40	192	1
NMTAP	41	0	0
NMTAP	41	0	7
NMSTR	42	0	0
NMSI_	42	0	0	96	288	4
NMSTR	44	0	7
NMSI_	44	0	7	96	288	3
NMSTR	46	0	1
NMSI_	46	0	1	96	288	5
NMSTR	48	0	6
NMSI_	48	0	6	96	288	2
NMTTP	50	0	0	B	0	L1
NMTTP	51	0	1	B	0	L1
NMTTP	52	0	2	B	0	L1
NMTTP	53	0	3	B	0	L1
NMTTP	54	0	4	B	0	L1
NMTTP	55	0	5	B	0	L1
NMTTP	56	0	6	B	0	L1
NMTTP	57	0	7	B	0	L1
NMTHO	58	0	0	576	C	1	L1
NMTAP	61	0	7
NMTAP	61	192	7
NMTAP	62	0	6
NMTAP	62	0	7
NMTAP	63	0	5
NMTAP	63	192	5
NMTAP	64	0	3
NMTAP	64	0	4
NMTAP	65	0	3
NMTAP	65	192	3
NMTAP	66	0	2
NMTAP	66	0	3
NMTAP	67	0	1
NMTAP	67	192	1
NMTAP	68	0	0
NMTAP	68	0	7
NMSTR	69	0	7
NMSI_	69	0	7	96	288	4
NMSTR	71	0	3
NMSI_	71	0	3	96	288	0
EXHLD	73	0	0	384
EXHLD	73	0	7	384
NMTAP	75	0	0
NMTAP	75	96	0
NMTAP	75	192	0
NMTAP	76	0	0
NMTAP	76	0	1
NMTAP	76	192	0
NMTAP	76	192	1
NMTAP	77	0	2
NMTAP	77	96	2
NMTAP	77	192	2
NMTAP	78	0	3
NMTAP	78	0	4
NMTAP	78	192	3
NMTAP	78	192	4
NMTAP	79	0	5
NMTAP	79	96	5
NMTAP	79	192	5
NMTAP	80	0	6
NMTAP	80	0	7
NMTAP	80	192	6
NMTAP	80	192	7
EXTAP	81	0	7
NMTAP	81	96	7
NMTAP	81	192	7
NMTAP	82	0	6
NMTAP	82	0	7
NMTAP	82	192	6
NMTAP	82	192	7
NMTAP	83	0	5
NMTAP	83	96	5
NMTAP	83	192	5
EXTAP	84	0	3
EXTAP	84	0	4
BRTAP	84	192	3
BRTAP	84	192	4
NMTAP	85	0	2
NMTAP	85	96	2
NMTAP	85	192	2
NMTAP	86	0	0
NMTAP	86	0	1
NMTAP	86	192	0
NMTAP	86	192	1
NMTAP	87	0	2
NMTAP	87	96	2
NMTAP	87	192	2
NMTAP	88	0	3
NMTAP	88	0	4
NMTAP	88	192	3
NMTAP	88	192	4
NMTAP	89	0	5
NMTAP	89	96	5
NMTAP	89	192	5
NMTAP	90	0	6
NMTAP	90	0	7
NMTAP	90	192	6
NMTAP	90	192	7
NMTAP	91	0	0
NMTAP	91	96	0
NMTAP	91	192	0
NMTAP	92	0	0
NMTAP	92	0	7
NMTAP	92	192	0
NMTAP	92	192	7
NMSTR	93	0	0
NMSI_	93	0	0	96	288	3
NMSTR	95	0	4
NMSI_	95	0	4	96	288	7
EXTAP	97	0	0
NMTAP	97	96	0
NMTAP	97	192	0
NMTAP	98	0	1
NMTAP	98	96	1
NMTAP	98	192	0
NMTAP	98	192	1
NMTAP	99	0	7
NMTAP	99	96	7
NMTAP	99	192	7
NMTAP	100	0	6
NMTAP	100	96	6
NMTAP	100	192	6
NMTAP	100	192	7
EXSTR	101	0	0
NMSI_	101	0	0	96	432	4

T_REC_TAP	132
T_REC_BRK	2
T_REC_XTP	7
T_REC_BXX	1
T_REC_HLD	8
T_REC_XHO	2
T_REC_BHO	0
T_REC_BXH	0
T_REC_STR	8
T_REC_BST	0
T_REC_XST	1
T_REC_XBS	0
T_REC_TTP	8
T_REC_THO	1
T_REC_SLD	9
T_REC_BSL	0
T_REC_ALL	179
T_NUM_TAP	156
T_NUM_BRK	3
T_NUM_HLD	11
T_NUM_SLD	9
T_NUM_ALL	179
T_JUDGE_TAP	159
T_JUDGE_HLD	92
T_JUDGE_SLD	9
T_JUDGE_ALL	260
TTM_EACHPAIRS	34
TTM_SCR_TAP	78000
TTM_SCR_BRK	7800
TTM_SCR_HLD	11000
TTM_SCR_SLD	13500
TTM_SCR_ALL	110300
TTM_SCR_S	106700
TTM_SCR_SS	110000
TTM_RAT_ACV	10027

