VERSION	0.00.00	1.05.00
FES_MODE	0
BPM_DEF	208.000	208.000	208.000	208.000
MET_DEF	4	4
RESOLUTION	384
CLK_DEF	384
COMPATIBLE_CODE	MA2

BPM	0	0	208.000
MET	0	0	4	4

NMHLD	1	192	2	192
NMHLD	2	0	3	192
NMHLD	2	192	4	192
NMSTR	3	0	5
NMSUR	3	0	5	96	480	0
NMTTP	4	0	0	C	0	M1
NMTTP	4	192	3	E	0	M1
NMTTP	5	0	1	E	0	M1
NMTTP	5	96	0	E	0	M1
NMTTP	5	192	7	E	0	M1
NMTTP	5	288	6	E	0	M1
NMTTP	6	0	5	E	0	M1
NMTTP	6	96	4	E	0	M1
NMTTP	6	192	3	E	0	M1
NMTTP	6	288	0	C	0	M1
NMTTP	6	288	2	E	0	M1
NMHLD	7	0	0	144
NMTAP	7	144	7
NMSTR	7	192	7
NMSXL	7	192	7	96	432	2
NMHLD	9	192	3	192
NMHLD	10	0	2	192
NMHLD	10	192	1	192
NMSTR	11	0	0
NMSUL	11	0	0	96	480	5
NMTTP	12	0	0	C	0	M1
NMTTP	12	192	2	E	0	M1
NMTTP	13	0	0	E	0	M1
NMTTP	13	96	7	E	0	M1
NMTTP	13	192	6	E	0	M1
NMTTP	13	288	5	E	0	M1
NMTHO	14	0	0	192	C	0	M1
NMTTP	14	0	4	E	0	M1
NMTTP	14	192	1	B	0	M1
NMTTP	14	192	6	B	0	M1
BXSTR	15	0	0
BRSSL	15	0	0	96	672	4
BXSTR	15	0	7
NMSSR	15	0	7	96	672	3
CNSI_	17	0	3	0	192	5
CNSI_	17	0	4	0	192	2
CNSI_	17	192	2	0	192	6
CNSI_	17	192	5	0	192	1
CNSCL	18	0	1	0	192	0
CNSCR	18	0	6	0	192	7
NMTAP	19	0	1
NMTAP	19	48	2
NMHLD	19	96	3	96
NMTAP	19	192	5
NMHLD	19	240	5	96
NMTAP	19	336	4
NMHLD	20	0	4	96
NMTAP	20	96	6
NMHLD	20	144	6	96
NMTTP	20	240	5	E	0	M1
NMTTP	20	288	4	E	0	M1
NMTAP	21	0	6
NMTAP	21	48	7
NMHLD	21	96	0	96
NMTAP	21	192	6
NMHLD	21	240	6	96
NMTAP	21	336	7
BXTAP	22	0	0
BXTAP	22	0	7
BXTAP	22	72	4
BXTAP	22	72	6
BXTAP	22	144	1
BXTAP	22	144	3
BXTAP	22	216	6
BXTAP	22	216	7
BXTAP	22	288	0
BXTAP	22	288	1
NMHLD	23	0	2	48
NMHLD	23	72	2	48
NMSTR	23	144	1
NMSI_	23	144	1	96	48	4
NMTAP	23	144	3
NMTAP	23	240	4
NMHLD	23	288	5	48
NMHLD	23	360	5	48
NMTAP	24	48	4
NMSTR	24	48	6
BRSI_	24	48	6	96	48	3
NMTAP	24	144	2
NMSTR	24	192	1
BRSCL	24	192	1	96	48	6
NMTAP	24	288	3
NMHLD	25	0	5	48
NMHLD	25	72	5	48
NMTAP	25	144	4
NMSTR	25	144	6
NMSI_	25	144	6	96	48	3
NMTAP	25	240	3
NMHLD	25	288	2	48
NMHLD	25	360	2	48
NMSTR	26	48	1
BRSI_	26	48	1	96	48	5
NMTAP	26	48	3
NMTAP	26	144	5
NMSTR	26	192	6
BRSCR	26	192	6	96	48	1
NMTAP	26	288	4
NMHLD	27	0	2	48
NMHLD	27	72	2	48
NMSTR	27	144	1
BRSI_	27	144	1	96	48	5
NMTAP	27	144	3
NMTAP	27	240	7
NMHLD	27	288	6	48
NMHLD	27	360	6	48
NMTAP	28	48	5
NMTAP	28	48	7
NMTAP	28	96	0
NMTAP	28	144	1
NMTAP	28	192	2
NMTAP	28	192	3
NMTAP	28	240	4
NMTAP	28	288	3
NMTAP	28	288	5
NMTAP	28	336	6
NMHLD	29	0	4	48
NMHLD	29	0	7	48
NMHLD	29	72	4	48
NMHLD	29	72	7	48
BRTAP	29	144	5
BRTAP	29	144	6
NMTAP	29	240	4
NMTAP	29	240	5
NMHLD	29	288	2	48
NMHLD	29	288	3	48
NMHLD	29	360	2	48
NMHLD	29	360	3	48
BRSTR	30	48	1
NMSLL	30	48	1	96	96	5
BRTAP	30	48	4
CNSV_	30	240	5	0	144	3
BXTAP	31	0	6
NMTAP	31	96	6
EXTAP	31	144	5
NMHLD	31	192	4	192
NMTAP	31	192	6
NMTAP	31	288	6
NMTAP	32	0	5
NMTAP	32	96	5
NMTAP	32	144	4
NMTAP	32	192	5
NMTAP	32	240	6
NMTAP	32	288	5
NMTAP	32	336	7
NMSTR	33	0	0
NMSI_	33	0	0	96	96	4
NMTAP	33	0	5
NMTAP	33	96	5
CNSI_	33	192	4	0	192	7
NMTAP	33	192	5
NMTAP	33	288	5
NMTAP	34	0	5
NMTAP	34	96	5
NMTAP	34	192	4
NMTAP	34	192	5
NMTAP	34	288	3
NMTAP	34	288	5
NMTAP	34	336	2
EXTAP	35	0	1
NMTAP	35	0	4
NMTAP	35	96	1
EXTAP	35	144	2
NMTAP	35	192	1
NMHLD	35	192	3	192
NMTAP	35	288	1
NMTAP	36	0	1
NMTAP	36	96	1
NMTAP	36	144	3
NMTAP	36	192	1
NMTAP	36	240	2
NMTAP	36	288	1
NMTAP	36	336	0
NMTAP	37	0	1
NMSTR	37	0	7
NMSI_	37	0	7	96	96	3
NMTAP	37	96	1
NMTAP	37	192	1
CNSI_	37	192	3	0	96	0
CNSI_	37	288	0	0	96	4
NMTAP	37	288	1
NMTAP	38	0	1
NMTAP	38	96	1
NMTAP	38	192	1
NMTAP	38	240	0
NMTAP	38	288	1
NMTAP	38	336	2
BXTAP	39	0	1
NMTAP	39	0	3
NMTAP	39	96	1
NMTTP	39	144	3	E	0	M1
NMTAP	39	192	1
NMTTP	39	192	4	E	0	M1
NMTAP	39	288	1
NMTAP	40	0	1
EXTAP	40	0	3
NMTAP	40	96	1
NMTTP	40	144	3	E	0	M1
NMTAP	40	192	1
NMTTP	40	192	4	E	0	M1
NMTAP	40	288	1
NMTAP	40	288	3
NMTAP	41	0	1
NMSTR	41	0	3
NMSI_	41	0	3	96	96	7
NMTAP	41	96	1
NMTAP	41	192	1
NMTAP	41	240	0
NMTAP	41	288	1
NMTAP	41	336	2
NMSTR	42	0	0
NMSUL	42	0	0	96	96	3
NMTAP	42	0	1
NMTAP	42	96	1
NMTAP	42	192	1
NMTAP	42	240	2
NMTAP	42	288	1
NMTAP	42	288	3
NMTAP	42	336	4
NMTAP	43	0	3
BXTAP	43	0	5
NMTAP	43	96	5
EXTAP	43	144	4
NMTAP	43	192	4
NMTAP	43	192	5
NMTAP	43	288	5
NMTAP	43	336	7
NMTAP	44	0	6
NMSTR	44	0	7
NMSCR	44	0	7	96	192	4
NMTAP	44	96	5
NMTAP	44	144	5
NMTAP	44	192	5
NMTAP	44	240	5
NMTAP	44	288	5
NMTAP	44	336	5
BRTAP	45	0	6
BRSTR	45	48	6
NMSI_	45	48	6	96	48	1
NMSI_	45	48	6	96	48	3
NMTTP	45	144	6	A	1	M1
BRTAP	45	288	2
BRTAP	45	288	4
BRTAP	45	336	2
BRTAP	45	336	4
BRTAP	46	48	0
BRHLD	46	48	6	96
NMTAP	46	144	1
NMTAP	46	168	7
NMTAP	46	192	1
NMTAP	46	216	7
NMTAP	46	240	1
NMTAP	46	264	7
NMTAP	46	288	1
NMTAP	46	312	7
NMTAP	46	336	1
NMTAP	46	360	7
NMSTR	47	0	1
NMSCR	47	0	1	96	48	4
NMTAP	47	96	0
EXTAP	47	144	0
EXTAP	47	168	7
EXSTR	47	192	6
NMSI_	47	192	6	96	48	2
NMTAP	47	288	7
NMTAP	48	0	1
NMSTR	48	0	3
NMSI_	48	0	3	96	48	5
NMTAP	48	96	2
NMTAP	48	144	1
NMTAP	48	192	0
NMTAP	48	240	7
NMTAP	48	288	6
NMTAP	48	336	5
NMTAP	49	0	2
NMSTR	49	0	4
NMSI_	49	0	4	96	48	0
NMTAP	49	96	1
EXTAP	49	144	1
EXTAP	49	168	2
EXSTR	49	192	3
NMSI_	49	192	3	96	48	7
NMSTR	49	288	3
NMSI_	49	288	3	96	48	5
NMSTR	50	0	3
NMSCL	50	0	3	96	48	0
NMTAP	50	96	3
NMTAP	50	192	6
NMTAP	50	192	7
NMTAP	50	240	5
NMTAP	50	288	0
NMTAP	50	336	1
NMTAP	51	0	2
NMSTR	51	0	6
NMSCR	51	0	6	96	48	1
NMTAP	51	96	4
EXTAP	51	144	4
EXTAP	51	168	3
EXSTR	51	192	2
NMSI_	51	192	2	96	48	6
NMHLD	51	288	4	96
NMSTR	52	0	7
NMSI_	52	0	7	96	48	1
NMTAP	52	96	6
NMTAP	52	144	5
NMTAP	52	192	4
NMTAP	52	240	3
NMTAP	52	288	2
NMTAP	52	288	4
NMTAP	52	336	1
NMSTR	53	0	0
NMSI_	53	0	0	96	48	4
NMTAP	53	0	3
NMTAP	53	96	5
EXTAP	53	144	5
EXTAP	53	168	6
EXSTR	53	192	7
NMSI_	53	192	7	96	48	3
NMSTR	53	288	7
NMSI_	53	288	7	96	48	1
NMSTR	54	0	7
NMSCL	54	0	7	96	48	4
NMTAP	54	96	7
NMTAP	54	192	2
NMTAP	54	192	3
NMTAP	54	240	1
NMTAP	54	288	7
NMTAP	54	336	6
BRSTR	55	0	3
NMSCL	55	0	3	96	96	0
BRTAP	55	0	5
NMSTR	55	96	0
NMSCL	55	96	0	96	96	5
NMTAP	55	192	5
NMSTR	55	288	3
NMSV_	55	288	3	96	96	6
NMSTR	56	0	6
NMSCR	56	0	6	96	96	1
NMSTR	56	96	1
NMSV_	56	96	1	96	96	4
NMTAP	56	192	2
NMSTR	56	288	3
NMSUL	56	288	3	96	96	5
NMTAP	57	0	5
EXSTR	57	96	6
NMSUL	57	96	6	96	96	0
NMTAP	57	192	4
EXTAP	57	288	3
NMTAP	58	0	1
NMTAP	58	24	0
NMTAP	58	48	1
NMTAP	58	96	6
NMTAP	58	120	7
NMTAP	58	144	6
NMTAP	58	192	2
NMTAP	58	216	3
NMTAP	58	240	2
NMTAP	58	288	5
NMTAP	58	312	4
NMTAP	58	336	5
NMTAP	59	0	3
NMSTR	59	0	6
NMSI_	59	0	6	96	48	4
NMSTR	59	96	2
NMSI_	59	96	2	96	48	0
NMTAP	59	96	6
NMTAP	59	192	2
NMSTR	59	192	6
NMSI_	59	192	6	96	48	2
NMTAP	59	288	6
NMTAP	59	288	7
NMSTR	60	0	0
NMSI_	60	0	0	96	48	6
NMTAP	60	96	0
NMSTR	60	96	1
NMSI_	60	96	1	96	48	3
NMTAP	60	192	1
NMSTR	60	192	4
NMSI_	60	192	4	96	48	0
EXTAP	60	288	2
NMTAP	60	288	4
NMTAP	61	0	1
NMTAP	61	48	1
NMTAP	61	96	7
NMTAP	61	144	7
NMTAP	61	192	5
NMTAP	61	240	5
NMTAP	61	288	3
NMTAP	61	336	3
NMTAP	62	0	2
NMTAP	62	0	4
NMSTR	62	48	1
NMSI_	62	48	1	96	48	4
NMSTR	62	48	5
NMSI_	62	48	5	96	48	0
BRTAP	62	144	1
BRTAP	62	144	5
NMTAP	62	240	3
NMTAP	62	240	7
NMSTR	62	288	2
NMSI_	62	288	2	96	48	7
NMSTR	62	288	6
NMSI_	62	288	6	96	48	3
BRSTR	63	0	2
BRSLR	63	0	2	96	480	6
BRSTR	63	0	6
NMSLR	63	0	6	96	480	2
CNSLR	64	192	2	0	576	6
CNSLR	64	192	6	0	576	2
NMSTR	67	0	6
NMSCL	67	0	6	96	288	3
NMTTP	67	192	4	B	0	M1
NMTTP	67	192	5	B	0	M1
NMSTR	68	0	2
NMSCL	68	0	2	96	288	7
NMTTP	68	96	4	E	0	M1
NMTTP	68	192	5	E	0	M1
NMSTR	69	0	6
NMSI_	69	0	6	96	288	3
NMTAP	69	192	7
NMSTR	69	288	7
NMSI_	69	288	7	96	192	2
CNSI_	70	0	3	0	192	6
NMHLD	71	0	4	288
NMHLD	71	0	5	336
NMTHO	72	0	3	288	B	0	M1
NMTHO	72	96	4	192	B	0	M1
NMTHO	72	192	5	96	B	0	M1
NMTTP	72	288	6	B	0	M1
NMHLD	73	0	2	288
NMTAP	73	0	7
NMTAP	73	192	0
NMSTR	73	288	1
NMSCL	73	288	1	96	240	5
NMSUL	73	288	1	96	240	4
NMHLD	75	0	4	96
NMTAP	75	144	3
NMTAP	75	144	5
NMHLD	75	192	3	384
NMHLD	75	192	5	192
NMHLD	76	192	4	192
NMTHO	77	0	2	384	E	0	M1
NMTHO	77	0	3	384	E	0	M1
NMSTR	77	288	4
NMSSL	77	288	4	96	192	0
BXTAP	79	0	1
NMTAP	79	24	5
NMTAP	79	48	4
NMTAP	79	72	3
NMTAP	79	96	2
BXTAP	79	144	7
NMTAP	79	168	1
NMTAP	79	192	2
NMTAP	79	216	3
NMTAP	79	240	4
BXTAP	79	288	0
NMTAP	79	312	6
NMTAP	79	336	5
NMTAP	79	360	4
NMTAP	80	0	3
BXTAP	80	48	6
NMTAP	80	72	2
NMTAP	80	96	3
NMTAP	80	120	4
NMTAP	80	144	5
BXSTR	80	192	0
NMSI_	80	192	0	96	48	4
BXSTR	80	192	1
NMSI_	80	192	1	96	48	4
BRTAP	80	288	0
BRTAP	80	288	1
BXTAP	81	0	6
NMTAP	81	24	3
NMTAP	81	48	2
NMTAP	81	72	1
NMTAP	81	96	0
BXTAP	81	144	4
NMTAP	81	168	6
NMTAP	81	192	7
NMTAP	81	216	0
NMTAP	81	240	1
BXTAP	81	288	5
NMTAP	81	312	1
NMTAP	81	336	0
NMTAP	81	360	7
NMTAP	82	0	6
BXTAP	82	48	2
NMTAP	82	72	5
NMTAP	82	96	6
NMTAP	82	120	7
NMTAP	82	144	0
BXSTR	82	192	0
NMSI_	82	192	0	96	48	4
BXSTR	82	192	1
NMSI_	82	192	1	96	48	4
BRSTR	82	288	0
BRSCL	82	288	0	96	576	0
BRSCR	82	288	0	96	576	0
BRTAP	82	288	1
NMTTP	83	0	0	A	1	M1
NMTTP	85	0	0	D	0	M1
NMTTP	85	24	1	D	0	M1
NMTTP	85	48	2	D	0	M1
NMTTP	85	72	3	D	0	M1
NMTTP	85	96	4	D	0	M1
NMTTP	85	120	5	D	0	M1
NMTTP	85	144	6	D	0	M1
NMTTP	85	168	7	D	0	M1
NMTTP	85	192	0	D	0	M1
EXTAP	85	192	3
NMTAP	85	216	2
NMTAP	85	240	1
NMTAP	85	264	0
NMTAP	85	288	7
NMTAP	85	312	6
NMTAP	85	336	5
NMTAP	85	360	4
NMTHO	86	0	0	192	C	0	M1
EXTAP	86	0	3
NMSTR	86	288	0
NMSF_	86	288	0	96	48	4
BRTAP	87	0	0
NMSTR	87	96	6
NMSI_	87	96	6	96	48	3
NMSTR	87	144	7
NMSI_	87	144	7	96	48	2
NMTAP	87	192	6
NMTAP	87	240	7
NMSTR	87	288	5
BRSI_	87	288	5	96	48	1
NMTAP	87	336	3
BRTAP	88	0	5
NMSTR	88	96	0
NMSCL	88	96	0	96	48	5
NMSTR	88	96	4
NMSCL	88	96	4	96	48	1
NMSTR	88	192	0
NMSF_	88	192	0	96	48	4
NMTAP	88	192	4
EXTAP	88	288	0
NMTAP	89	0	2
NMSTR	89	0	6
NMSLL	89	0	6	96	96	1
NMSTR	89	96	1
NMSLR	89	96	1	96	96	6
NMSTR	89	192	6
NMSCL	89	192	6	96	48	4
NMTAP	89	288	0
NMTAP	89	336	1
CNSI_	89	336	4	0	48	0
NMSTR	90	0	2
NMSI_	90	0	2	96	48	7
NMSTR	90	96	2
NMSI_	90	96	2	96	48	5
NMSTR	90	96	6
NMSI_	90	96	6	96	48	1
NMTAP	90	192	2
NMTAP	90	192	6
NMSTR	90	288	0
NMSI_	90	288	0	96	48	5
EXTAP	90	288	4
NMTAP	91	0	0
NMSTR	91	0	2
NMSI_	91	0	2	96	48	7
NMTAP	91	96	2
NMSTR	91	96	4
NMSI_	91	96	4	96	48	1
NMTAP	91	192	4
NMSTR	91	192	6
NMSI_	91	192	6	96	48	3
NMSTR	91	288	0
NMSCL	91	288	0	96	48	5
NMTAP	91	288	6
NMSTR	92	0	0
NMSI_	92	0	0	96	48	2
NMSI_	92	0	0	96	48	3
NMSTR	92	96	0
NMSI_	92	96	0	96	48	5
NMSI_	92	96	0	96	48	6
NMSTR	92	192	0
NMSF_	92	192	0	96	48	4
EXTAP	92	288	0
BRTAP	93	0	0
BXTAP	93	0	6
BRTAP	93	48	0
BXTAP	93	48	6
NMTAP	93	96	0
NMTAP	93	120	1
NMTAP	93	144	2
NMTAP	93	168	3
BXTAP	93	192	4
BRTAP	93	192	7
BXTAP	93	240	4
BRTAP	93	240	7
NMTAP	93	288	7
NMTAP	93	312	6
NMTAP	93	336	5
NMTAP	93	360	4
BXTAP	94	0	1
BXTAP	94	0	3
BXTAP	94	48	0
BXTAP	94	48	4
BRTAP	94	144	3
BRTAP	94	144	5
BRSTR	94	192	2
NMSI_	94	192	2	96	48	7
BRSTR	94	192	6
NMSI_	94	192	6	96	48	3
NMTAP	94	288	2
NMTAP	94	288	6
BRTAP	95	0	0
BRTAP	95	0	4
NMTAP	95	48	2
NMTAP	95	72	3
NMTAP	95	96	2
NMTAP	95	120	3
BRTAP	95	144	1
NMTAP	95	192	5
NMTAP	95	216	4
NMTAP	95	240	5
NMTAP	95	264	4
BRTAP	95	288	6
NMTAP	95	336	1
NMTAP	95	360	3
NMTAP	96	0	1
NMTAP	96	24	3
BRTAP	96	48	0
NMTAP	96	96	6
NMTAP	96	120	4
NMTAP	96	144	6
NMTAP	96	168	4
BRTAP	96	192	7
NMTAP	96	216	6
NMTAP	96	240	5
NMTAP	96	264	4
NMTAP	96	288	1
NMTAP	96	312	2
NMTAP	96	336	3
NMTAP	96	360	4
BRTAP	97	0	7
NMTAP	97	48	1
NMTAP	97	72	0
NMTAP	97	96	1
NMTAP	97	120	0
BRTAP	97	144	2
NMTAP	97	192	6
NMTAP	97	216	7
NMTAP	97	240	6
NMTAP	97	264	7
BRTAP	97	288	5
NMTAP	97	336	1
NMTAP	97	360	3
NMTAP	98	0	2
NMTAP	98	24	3
BRTAP	98	48	1
NMTAP	98	96	6
NMTAP	98	120	4
NMTAP	98	144	5
NMTAP	98	168	3
BRSTR	98	192	4
NMSI_	98	192	4	96	48	1
NMSI_	98	192	4	96	48	7
NMTAP	98	288	4
NMSTR	99	0	2
NMSCR	99	0	2	96	48	5
NMTAP	99	48	1
NMTAP	99	96	0
NMTAP	99	144	7
NMSTR	99	192	6
NMSCR	99	192	6	96	48	1
NMTAP	99	240	5
NMTAP	99	288	4
NMTAP	99	336	3
NMSTR	100	0	2
NMSI_	100	0	2	96	48	7
NMSTR	100	48	3
NMSI_	100	48	3	96	48	6
NMTAP	100	96	2
NMTAP	100	144	3
NMSTR	100	192	0
NMSF_	100	192	0	96	48	4
NMTAP	100	288	0
BRTAP	101	0	2
BRTAP	101	0	6
NMTAP	101	96	7
NMTAP	101	120	6
NMTAP	101	144	5
NMTAP	101	168	4
NMTAP	101	192	7
NMTAP	101	216	6
NMTAP	101	240	5
NMTAP	101	264	4
NMTAP	101	288	7
NMTAP	101	312	6
NMTAP	101	336	5
NMTAP	101	360	4
NMTAP	102	0	0
NMTAP	102	0	3
NMTAP	102	24	1
NMTAP	102	48	2
NMTAP	102	72	3
NMTAP	102	96	0
NMTAP	102	96	4
NMTAP	102	120	7
NMTAP	102	144	6
NMTAP	102	168	5
NMTAP	102	192	3
NMTAP	102	192	4
NMTAP	102	216	2
NMTAP	102	240	1
NMTAP	102	264	0
NMTAP	102	288	6
NMTAP	102	288	7
NMTAP	102	312	5
NMTAP	102	336	4
NMTAP	102	360	3
BRTAP	103	0	0
NMTAP	103	24	1
NMTAP	103	48	2
NMTAP	103	72	3
NMTAP	103	96	4
NMTAP	103	96	7
NMTAP	103	120	0
NMTAP	103	144	1
NMTAP	103	168	2
NMTAP	103	192	3
NMTAP	103	192	6
NMTAP	103	216	7
NMTAP	103	240	0
NMTAP	103	264	1
NMHLD	103	288	2	48
NMHLD	103	288	6	48
NMTAP	104	0	6
NMTAP	104	12	5
NMTAP	104	24	4
NMTAP	104	36	3
NMTAP	104	48	2
NMTAP	104	60	1
NMTAP	104	72	0
NMTAP	104	84	7
NMTAP	104	96	6
NMTAP	104	108	5
NMTAP	104	120	4
NMTAP	104	132	3
NMTAP	104	144	2
NMTAP	104	156	1
NMTAP	104	168	0
NMTAP	104	180	7
NMTTP	104	192	4	B	0	M1
NMTTP	104	192	5	B	0	M1
NMTTP	104	192	5	E	1	M1
NMTAP	104	192	6
BRTAP	104	288	0
BRTAP	104	288	7
NMHLD	105	0	0	48
NMHLD	105	0	1	48
NMHLD	105	72	2	48
NMHLD	105	72	3	48
NMTAP	105	144	4
NMTAP	105	144	5
NMTAP	105	192	3
NMTAP	105	192	6
NMHLD	105	288	6	48
NMHLD	105	288	7	48
NMHLD	105	360	4	48
NMHLD	105	360	5	48
NMTAP	106	48	2
NMTAP	106	48	3
NMHLD	106	96	1	96
NMTAP	106	96	4
NMTAP	106	192	0
NMTAP	106	216	7
NMTAP	106	240	6
NMTAP	106	264	5
NMTAP	106	288	0
NMTAP	106	312	1
NMTAP	106	336	2
NMTAP	106	360	3
NMHLD	107	0	4	48
NMHLD	107	0	5	48
NMHLD	107	72	6	48
NMHLD	107	72	7	48
NMTAP	107	144	0
NMTAP	107	144	1
NMTAP	107	192	2
NMTAP	107	192	7
NMHLD	107	288	2	48
NMHLD	107	288	3	48
NMHLD	107	360	0	48
NMHLD	107	360	1	48
NMTAP	108	48	2
NMTAP	108	48	7
NMSTR	108	96	3
NMSCL	108	96	3	96	48	0
NMSTR	108	96	6
NMSCL	108	96	6	96	48	3
NMSTR	108	192	3
NMSI_	108	192	3	96	48	7
NMTAP	108	192	6
NMHLD	109	0	0	48
NMHLD	109	0	6	48
NMHLD	109	72	1	48
NMHLD	109	72	2	48
NMTAP	109	144	4
NMTAP	109	144	5
NMTAP	109	192	3
NMTAP	109	192	6
NMTAP	109	240	3
NMTAP	109	240	6
NMHLD	109	288	1	48
NMHLD	109	288	7	48
NMHLD	109	360	5	48
NMHLD	109	360	6	48
NMTAP	110	48	2
NMTAP	110	48	3
NMTAP	110	96	1
NMTAP	110	96	4
NMTAP	110	144	0
NMTAP	110	144	5
NMTAP	110	192	6
NMTAP	110	216	7
NMTAP	110	240	6
NMTAP	110	264	7
NMTAP	110	288	5
NMTAP	110	312	0
NMTAP	110	336	4
NMTAP	110	360	1
NMHLD	111	0	3	48
NMTAP	111	48	2
NMHLD	111	72	5	48
NMTAP	111	120	4
NMTAP	111	144	6
NMTAP	111	192	0
NMTAP	111	192	6
NMTAP	111	216	1
NMTAP	111	240	2
NMTAP	111	264	3
NMHLD	111	288	4	48
NMTAP	111	336	5
NMHLD	111	360	2	48
NMTAP	112	24	3
NMTAP	112	48	1
NMTAP	112	96	4
NMTAP	112	144	0
NMTAP	112	144	5
NMTAP	112	192	6
NMTAP	112	192	7
NMTAP	112	240	0
NMTAP	112	240	1
NMTAP	112	288	2
NMSTR	112	288	6
NMSI_	112	288	6	96	48	2
NMTAP	112	336	3
NMTAP	112	336	5
BRTAP	113	0	2
BRTAP	113	0	6
NMSTR	113	96	1
NMSCL	113	96	1	96	96	6
NMTAP	113	192	4
NMTAP	113	288	5
NMTAP	113	336	5
NMTAP	113	360	4
NMHLD	114	0	6	96
NMSTR	114	96	2
NMSCL	114	96	2	96	96	7
NMTAP	114	192	5
NMTAP	114	288	6
NMTAP	114	336	6
NMTAP	114	360	7
NMSTR	115	0	5
NMSI_	115	0	5	96	96	2
NMSTR	115	96	2
NMSI_	115	96	2	96	96	7
NMSTR	115	192	7
NMSCL	115	192	7	96	96	4
EXTAP	115	288	0
EXTAP	115	336	0
EXTAP	115	360	1
EXHLD	116	0	2	96
NMTAP	116	96	7
NMTAP	116	144	7
NMTAP	116	168	6
NMHLD	116	192	5	96
NMTAP	116	288	4
NMTAP	117	0	2
NMTAP	117	0	3
NMTAP	117	48	1
NMTAP	117	48	4
NMTAP	117	96	0
NMTAP	117	96	5
NMTAP	117	144	6
NMTAP	117	168	7
NMTAP	117	192	5
NMTAP	117	240	3
NMTAP	117	240	6
NMTAP	117	288	2
NMTAP	117	288	7
NMTAP	117	336	1
NMTAP	117	360	0
NMTAP	118	0	2
NMTAP	118	48	6
NMTAP	118	72	7
NMTAP	118	96	5
NMTAP	118	144	2
NMTAP	118	168	3
NMTAP	118	192	1
NMTAP	118	240	0
NMTAP	118	240	7
BRTAP	118	288	0
BRTAP	118	288	7
BRTAP	119	0	6
NMTAP	119	24	4
NMTAP	119	48	5
BRTAP	119	72	1
NMTAP	119	96	3
NMTAP	119	120	2
BRTAP	119	144	7
NMTAP	119	192	0
NMTAP	119	192	6
NMTAP	119	240	2
NMTAP	119	240	4
BRTAP	119	288	1
NMTAP	119	312	3
NMTAP	119	336	2
BRTAP	119	360	6
NMTAP	120	0	4
NMTAP	120	24	5
BRTAP	120	48	7
EXTAP	120	96	7
NMTAP	120	144	0
NMTAP	120	168	6
NMTAP	120	192	1
NMTAP	120	216	6
NMTAP	120	240	2
NMTAP	120	264	6
NMTAP	120	288	3
NMTAP	120	312	6
NMTAP	120	336	4
NMTAP	120	360	6
NMSTR	121	0	4
BRSI_	121	0	4	96	48	0
NMTAP	121	16	5
NMTAP	121	32	6
NMTAP	121	48	7
NMTAP	121	64	0
NMTAP	121	80	1
BXHLD	121	96	2	864
BRTAP	121	96	4

T_REC_TAP	495
T_REC_BRK	49
T_REC_XTP	24
T_REC_BXX	29
T_REC_HLD	76
T_REC_XHO	1
T_REC_BHO	1
T_REC_BXH	1
T_REC_STR	82
T_REC_BST	9
T_REC_XST	5
T_REC_XBS	6
T_REC_TTP	45
T_REC_THO	7
T_REC_SLD	97
T_REC_BSL	11
T_REC_ALL	938
T_NUM_TAP	651
T_NUM_BRK	106
T_NUM_HLD	84
T_NUM_SLD	97
T_NUM_ALL	938
T_JUDGE_TAP	744
T_JUDGE_HLD	200
T_JUDGE_SLD	108
T_JUDGE_ALL	1052
TTM_EACHPAIRS	142
TTM_SCR_TAP	325500
TTM_SCR_BRK	275600
TTM_SCR_HLD	84000
TTM_SCR_SLD	145500
TTM_SCR_ALL	830600
TTM_SCR_S	795400
TTM_SCR_SS	820000
TTM_RAT_ACV	10129

