VERSION	0.00.00	1.05.00
FES_MODE	0
BPM_DEF	208.000	208.000	208.000	208.000
MET_DEF	4	4
RESOLUTION	384
CLK_DEF	384
COMPATIBLE_CODE	MA2

BPM	0	0	208.000
MET	0	0	4	4

NMHLD	1	192	2	192
NMHLD	2	0	3	192
NMHLD	2	192	4	192
NMSTR	3	0	5
NMSUL	3	0	5	96	480	4
NMHLD	5	0	5	192
NMHLD	5	192	4	192
NMHLD	6	0	3	192
NMHLD	6	192	2	192
NMSTR	7	0	3
NMSXL	7	0	3	96	576	2
NMHLD	9	192	1	384
NMTAP	10	0	3
NMHLD	10	192	3	384
NMTAP	11	0	4
NMHLD	11	192	4	384
NMTAP	12	0	6
NMHLD	12	192	6	192
NMTAP	13	0	5
NMTAP	13	192	3
NMTAP	14	0	2
NMTAP	14	0	5
NMTTP	15	0	0	C	1	M1
NMTTP	15	0	1	B	0	M1
NMTTP	15	0	2	B	0	M1
NMTTP	15	0	5	B	0	M1
NMTTP	15	0	6	B	0	M1
NMTTP	19	0	3	B	0	M1
NMTTP	19	96	2	B	0	M1
NMTTP	19	192	1	B	0	M1
NMTTP	19	288	0	B	0	M1
NMTTP	20	0	7	B	0	M1
NMTTP	20	96	6	B	0	M1
NMTTP	20	192	5	B	0	M1
NMTTP	20	288	4	B	0	M1
NMTTP	21	0	3	E	0	M1
NMTTP	21	96	4	E	0	M1
NMTTP	21	192	5	E	0	M1
NMHLD	22	0	3	288
NMHLD	22	0	4	288
EXTAP	23	0	2
EXTAP	23	0	3
NMTAP	23	72	2
NMTAP	23	72	3
NMTAP	23	144	2
NMTAP	23	144	3
EXTAP	23	288	0
EXTAP	23	288	1
NMTAP	23	360	0
NMTAP	23	360	1
NMTAP	24	48	0
NMSTR	24	48	1
NMSCR	24	48	1	96	144	5
EXTAP	25	0	4
EXTAP	25	0	6
NMTAP	25	72	4
NMTAP	25	72	6
NMTAP	25	144	4
NMTAP	25	144	6
EXTAP	25	288	1
EXTAP	25	288	3
NMTAP	25	360	1
NMTAP	25	360	3
NMTAP	26	48	1
NMSTR	26	48	3
NMSUR	26	48	3	96	144	0
EXTAP	27	0	1
EXTAP	27	0	7
NMTAP	27	72	1
NMTAP	27	72	7
NMTAP	27	144	1
NMTAP	27	144	7
EXTAP	27	288	0
EXTAP	27	288	6
NMTAP	27	360	0
NMTAP	27	360	6
NMSTR	28	48	0
NMSCR	28	48	0	96	144	3
NMSTR	28	48	6
NMSCL	28	48	6	96	144	3
EXTAP	29	0	2
EXTAP	29	0	4
NMTAP	29	72	2
NMTAP	29	72	4
NMTAP	29	144	2
NMTAP	29	144	4
EXTAP	29	288	3
EXTAP	29	288	5
NMTAP	29	360	3
NMTAP	29	360	5
NMHLD	30	48	3	144
NMHLD	30	48	5	144
NMTAP	31	0	1
NMTAP	31	96	1
NMTAP	31	192	1
NMTAP	31	192	3
NMTAP	31	288	1
NMTAP	32	0	1
NMTAP	32	0	2
NMTAP	32	96	1
NMTAP	32	192	0
NMTAP	32	192	1
NMTAP	32	288	1
NMTAP	33	0	1
NMTAP	33	0	7
NMTAP	33	96	1
NMTAP	33	192	1
NMTAP	33	192	5
NMTAP	33	288	1
NMTAP	34	0	1
NMTAP	34	0	3
NMTAP	34	96	1
NMTAP	34	192	2
NMTAP	34	192	4
NMTAP	35	0	6
NMTAP	35	96	6
NMTAP	35	192	4
NMTAP	35	192	6
NMTAP	35	288	6
NMTAP	36	0	5
NMTAP	36	0	6
NMTAP	36	96	6
NMTAP	36	192	6
NMTAP	36	192	7
NMTAP	36	288	6
NMTAP	37	0	0
NMTAP	37	0	6
NMTAP	37	96	6
NMTAP	37	192	2
NMTAP	37	192	6
NMTAP	37	288	6
NMTAP	38	0	4
NMTAP	38	0	6
NMTAP	38	96	6
NMTAP	38	192	3
NMTAP	38	192	5
NMTAP	39	0	2
NMTAP	39	96	2
NMTAP	39	192	1
NMTAP	39	192	3
NMTAP	39	288	1
NMTAP	39	288	3
NMTAP	40	0	5
NMTAP	40	96	5
NMTAP	40	192	4
NMTAP	40	192	6
NMTAP	40	288	4
NMTAP	40	288	6
NMHLD	41	0	2	192
NMTAP	41	192	3
NMTAP	41	288	3
NMHLD	42	0	5	192
NMTAP	42	192	4
NMTAP	42	288	4
NMTAP	43	0	3
NMTAP	43	0	6
NMTAP	43	96	3
NMTAP	43	96	6
NMTAP	43	192	1
NMTAP	43	192	4
NMTAP	43	288	1
NMTAP	43	288	4
NMSTR	44	0	0
NMSI_	44	0	0	96	96	3
NMSTR	44	0	5
NMSI_	44	0	5	96	96	2
NMTAP	44	288	1
NMTAP	44	288	4
EXTAP	45	0	2
EXTAP	45	48	2
NMTAP	45	144	1
NMTAP	45	144	3
EXTAP	45	288	5
EXTAP	45	336	5
NMTAP	46	48	4
NMTAP	46	48	6
BXTAP	46	192	7
BXTAP	46	288	0
NMSTR	47	0	1
NMSI_	47	0	1	96	96	4
NMTAP	47	96	7
NMSTR	47	192	6
NMSI_	47	192	6	96	96	3
NMTAP	47	288	0
NMSTR	48	0	1
NMSI_	48	0	1	96	96	4
NMTAP	48	96	7
NMTAP	48	192	6
NMTAP	48	288	6
NMTAP	49	0	6
NMTAP	49	0	7
NMTAP	49	96	4
NMTAP	49	96	5
NMTAP	49	192	2
NMTAP	49	192	3
NMTAP	49	288	0
NMTAP	49	288	1
NMTAP	50	0	6
NMTAP	50	0	7
NMTAP	50	96	4
NMTAP	50	96	5
NMTAP	50	192	4
NMTAP	50	192	5
NMSTR	51	0	6
NMSI_	51	0	6	96	48	3
NMTAP	51	96	0
NMSTR	51	192	1
NMSI_	51	192	1	96	48	4
NMTAP	51	288	7
NMSTR	52	0	6
NMSI_	52	0	6	96	48	3
NMTAP	52	96	0
NMTAP	52	192	1
NMTAP	52	288	1
NMTAP	53	0	0
NMTAP	53	0	1
NMTAP	53	96	2
NMTAP	53	96	3
NMTAP	53	192	4
NMTAP	53	192	5
NMTAP	53	288	6
NMTAP	53	288	7
NMTAP	54	0	0
NMTAP	54	0	1
NMTAP	54	96	2
NMTAP	54	96	3
NMTAP	54	192	2
NMTAP	54	192	3
NMTAP	55	0	2
NMTAP	55	48	2
NMTAP	55	96	3
NMTAP	55	144	3
NMTAP	55	192	1
NMTAP	55	288	0
NMTAP	55	288	1
NMTAP	56	0	6
NMTAP	56	48	6
NMTAP	56	96	7
NMTAP	56	144	7
NMTAP	56	192	5
NMTAP	56	288	4
NMTAP	56	288	5
NMHLD	57	0	6	96
NMHLD	57	96	4	96
NMHLD	57	192	3	96
NMTAP	57	288	1
NMTAP	58	0	2
NMTAP	58	0	4
NMTAP	58	96	3
NMTAP	58	96	5
BRTAP	58	192	2
BRTAP	58	192	6
NMTAP	59	0	5
NMTAP	59	48	5
NMTAP	59	96	4
NMTAP	59	144	4
NMTAP	59	192	6
NMTAP	59	288	6
NMTAP	59	288	7
NMTAP	60	0	1
NMTAP	60	48	1
NMTAP	60	96	0
NMTAP	60	144	0
NMTAP	60	192	2
NMTAP	60	288	2
NMTAP	60	288	3
NMTAP	61	0	3
NMTAP	61	0	4
NMTAP	61	96	4
NMTAP	61	96	5
NMTAP	61	192	3
NMTAP	61	192	4
NMTAP	61	288	2
NMTAP	61	288	3
NMTAP	62	0	1
NMTAP	62	0	4
NMTAP	62	48	1
NMTAP	62	48	4
EXHLD	62	144	0	144
EXHLD	62	144	5	144
BRSTR	63	0	7
NMSCL	63	0	7	96	576	2
NMSTR	65	0	0
NMSCR	65	0	0	96	576	5
NMSTR	67	0	6
NMSCL	67	0	6	96	288	3
NMSTR	68	0	1
NMSCL	68	0	1	96	288	6
NMSTR	69	0	5
NMSXR	69	0	5	96	480	2
NMHLD	71	0	1	576
NMTTP	71	192	2	E	0	M1
NMTTP	72	0	0	E	0	M1
NMTTP	72	192	6	E	0	M1
NMHLD	73	0	6	576
NMTTP	73	192	6	E	0	M1
NMTTP	74	0	0	E	0	M1
NMTTP	74	192	2	E	0	M1
NMHLD	75	0	2	192
NMTTP	75	192	3	B	0	M1
NMTTP	75	192	4	E	0	M1
NMHLD	76	0	5	192
NMTTP	76	192	4	B	0	M1
NMTTP	76	192	4	E	0	M1
NMSTR	77	0	2
NMSXR	77	0	2	96	480	4
NMSTR	77	0	5
NMSXL	77	0	5	96	480	3
NMHLD	79	0	2	96
NMHLD	79	0	3	96
NMHLD	79	144	2	96
NMHLD	79	144	3	96
NMHLD	79	288	3	96
NMHLD	79	288	4	96
NMHLD	80	48	4	96
NMHLD	80	48	5	96
NMTAP	80	192	3
NMTAP	80	192	6
NMTAP	80	288	2
NMTAP	80	288	7
NMHLD	81	0	0	96
NMHLD	81	0	1	96
NMHLD	81	144	0	96
NMHLD	81	144	1	96
NMHLD	81	288	0	96
NMHLD	81	288	7	96
NMHLD	82	48	6	96
NMHLD	82	48	7	96
NMTAP	82	192	0
NMTAP	82	192	5
NMTAP	82	288	1
NMTAP	82	288	4
NMSTR	83	0	2
NMSCR	83	0	2	96	288	5
NMTAP	83	0	3
NMSTR	84	0	6
NMSUL	84	0	6	96	288	1
NMTHO	85	0	0	384	C	1	M1
NMSTR	87	0	1
NMSI_	87	0	1	96	48	3
NMSTR	87	96	7
NMSI_	87	96	7	96	48	5
NMSTR	87	192	0
NMSI_	87	192	0	96	48	4
NMTAP	87	288	6
NMTAP	88	0	5
NMTAP	88	96	6
NMTAP	88	96	7
NMTAP	88	192	0
NMTAP	88	192	1
NMTAP	88	288	2
NMSTR	88	288	3
NMSCL	88	288	3	96	192	4
NMTAP	89	288	2
NMTAP	89	336	2
NMTAP	90	0	3
NMTAP	90	96	1
NMTAP	90	96	4
NMTAP	90	192	3
NMTAP	90	192	6
NMTAP	90	288	3
NMTAP	90	288	6
NMHLD	91	0	2	96
NMHLD	91	96	0	96
NMHLD	91	192	7	96
NMHLD	91	288	5	96
NMHLD	92	0	7	96
NMHLD	92	96	0	96
NMTAP	92	192	2
NMTAP	92	288	2
NMTAP	93	0	1
NMTAP	93	0	3
NMTAP	93	48	1
NMTAP	93	48	3
NMTAP	93	192	4
NMTAP	93	192	6
NMTAP	93	240	4
NMTAP	93	240	6
NMTAP	94	0	2
NMTAP	94	0	3
NMTAP	94	48	2
NMTAP	94	48	3
NMTAP	94	144	0
NMTAP	94	144	1
NMTAP	94	240	6
NMTAP	94	240	7
NMTAP	94	288	6
NMTAP	94	288	7
NMSTR	95	0	5
NMSI_	95	0	5	96	48	0
NMSTR	95	144	1
NMSI_	95	144	1	96	48	4
NMSTR	95	288	6
NMSI_	95	288	6	96	48	3
NMSTR	96	48	2
NMSI_	96	48	2	96	48	7
NMTAP	96	192	6
NMTAP	96	288	6
NMTAP	96	288	7
NMSTR	97	0	0
NMSI_	97	0	0	96	48	4
NMSTR	97	144	6
NMSI_	97	144	6	96	48	2
NMSTR	97	288	3
NMSI_	97	288	3	96	48	7
NMSTR	98	48	5
NMSI_	98	48	5	96	48	0
NMTAP	98	192	1
NMTAP	98	288	0
NMTAP	98	288	1
NMTAP	99	0	2
NMTAP	99	48	2
NMTAP	99	96	3
NMTAP	99	144	3
NMTAP	99	192	0
NMTAP	99	240	0
NMTAP	99	288	7
NMTAP	99	336	7
NMTAP	100	0	4
NMTAP	100	48	4
NMTAP	100	96	5
NMTAP	100	144	5
NMTAP	100	192	3
NMTAP	100	288	2
NMTAP	100	288	4
NMHLD	101	0	1	48
NMHLD	101	0	3	48
NMHLD	101	96	1	48
NMHLD	101	96	3	48
NMHLD	101	192	3	48
NMHLD	101	192	4	48
NMHLD	101	288	3	48
NMHLD	101	288	4	48
NMHLD	102	0	4	48
NMHLD	102	0	6	48
NMHLD	102	96	4	48
NMHLD	102	96	6	48
NMHLD	102	192	0	48
NMHLD	102	192	7	48
NMTAP	102	288	0
NMTAP	102	288	7
NMHLD	103	0	4	48
NMHLD	103	0	6	48
NMHLD	103	96	0	48
NMHLD	103	96	7	48
NMHLD	103	192	1	48
NMHLD	103	192	3	48
NMHLD	103	288	3	48
NMHLD	103	288	4	48
NMTAP	104	0	5
NMTAP	104	48	5
NMSTR	104	96	4
NMSF_	104	96	4	96	96	0
EXTAP	105	0	2
EXTAP	105	0	6
NMTAP	105	72	2
NMTAP	105	72	6
NMTAP	105	144	2
NMTAP	105	144	6
EXTAP	105	288	3
EXTAP	105	288	7
NMTAP	105	360	3
NMTAP	105	360	7
NMHLD	106	48	3	240
NMSTR	106	48	7
NMSCL	106	48	7	96	144	2
EXTAP	107	0	0
EXTAP	107	0	1
NMTAP	107	72	0
NMTAP	107	72	1
NMTAP	107	144	2
NMTAP	107	144	7
EXTAP	107	288	6
EXTAP	107	288	7
NMTAP	107	360	6
NMTAP	107	360	7
NMSTR	108	48	0
NMSLR	108	48	0	96	144	6
NMHLD	108	48	5	240
EXTAP	109	0	6
EXTAP	109	0	7
NMTAP	109	72	0
NMTAP	109	72	7
NMTAP	109	144	0
NMTAP	109	144	1
EXTAP	109	288	2
EXTAP	109	288	3
NMTAP	109	360	3
NMTAP	109	360	4
NMSTR	110	48	4
NMSI_	110	48	4	96	96	1
NMSTR	110	48	5
NMSI_	110	48	5	96	96	0
EXTAP	111	0	2
EXTAP	111	0	7
NMTAP	111	72	1
NMTAP	111	72	6
NMTAP	111	144	0
NMTAP	111	144	5
EXTAP	111	288	1
EXTAP	111	288	4
NMTAP	111	360	2
NMTAP	111	360	5
NMSTR	112	48	3
NMSI_	112	48	3	96	96	0
NMSTR	112	48	6
NMSI_	112	48	6	96	96	3
NMTAP	113	0	6
NMTAP	113	48	6
NMTAP	113	96	7
NMTAP	113	144	5
NMTAP	113	192	1
NMTAP	113	240	1
NMTAP	113	288	0
NMTAP	113	336	2
NMTAP	114	0	5
NMTAP	114	48	5
NMTAP	114	96	4
NMTAP	114	144	4
NMTAP	114	192	6
NMTAP	114	288	3
NMTAP	114	288	7
NMTAP	115	0	1
NMTAP	115	48	1
NMTAP	115	96	0
NMTAP	115	144	2
NMTAP	115	192	6
NMTAP	115	240	6
NMTAP	115	288	7
NMTAP	115	336	5
NMTAP	116	0	2
NMTAP	116	48	2
NMTAP	116	96	3
NMTAP	116	144	3
NMTAP	116	192	1
NMTAP	116	288	0
NMTAP	116	288	4
NMSTR	117	0	6
NMSI_	117	0	6	96	48	3
NMSTR	117	96	7
NMSI_	117	96	7	96	48	2
NMSTR	117	192	5
NMSI_	117	192	5	96	48	0
NMTAP	117	288	3
NMSTR	118	0	1
NMSI_	118	0	1	96	48	4
NMSTR	118	96	0
NMSI_	118	96	0	96	48	5
NMSTR	118	192	2
NMSI_	118	192	2	96	48	7
NMTAP	118	288	4
EXTAP	119	0	0
EXTAP	119	0	6
NMTAP	119	72	1
NMTAP	119	72	5
NMTAP	119	144	2
NMTAP	119	144	4
EXTAP	119	288	1
EXTAP	119	288	7
NMTAP	119	360	2
NMTAP	119	360	6
NMHLD	120	48	3	96
NMHLD	120	48	5	96
NMTAP	120	192	6
NMTAP	120	240	6
NMTAP	120	288	4
NMTAP	120	336	4
BRSTR	121	0	3
NMSI_	121	0	3	96	48	0
BRSTR	121	0	7
NMSI_	121	0	7	96	48	4

T_REC_TAP	326
T_REC_BRK	2
T_REC_XTP	40
T_REC_BXX	2
T_REC_HLD	72
T_REC_XHO	2
T_REC_BHO	0
T_REC_BXH	0
T_REC_STR	47
T_REC_BST	3
T_REC_XST	0
T_REC_XBS	0
T_REC_TTP	26
T_REC_THO	1
T_REC_SLD	50
T_REC_BSL	0
T_REC_ALL	571
T_NUM_TAP	439
T_NUM_BRK	7
T_NUM_HLD	75
T_NUM_SLD	50
T_NUM_ALL	571
T_JUDGE_TAP	446
T_JUDGE_HLD	214
T_JUDGE_SLD	50
T_JUDGE_ALL	710
TTM_EACHPAIRS	157
TTM_SCR_TAP	219500
TTM_SCR_BRK	18200
TTM_SCR_HLD	75000
TTM_SCR_SLD	75000
TTM_SCR_ALL	387700
TTM_SCR_S	375400
TTM_SCR_SS	387000
TTM_RAT_ACV	10018

