VERSION	0.00.00	1.05.00
FES_MODE	0
BPM_DEF	208.000	208.000	208.000	208.000
MET_DEF	4	4
RESOLUTION	384
CLK_DEF	384
COMPATIBLE_CODE	MA2

BPM	0	0	208.000
MET	0	0	4	4

NMSTR	3	0	1
NMSI_	3	0	1	96	288	4
NMSTR	5	0	6
NMSI_	5	0	6	96	288	3
NMSTR	7	0	2
NMSI_	7	0	2	96	288	7
NMSTR	9	0	6
NMSI_	9	0	6	96	288	2
NMSTR	11	0	1
NMSI_	11	0	1	96	288	5
NMSTR	13	0	7
NMSI_	13	0	7	96	288	3
NMTAP	15	0	3
NMTAP	15	192	3
NMTAP	16	0	2
NMTAP	16	192	2
NMTAP	17	0	1
NMTAP	17	192	1
NMTAP	18	0	0
NMTAP	18	0	7
NMTAP	18	192	0
NMTAP	18	192	7
NMTAP	19	0	7
NMTAP	19	192	7
NMTAP	20	0	6
NMTAP	20	192	6
NMTAP	21	0	5
NMTAP	21	192	5
BXTAP	22	0	3
BXTAP	22	0	4
NMHLD	23	0	5	192
NMTAP	23	192	4
NMTAP	24	0	4
NMTAP	24	0	5
NMTAP	24	192	4
NMTAP	24	192	5
NMHLD	25	0	6	192
NMTAP	25	192	7
NMTAP	26	0	6
NMTAP	26	0	7
NMTAP	26	192	6
NMTAP	26	192	7
NMHLD	27	0	1	192
NMTAP	27	192	0
NMTAP	28	0	0
NMTAP	28	0	1
NMTAP	28	192	0
NMTAP	28	192	1
NMHLD	29	0	2	192
NMTAP	29	192	3
NMTAP	30	0	2
NMTAP	30	0	3
NMTAP	30	192	2
NMTAP	30	192	3
NMTAP	31	0	2
NMTAP	31	96	2
NMTAP	31	192	2
NMTAP	31	192	3
NMTAP	32	0	1
NMTAP	32	96	1
NMTAP	32	192	0
NMTAP	32	192	1
NMTAP	33	0	7
NMTAP	33	96	7
NMTAP	33	192	6
NMTAP	33	192	7
NMTAP	34	0	4
NMTAP	34	0	5
NMTAP	34	96	4
NMTAP	34	96	5
NMTAP	34	192	4
NMTAP	34	192	5
NMTAP	35	0	5
NMTAP	35	96	5
NMTAP	35	192	4
NMTAP	35	192	5
NMTAP	36	0	6
NMTAP	36	96	6
NMTAP	36	192	6
NMTAP	36	192	7
NMTAP	37	0	0
NMTAP	37	96	0
NMTAP	37	192	0
NMTAP	37	192	1
NMTAP	38	0	2
NMTAP	38	0	3
NMTAP	38	96	2
NMTAP	38	96	3
NMTAP	38	192	2
NMTAP	38	192	3
NMTAP	39	0	3
NMTAP	39	96	3
NMTAP	39	192	2
NMTAP	39	288	2
NMTAP	40	0	0
NMTAP	40	0	1
NMTAP	40	192	0
NMTAP	40	192	1
NMTAP	41	0	7
NMTAP	41	96	7
NMTAP	41	192	6
NMTAP	41	288	6
NMTAP	42	0	4
NMTAP	42	0	5
NMTAP	42	192	4
NMTAP	42	192	5
NMTAP	43	0	3
NMTAP	43	96	3
NMTAP	43	192	3
NMTAP	44	0	4
NMTAP	44	96	4
NMTAP	44	192	4
NMHLD	45	0	3	384
NMHLD	45	0	4	384
NMTAP	47	0	5
NMTAP	47	96	5
NMTAP	47	192	6
NMTAP	47	288	6
NMTAP	48	0	7
NMTAP	48	96	7
NMTAP	48	192	0
NMTAP	48	192	1
NMTAP	49	0	2
NMTAP	49	96	2
NMTAP	49	192	1
NMTAP	49	288	1
NMTAP	50	0	0
NMTAP	50	96	0
NMTAP	50	192	6
NMTAP	50	192	7
NMTAP	51	0	6
NMTAP	51	96	6
NMTAP	51	192	5
NMTAP	51	288	5
NMTAP	52	0	4
NMTAP	52	96	4
NMTAP	52	192	2
NMTAP	52	192	3
NMTAP	53	0	1
NMTAP	53	96	1
NMTAP	53	192	2
NMTAP	53	288	2
NMTAP	54	0	3
NMTAP	54	96	3
BXTAP	54	192	4
BXTAP	54	192	5
NMTAP	55	0	5
NMTAP	55	96	5
NMTAP	55	192	6
NMTAP	55	288	6
NMTAP	56	0	7
NMTAP	56	96	7
NMTAP	56	192	0
NMTAP	56	192	1
NMTAP	56	288	0
NMTAP	56	288	1
NMTAP	57	0	2
NMTAP	57	96	2
NMTAP	57	192	1
NMTAP	57	288	1
NMTAP	58	0	0
NMTAP	58	96	0
NMTAP	58	192	6
NMTAP	58	192	7
NMTAP	59	0	6
NMTAP	59	96	6
NMTAP	59	192	5
NMTAP	59	288	5
NMTAP	60	0	4
NMTAP	60	96	4
NMTAP	60	192	2
NMTAP	60	192	3
NMTAP	60	288	2
NMTAP	60	288	3
NMTAP	61	0	1
NMTAP	61	96	1
NMTAP	61	192	2
NMTAP	61	288	2
NMTAP	62	0	3
NMTAP	62	96	3
NMTAP	62	192	4
NMTAP	62	192	5
NMHLD	63	0	5	384
NMHLD	64	0	4	384
NMHLD	65	0	3	384
NMTAP	66	0	2
NMHLD	67	0	2	384
NMHLD	68	0	3	384
NMHLD	69	0	4	384
NMTAP	70	0	5
NMTAP	71	0	3
NMTAP	71	96	3
NMTAP	71	192	3
NMTAP	72	0	2
NMTAP	72	96	2
NMTAP	72	192	2
NMTAP	73	0	1
NMTAP	73	96	1
NMTAP	73	192	1
NMTAP	74	0	0
NMTAP	74	0	7
NMTAP	74	192	0
NMTAP	74	192	7
NMTAP	75	0	7
NMTAP	75	96	7
NMTAP	75	192	7
NMTAP	76	0	6
NMTAP	76	96	6
NMTAP	76	192	6
NMTAP	77	0	5
NMTAP	77	96	5
NMTAP	77	192	5
NMTAP	78	0	3
NMTAP	78	0	4
NMTTP	79	0	4	B	0	L1
NMTTP	79	192	5	B	0	L1
NMTTP	80	0	6	B	0	L1
NMTTP	81	0	3	B	0	L1
NMTTP	81	192	2	B	0	L1
NMTTP	82	0	1	B	0	L1
NMTTP	83	0	6	B	0	L1
NMTTP	83	192	7	B	0	L1
NMTTP	84	0	0	B	0	L1
NMTTP	84	192	1	B	0	L1
NMTHO	85	0	0	384	C	1	L1
EXTAP	87	0	7
EXTAP	87	96	7
EXTAP	87	192	0
EXTAP	87	192	7
EXTAP	87	288	0
EXTAP	87	288	7
EXTAP	88	0	1
EXTAP	88	96	1
EXTAP	88	192	0
EXTAP	88	192	1
NMTAP	89	0	2
NMTAP	89	96	2
NMTAP	89	192	0
NMTAP	89	192	1
NMTAP	89	288	0
NMTAP	89	288	1
NMTAP	90	0	7
NMTAP	90	96	7
BRTAP	90	192	6
BRTAP	90	192	7
NMTAP	91	0	6
NMTAP	91	96	6
NMTAP	91	192	4
NMTAP	91	192	5
NMTAP	91	288	4
NMTAP	91	288	5
NMTAP	92	0	3
NMTAP	92	96	3
NMTAP	92	192	2
NMTAP	92	192	3
NMTAP	93	0	1
NMTAP	93	96	1
NMTAP	93	192	2
NMTAP	93	192	3
NMTAP	93	288	2
NMTAP	93	288	3
NMTAP	94	0	4
NMTAP	94	96	4
NMTAP	94	192	4
NMTAP	94	192	5
NMTAP	95	0	5
NMTAP	95	96	5
NMTAP	95	192	6
NMTAP	95	192	7
NMTAP	95	288	6
NMTAP	95	288	7
NMTAP	96	0	0
NMTAP	96	96	0
NMTAP	96	192	0
NMTAP	96	192	1
NMTAP	96	288	0
NMTAP	96	288	1
NMTAP	97	0	2
NMTAP	97	96	2
NMTAP	97	192	0
NMTAP	97	192	1
NMTAP	97	288	0
NMTAP	97	288	1
NMTAP	98	0	7
NMTAP	98	96	7
NMTAP	98	192	6
NMTAP	98	192	7
NMTAP	99	0	6
NMTAP	99	96	6
NMTAP	99	192	4
NMTAP	99	192	5
NMTAP	99	288	4
NMTAP	99	288	5
NMTAP	100	0	3
NMTAP	100	96	3
NMTAP	100	192	2
NMTAP	100	192	3
NMTAP	100	288	2
NMTAP	100	288	3
NMTAP	101	0	1
NMTAP	101	96	1
NMTAP	101	192	2
NMTAP	101	192	3
NMTAP	101	288	2
NMTAP	101	288	3
NMTAP	102	0	4
NMTAP	102	96	4
NMTAP	102	192	4
NMTAP	102	192	5
NMTAP	103	0	3
NMTAP	103	96	3
NMTAP	103	192	4
NMTAP	103	288	4
NMTAP	104	0	3
NMTAP	104	96	3
NMTAP	104	192	3
NMTAP	104	192	4
NMSTR	105	0	2
NMSI_	105	0	2	96	288	5
NMSTR	107	0	7
NMSI_	107	0	7	96	288	3
NMSTR	109	0	1
NMSI_	109	0	1	96	288	4
NMSTR	111	0	6
NMSI_	111	0	6	96	288	2
NMTAP	113	0	1
NMTAP	113	96	1
NMTAP	113	192	1
NMTAP	113	288	0
NMTAP	113	288	1
NMTAP	114	0	2
NMTAP	114	96	2
NMTAP	114	192	2
NMTAP	114	288	2
NMTAP	114	288	3
NMTAP	115	0	4
NMTAP	115	96	4
NMTAP	115	192	4
NMTAP	115	288	4
NMTAP	115	288	5
NMTAP	116	0	6
NMTAP	116	96	6
NMTAP	116	192	0
NMTAP	116	192	7
NMTAP	117	0	6
NMTAP	117	96	6
NMTAP	117	192	6
NMTAP	117	288	6
NMTAP	117	288	7
NMTAP	118	0	5
NMTAP	118	96	5
NMTAP	118	192	5
NMTAP	118	288	4
NMTAP	118	288	5
NMTAP	119	0	3
NMTAP	119	96	3
NMTAP	119	192	3
NMTAP	119	288	2
NMTAP	119	288	3
NMTAP	120	0	1
NMTAP	120	96	1
NMTAP	120	192	0
NMTAP	120	192	7
NMTAP	120	288	0
NMTAP	120	288	7
EXTAP	121	0	1
EXTAP	121	0	6
BXTAP	121	96	1
BXTAP	121	96	6

T_REC_TAP	306
T_REC_BRK	2
T_REC_XTP	12
T_REC_BXX	6
T_REC_HLD	12
T_REC_XHO	0
T_REC_BHO	0
T_REC_BXH	0
T_REC_STR	10
T_REC_BST	0
T_REC_XST	0
T_REC_XBS	0
T_REC_TTP	10
T_REC_THO	1
T_REC_SLD	10
T_REC_BSL	0
T_REC_ALL	369
T_NUM_TAP	338
T_NUM_BRK	8
T_NUM_HLD	13
T_NUM_SLD	10
T_NUM_ALL	369
T_JUDGE_TAP	346
T_JUDGE_HLD	88
T_JUDGE_SLD	10
T_JUDGE_ALL	444
TTM_EACHPAIRS	79
TTM_SCR_TAP	169000
TTM_SCR_BRK	20800
TTM_SCR_HLD	13000
TTM_SCR_SLD	15000
TTM_SCR_ALL	217800
TTM_SCR_S	210500
TTM_SCR_SS	217000
TTM_RAT_ACV	10036

