VERSION	0.00.00	1.05.00
FES_MODE	0
BPM_DEF	208.000	208.000	208.000	208.000
MET_DEF	4	4
RESOLUTION	384
CLK_DEF	384
COMPATIBLE_CODE	MA2

BPM	0	0	208.000
MET	0	0	4	4

NMTAP	3	0	0
NMTAP	4	0	0
NMTAP	5	0	7
NMTAP	6	0	7
NMTAP	7	0	0
NMTAP	8	0	1
NMTAP	9	0	2
NMTAP	10	0	3
NMTAP	11	0	4
NMTAP	12	0	5
NMTAP	13	0	6
NMTAP	14	0	7
NMTAP	15	0	6
NMTAP	15	0	7
NMTAP	15	192	6
NMTAP	15	192	7
NMTAP	16	0	6
NMTAP	16	0	7
NMTAP	17	0	4
NMTAP	17	0	5
NMTAP	17	192	4
NMTAP	17	192	5
NMTAP	18	0	4
NMTAP	18	0	5
NMTAP	19	0	2
NMTAP	19	0	3
NMTAP	19	192	2
NMTAP	19	192	3
NMTAP	20	0	2
NMTAP	20	0	3
NMTAP	21	0	0
NMTAP	21	0	1
NMTAP	21	192	0
NMTAP	21	192	1
BXTAP	22	0	0
BXTAP	22	0	1
EXSTR	23	0	1
NMSI_	23	0	1	96	672	5
EXSTR	27	0	6
NMSI_	27	0	6	96	672	2
NMTAP	31	0	0
NMTAP	31	192	0
NMTAP	32	0	1
NMTAP	32	192	1
NMTAP	33	0	2
NMTAP	33	192	2
NMTAP	34	0	3
NMTAP	34	0	4
NMTAP	35	0	4
NMTAP	35	192	4
NMTAP	36	0	5
NMTAP	36	192	5
NMTAP	37	0	6
NMTAP	37	192	6
NMTAP	38	0	0
NMTAP	38	0	7
NMHLD	39	0	6	192
NMHLD	39	0	7	192
NMTAP	40	0	6
NMTAP	40	0	7
NMHLD	41	0	4	192
NMHLD	41	0	5	192
NMTAP	42	0	4
NMTAP	42	0	5
NMHLD	43	0	2	192
NMHLD	43	0	3	192
NMTAP	44	0	2
NMTAP	44	0	3
EXHLD	45	0	0	192
EXHLD	45	0	1	192
EXTAP	46	0	0
EXTAP	46	0	1
NMTAP	47	0	0
NMTAP	47	96	0
NMTAP	47	192	0
NMTAP	48	0	1
NMTAP	48	192	1
NMTAP	49	0	2
NMTAP	49	96	2
NMTAP	49	192	2
NMTAP	50	0	3
NMTAP	50	0	4
NMTAP	50	192	3
NMTAP	50	192	4
NMTAP	51	0	4
NMTAP	51	96	4
NMTAP	51	192	4
NMTAP	52	0	5
NMTAP	52	192	5
NMTAP	53	0	6
NMTAP	53	96	6
NMTAP	53	192	6
NMTAP	54	0	0
NMTAP	54	0	7
NMTAP	55	0	7
NMTAP	55	96	7
NMTAP	55	192	7
NMTAP	56	0	6
NMTAP	56	0	7
NMTAP	56	192	6
NMTAP	56	192	7
NMTAP	57	0	5
NMTAP	57	96	5
NMTAP	57	192	5
NMTAP	58	0	3
NMTAP	58	0	4
NMTAP	58	192	3
NMTAP	58	192	4
NMTAP	59	0	3
NMTAP	59	96	3
NMTAP	59	192	3
NMTAP	60	0	2
NMTAP	60	0	3
NMTAP	60	192	2
NMTAP	60	192	3
NMTAP	61	0	1
NMTAP	61	96	1
NMTAP	61	192	1
BXTAP	62	0	0
BXTAP	62	0	7
NMTAP	63	0	0
NMTAP	63	192	0
NMTAP	64	0	1
NMTAP	64	192	1
NMTAP	65	0	2
NMTAP	65	0	3
NMTAP	65	192	2
NMTAP	65	192	3
NMTAP	66	0	2
NMTAP	66	0	3
NMTAP	67	0	4
NMTAP	67	192	4
NMTAP	68	0	5
NMTAP	68	192	5
NMTAP	69	0	6
NMTAP	69	0	7
NMTAP	69	192	6
NMTAP	69	192	7
NMTAP	70	0	6
NMTAP	70	0	7
NMTTP	71	0	7	E	0	L1
NMTTP	72	0	6	E	0	L1
NMTTP	73	0	5	E	0	L1
NMTTP	74	0	4	E	0	L1
NMTTP	75	0	3	E	0	L1
NMTTP	76	0	2	E	0	L1
NMTTP	77	0	1	E	0	L1
NMTTP	78	0	0	C	1	L1
EXSTR	79	0	0
NMSI_	79	0	0	96	672	4
NMSTR	83	0	7
NMSI_	83	0	7	96	672	3
BRTAP	87	0	0
NMTAP	87	96	0
NMTAP	87	192	0
NMTAP	88	0	1
NMTAP	88	96	1
NMTAP	88	192	1
NMTAP	89	0	2
NMTAP	89	96	2
NMTAP	89	192	2
NMTAP	90	0	3
NMTAP	90	0	4
NMTAP	90	192	3
NMTAP	90	192	4
NMTAP	91	0	4
NMTAP	91	96	4
NMTAP	91	192	4
NMTAP	92	0	5
NMTAP	92	96	5
NMTAP	92	192	5
NMTAP	93	0	6
NMTAP	93	96	6
NMTAP	93	192	6
NMTAP	94	0	0
NMTAP	94	0	7
NMTAP	95	0	7
NMTAP	95	96	7
NMTAP	95	192	7
NMTAP	96	0	6
NMTAP	96	96	6
NMTAP	96	192	6
NMTAP	97	0	5
NMTAP	97	96	5
NMTAP	97	192	5
NMTAP	98	0	4
NMTAP	98	96	4
NMTAP	98	192	3
NMTAP	98	192	4
NMTAP	99	0	3
NMTAP	99	96	3
NMTAP	99	192	3
NMTAP	100	0	2
NMTAP	100	96	2
NMTAP	100	192	2
NMTAP	101	0	1
NMTAP	101	96	1
NMTAP	101	192	1
NMTAP	102	0	0
NMTAP	102	96	0
NMTAP	102	192	0
NMTAP	103	0	7
NMTAP	103	96	7
NMTAP	103	192	7
BRTAP	104	0	0
BRTAP	104	0	7
NMTAP	105	0	0
NMTAP	105	96	0
NMTAP	105	192	0
NMTAP	106	0	1
NMTAP	106	96	1
NMTAP	106	192	0
NMTAP	106	192	1
NMTAP	107	0	2
NMTAP	107	96	2
NMTAP	107	192	2
NMTAP	108	0	3
NMTAP	108	96	3
NMTAP	108	192	3
NMTAP	108	192	4
NMTAP	109	0	4
NMTAP	109	96	4
NMTAP	109	192	4
NMTAP	110	0	5
NMTAP	110	96	5
NMTAP	110	192	4
NMTAP	110	192	5
NMTAP	111	0	6
NMTAP	111	96	6
NMTAP	111	192	6
EXTAP	112	0	0
EXTAP	112	0	7
NMTAP	113	0	7
NMTAP	113	96	7
NMTAP	113	192	7
NMTAP	113	288	7
NMTAP	114	0	6
NMTAP	114	96	6
NMTAP	114	192	6
NMTAP	114	192	7
NMTAP	115	0	5
NMTAP	115	96	5
NMTAP	115	192	5
NMTAP	115	288	5
NMTAP	116	0	4
NMTAP	116	96	4
NMTAP	116	192	3
NMTAP	116	192	4
NMTAP	117	0	3
NMTAP	117	96	3
NMTAP	117	192	3
NMTAP	117	288	3
NMTAP	118	0	2
NMTAP	118	96	2
NMTAP	118	192	2
NMTAP	118	192	3
EXTAP	119	0	1
EXTAP	119	96	1
EXTAP	119	192	1
EXTAP	119	288	1
EXTAP	120	0	0
EXTAP	120	96	0
EXTAP	120	192	0
EXTAP	120	288	0
EXTAP	121	0	0
EXTAP	121	0	7
BXTAP	121	96	0
BXTAP	121	96	7

T_REC_TAP	221
T_REC_BRK	3
T_REC_XTP	14
T_REC_BXX	6
T_REC_HLD	6
T_REC_XHO	2
T_REC_BHO	0
T_REC_BXH	0
T_REC_STR	1
T_REC_BST	0
T_REC_XST	3
T_REC_XBS	0
T_REC_TTP	8
T_REC_THO	0
T_REC_SLD	4
T_REC_BSL	0
T_REC_ALL	268
T_NUM_TAP	247
T_NUM_BRK	9
T_NUM_HLD	8
T_NUM_SLD	4
T_NUM_ALL	268
T_JUDGE_TAP	256
T_JUDGE_HLD	32
T_JUDGE_SLD	4
T_JUDGE_ALL	292
TTM_EACHPAIRS	52
TTM_SCR_TAP	123500
TTM_SCR_BRK	23400
TTM_SCR_HLD	8000
TTM_SCR_SLD	6000
TTM_SCR_ALL	160900
TTM_SCR_S	155200
TTM_SCR_SS	160000
TTM_RAT_ACV	10056

