VERSION	0.00.00	1.05.00
FES_MODE	0
BPM_DEF	134.000	134.000	134.000	134.000
MET_DEF	4	4
RESOLUTION	384
CLK_DEF	384
COMPATIBLE_CODE	MA2

BPM	0	0	134.000
MET	0	0	4	4

NMTAP	1	0	3
NMTAP	1	0	5
NMTAP	1	48	3
NMTAP	1	48	5
NMTAP	1	96	3
NMTAP	1	96	5
NMTAP	1	144	2
NMTAP	1	144	4
NMTAP	1	168	2
NMTAP	1	168	4
NMTAP	1	240	5
NMTAP	1	240	7
NMTAP	1	312	0
NMTAP	1	312	2
NMTAP	2	24	6
NMTAP	2	24	7
NMTAP	2	96	3
NMTAP	2	96	4
NMTAP	2	144	2
NMTAP	2	144	3
NMSTR	2	192	1
NMSCR	2	192	1	96	48	3
NMSTR	2	192	4
NMSCR	2	192	4	96	48	6
BRTAP	2	288	1
BRTAP	2	288	4
NMTAP	3	0	3
NMHLD	3	0	5	96
NMTAP	3	96	4
NMTAP	3	120	4
NMTAP	3	168	3
NMTAP	3	168	6
NMTAP	3	240	0
NMTAP	3	240	2
NMTAP	3	312	5
NMTAP	3	312	7
NMTAP	4	24	0
NMTAP	4	24	1
NMTAP	4	96	3
NMTAP	4	96	4
NMTAP	4	144	4
NMTAP	4	144	5
NMSTR	4	192	3
NMSCL	4	192	3	96	48	1
NMSTR	4	192	6
NMSCL	4	192	6	96	48	4
BRTAP	4	288	3
BRTAP	4	288	6
NMTAP	5	0	2
NMHLD	5	0	3	96
NMTAP	5	48	2
NMTAP	5	96	2
NMTAP	5	144	1
NMTAP	5	168	1
NMTAP	5	192	4
NMTAP	5	216	0
NMTAP	5	264	0
NMTAP	5	288	6
NMTAP	5	312	7
NMTAP	5	360	7
NMTAP	6	0	5
NMTAP	6	24	4
NMTAP	6	72	4
NMTAP	6	96	6
NMTAP	6	144	3
NMTAP	6	144	6
NMSTR	6	192	3
NMSCL	6	192	3	96	48	1
NMSTR	6	192	6
NMSCL	6	192	6	96	48	4
BRTAP	6	288	3
BRTAP	6	288	6
NMTAP	7	0	2
NMTAP	7	24	3
BRTAP	7	48	1
BRTAP	7	48	4
NMTAP	7	144	5
NMTAP	7	168	4
BRTAP	7	192	3
BRTAP	7	192	6
NMTAP	7	288	0
NMTAP	7	312	4
BRTAP	7	336	1
BRTAP	7	336	5
NMTAP	8	48	7
NMTAP	8	72	3
BRSTR	8	96	2
NMSCL	8	96	2	96	48	7
BRSTR	8	96	6
NMSCL	8	96	6	96	48	3
NMTAP	8	192	2
NMTAP	8	192	6
BRTAP	8	288	1
BRTAP	8	288	5
NMSTR	9	0	4
NMSI_	9	0	4	96	48	6
NMTAP	9	48	0
NMTAP	9	72	0
NMTAP	9	144	2
NMSTR	9	192	3
NMSI_	9	192	3	96	48	7
NMTAP	9	240	1
NMTAP	9	288	2
NMTAP	9	336	2
NMSTR	10	0	3
NMSI_	10	0	3	96	48	1
NMTAP	10	48	7
NMTAP	10	72	7
NMTAP	10	144	5
NMSTR	10	192	4
NMSI_	10	192	4	96	48	0
NMTAP	10	240	6
NMTAP	10	288	5
NMTAP	10	336	5
NMSTR	11	0	4
NMSI_	11	0	4	96	48	6
NMTAP	11	48	0
NMTAP	11	72	0
NMTAP	11	144	2
NMSTR	11	192	3
NMSI_	11	192	3	96	48	7
NMTAP	11	240	1
NMTAP	11	288	2
NMTAP	11	336	2
NMSTR	12	0	3
NMSI_	12	0	3	96	48	1
NMTAP	12	48	7
NMTAP	12	72	7
NMTAP	12	144	5
NMSTR	12	192	3
NMSI_	12	192	3	96	48	0
NMSTR	12	192	4
NMSI_	12	192	4	96	48	7
NMTAP	12	240	2
NMTAP	12	240	5
NMSTR	13	0	2
NMSI_	13	0	2	96	48	4
NMTAP	13	0	4
NMTAP	13	48	1
NMTAP	13	72	1
NMTAP	13	144	0
NMSTR	13	192	1
NMSI_	13	192	1	96	48	5
NMTAP	13	240	7
NMTAP	13	288	0
NMTAP	13	336	0
NMTAP	14	0	1
NMSTR	14	0	7
NMSI_	14	0	7	96	48	1
NMTAP	14	48	6
NMTAP	14	72	6
NMTAP	14	144	5
NMSTR	14	192	6
NMSI_	14	192	6	96	48	2
NMTAP	14	240	4
NMTAP	14	288	5
NMTAP	14	336	5
NMSTR	15	0	4
NMSI_	15	0	4	96	48	0
NMTAP	15	0	6
NMTAP	15	48	3
NMTAP	15	72	3
NMTAP	15	144	1
NMSTR	15	192	0
NMSCR	15	192	0	96	48	3
NMSTR	15	192	7
NMSCL	15	192	7	96	48	4
EXTAP	16	0	1
EXTAP	16	16	2
EXTAP	16	32	3
EXTAP	16	48	6
EXTAP	16	64	5
EXTAP	16	80	4
EXTAP	16	96	1
EXTAP	16	112	2
EXTAP	16	128	3
EXTAP	16	144	6
EXTAP	16	160	5
EXTAP	16	176	4
EXTAP	16	192	0
EXTAP	16	208	1
EXTAP	16	224	2
EXTAP	16	240	7
EXTAP	16	256	6
EXTAP	16	272	5
BRTAP	16	288	0
BRTAP	16	312	0
BRTAP	16	336	0
NMTHO	17	0	4	1104	E	0	M1
NMTTP	17	0	5	B	0	M1
NMTTP	17	0	6	B	0	M1
NMTAP	17	96	7
NMHLD	17	192	7	144
NMTTP	17	240	3	B	0	M1
NMTTP	17	336	4	B	0	M1
NMHLD	18	0	6	144
NMTTP	18	48	3	B	0	M1
NMTTP	18	144	4	B	0	M1
NMHLD	18	192	6	144
NMTTP	18	240	3	B	0	M1
NMTTP	18	336	4	B	0	M1
NMHLD	19	0	7	144
NMTTP	19	48	3	B	0	M1
NMTTP	19	144	4	B	0	M1
NMHLD	19	192	7	144
NMTTP	19	240	3	B	0	M1
NMTTP	19	336	4	B	0	M1
NMTAP	20	0	1
NMTAP	20	0	7
NMTAP	20	96	0
NMTAP	20	96	6
NMTAP	20	192	2
NMTAP	20	192	4
NMTAP	20	240	5
NMTAP	20	264	4
NMTAP	20	312	2
NMTAP	20	336	3
NMTTP	21	0	1	B	0	M1
NMTTP	21	0	2	B	0	M1
NMTHO	21	0	4	912	E	0	M1
NMTAP	21	96	0
NMHLD	21	192	0	144
NMTTP	21	240	4	B	0	M1
NMTTP	21	336	3	B	0	M1
NMHLD	22	0	1	144
NMTTP	22	48	4	B	0	M1
NMTTP	22	144	3	B	0	M1
NMHLD	22	192	1	144
NMTTP	22	240	4	B	0	M1
NMTTP	22	336	3	B	0	M1
NMHLD	23	0	0	144
NMTTP	23	48	4	B	0	M1
NMTTP	23	144	3	B	0	M1
BRHLD	23	192	0	192
BRHLD	23	192	6	96
EXTAP	24	0	6
EXTAP	24	16	5
EXTAP	24	32	4
EXTAP	24	48	1
EXTAP	24	64	2
EXTAP	24	80	3
EXTAP	24	96	6
EXTAP	24	112	5
EXTAP	24	128	4
EXTAP	24	144	1
EXTAP	24	160	2
EXTAP	24	176	3
EXTAP	24	192	7
EXTAP	24	208	6
EXTAP	24	224	5
EXTAP	24	240	0
EXTAP	24	256	1
EXTAP	24	272	2
BRTAP	24	288	7
BRTAP	24	312	7
BRTAP	24	336	7
NMTHO	25	0	4	1104	E	0	M1
NMTTP	25	0	5	B	0	M1
NMTTP	25	0	6	B	0	M1
NMHLD	25	96	0	48
NMHLD	25	192	6	48
NMTTP	25	240	3	B	0	M1
NMHLD	25	288	0	48
NMTTP	25	336	4	B	0	M1
NMHLD	26	0	6	48
NMTTP	26	48	3	B	0	M1
NMHLD	26	96	0	48
NMTTP	26	144	4	B	0	M1
NMHLD	26	192	7	48
NMTTP	26	240	3	B	0	M1
NMHLD	26	288	1	48
NMTTP	26	336	4	B	0	M1
NMHLD	27	0	7	48
NMTTP	27	48	3	B	0	M1
NMHLD	27	96	0	48
NMTTP	27	144	4	B	0	M1
NMHLD	27	192	6	48
NMTTP	27	240	3	B	0	M1
NMHLD	27	288	0	48
NMTTP	27	336	4	B	0	M1
NMTAP	28	0	1
NMTAP	28	0	7
NMTAP	28	48	6
NMTAP	28	72	6
NMTAP	28	96	7
NMTAP	28	144	5
NMTAP	28	168	5
NMTAP	28	192	4
NMTAP	28	240	2
NMTAP	28	264	2
NMTAP	28	288	3
NMTAP	28	336	1
NMTAP	28	336	4
NMTTP	29	0	1	B	0	M1
NMTTP	29	0	2	B	0	M1
NMTHO	29	0	4	1104	E	0	M1
NMHLD	29	96	7	48
NMHLD	29	192	1	48
NMTTP	29	240	4	B	0	M1
NMHLD	29	288	7	48
NMTTP	29	336	3	B	0	M1
NMHLD	30	0	1	48
NMTTP	30	48	4	B	0	M1
NMHLD	30	96	7	48
NMTTP	30	144	3	B	0	M1
NMHLD	30	192	0	48
NMTTP	30	240	4	B	0	M1
NMHLD	30	288	6	48
NMTTP	30	336	3	B	0	M1
NMHLD	31	0	0	48
NMTTP	31	48	4	B	0	M1
NMHLD	31	96	7	48
NMTTP	31	144	3	B	0	M1
NMHLD	31	192	1	48
NMTTP	31	240	4	B	0	M1
NMHLD	31	288	7	48
NMTTP	31	336	3	B	0	M1
NMTAP	32	0	0
NMTAP	32	0	6
NMTAP	32	48	1
NMTAP	32	48	7
NMTAP	32	72	1
NMTAP	32	72	7
NMTAP	32	120	3
NMTAP	32	120	4
NMTAP	32	144	3
NMTAP	32	144	4
NMSTR	32	192	2
NMSI_	32	192	2	96	48	5
NMSTR	32	192	6
NMSI_	32	192	6	96	48	1
BRTAP	32	288	2
BRTAP	32	288	6
NMTHO	33	0	4	1104	E	0	M1
NMSTR	33	0	6
NMSCR	33	0	6	96	48	1
NMHLD	33	192	1	48
NMTTP	33	240	4	B	0	M1
NMHLD	33	288	6	48
NMTTP	33	336	3	B	0	M1
NMHLD	34	0	1	48
NMTTP	34	48	4	B	0	M1
NMHLD	34	96	6	48
NMTTP	34	144	3	B	0	M1
NMTAP	34	192	1
NMTAP	34	240	0
NMTTP	34	240	4	B	0	M1
NMTAP	34	288	7
NMTAP	34	336	0
NMTTP	34	336	3	B	0	M1
NMHLD	35	0	1	48
NMTTP	35	48	4	B	0	M1
NMHLD	35	96	6	48
NMTTP	35	144	3	B	0	M1
NMSTR	35	192	1
NMSCL	35	192	1	96	48	6
NMTTP	35	240	4	B	0	M1
NMTTP	35	336	3	B	0	M1
NMHLD	36	0	1	48
NMHLD	36	0	5	48
NMTAP	36	96	0
NMTAP	36	96	4
NMTAP	36	128	1
NMTAP	36	128	5
NMTAP	36	160	2
NMTAP	36	160	6
NMTAP	36	192	3
NMSTR	36	192	7
NMSI_	36	192	7	96	48	3
NMTAP	36	288	0
NMTAP	36	288	7
NMSTR	37	0	1
NMSCL	37	0	1	96	48	6
NMTHO	37	0	4	1104	E	0	M1
NMHLD	37	192	6	48
NMTTP	37	240	3	B	0	M1
NMHLD	37	288	1	48
NMTTP	37	336	4	B	0	M1
NMHLD	38	0	6	48
NMTTP	38	48	3	B	0	M1
NMHLD	38	96	1	48
NMTTP	38	144	4	B	0	M1
NMTAP	38	192	6
NMTTP	38	240	3	B	0	M1
NMTAP	38	240	7
NMTAP	38	288	0
NMTTP	38	336	4	B	0	M1
NMTAP	38	336	7
NMHLD	39	0	6	48
NMTTP	39	48	3	B	0	M1
NMHLD	39	96	1	48
NMTTP	39	144	4	B	0	M1
NMSTR	39	192	6
NMSCR	39	192	6	96	48	1
NMTTP	39	240	3	B	0	M1
NMTTP	39	336	4	B	0	M1
NMHLD	40	0	2	48
NMHLD	40	0	6	48
NMHLD	40	96	3	48
NMHLD	40	96	5	48
NMHLD	40	192	4	48
NMTHO	40	288	0	96	C	1	M1
NMTHO	40	288	2	96	B	0	M1
NMTHO	40	288	6	96	B	0	M1
NMTAP	41	192	0
NMTAP	41	216	7
NMTAP	41	264	7
NMTAP	41	288	0
NMTAP	41	336	1
NMTAP	41	336	6
NMHLD	42	0	2	48
NMHLD	42	96	2	48
NMHLD	42	192	2	48
NMSTR	42	192	4
NMSI_	42	192	4	96	48	1
NMHLD	42	288	2	48
NMSTR	43	0	1
NMSI_	43	0	1	96	48	7
NMHLD	43	0	2	48
NMHLD	43	96	2	48
NMHLD	43	192	2	48
NMSTR	43	192	7
NMSI_	43	192	7	96	48	1
NMHLD	43	288	2	48
NMHLD	44	0	2	48
NMHLD	44	0	3	48
NMHLD	44	96	2	48
NMHLD	44	96	3	48
NMHLD	44	192	2	48
NMSTR	44	192	3
NMSI_	44	192	3	96	48	0
NMHLD	44	288	2	48
NMHLD	45	0	0	48
NMHLD	45	0	2	48
NMHLD	45	96	2	48
NMSTR	45	96	7
NMSSR	45	96	7	96	144	3
NMHLD	45	192	2	48
NMHLD	45	288	2	48
NMHLD	46	0	2	48
NMTAP	46	48	3
NMTAP	46	72	3
NMHLD	46	96	2	48
NMTAP	46	144	4
NMHLD	46	192	2	48
NMSTR	46	192	3
NMSI_	46	192	3	96	48	0
NMHLD	46	288	2	48
BRTAP	47	0	0
NMHLD	47	0	2	48
NMHLD	47	96	2	48
BRTAP	47	96	7
BRTAP	47	192	0
NMHLD	47	192	2	48
NMHLD	47	288	2	48
NMHLD	47	288	6	48
NMTAP	48	0	5
NMTAP	48	24	4
NMTAP	48	48	3
NMTAP	48	72	2
NMTAP	48	96	5
NMTAP	48	120	4
NMTAP	48	144	3
NMTAP	48	168	2
NMTAP	48	192	5
NMTAP	48	216	4
NMTAP	48	240	2
NMTAP	48	264	3
NMTAP	48	288	5
NMTAP	48	312	4
NMTAP	48	336	2
NMTAP	48	360	3
NMHLD	49	0	6	48
NMHLD	49	96	6	48
NMHLD	49	192	6	48
NMTAP	49	216	4
NMTAP	49	264	4
NMHLD	49	288	6	48
NMHLD	49	336	5	96
NMHLD	50	0	6	48
NMTAP	50	96	4
NMHLD	50	96	6	48
NMTAP	50	144	4
NMTAP	50	192	4
NMHLD	50	192	6	48
NMTAP	50	240	4
NMTAP	50	288	5
NMHLD	50	288	6	48
NMHLD	51	0	6	48
NMHLD	51	0	7	144
NMHLD	51	96	6	48
NMHLD	51	192	5	96
NMHLD	51	192	6	48
NMHLD	51	288	6	48
NMTAP	51	336	4
NMTAP	51	360	4
NMHLD	52	0	5	72
NMTAP	52	72	7
NMSTR	52	96	6
NMSI_	52	96	6	96	48	2
NMSI_	52	96	6	96	48	3
BRTAP	52	192	6
NMHLD	53	0	5	48
NMSTR	53	96	4
NMSUL	53	96	4	96	144	7
NMHLD	53	96	5	48
NMHLD	53	192	5	48
NMHLD	53	288	5	48
NMHLD	54	0	5	48
BRHLD	54	0	7	48
BRHLD	54	96	0	48
NMHLD	54	96	5	48
NMHLD	54	192	5	48
BRHLD	54	192	7	48
NMHLD	54	288	1	48
NMHLD	54	288	5	48
NMTAP	55	0	5
NMTAP	55	24	4
NMTAP	55	48	3
NMTAP	55	72	2
NMTAP	55	96	5
NMTAP	55	120	4
NMTAP	55	144	3
NMTAP	55	168	2
NMTAP	55	192	5
NMTAP	55	216	4
NMTAP	55	240	2
NMTAP	55	264	3
NMTAP	55	288	5
NMTAP	55	312	4
NMTAP	55	336	2
NMTAP	55	360	3
NMTAP	56	0	5
NMTAP	56	24	5
NMTAP	56	72	3
NMTAP	56	72	4
NMTAP	56	120	2
NMTAP	56	144	4
NMTAP	56	168	3
NMTAP	56	192	5
NMTAP	56	216	3
NMTAP	56	240	4
NMTAP	56	264	2
NMHLD	56	288	5	72
NMTAP	56	336	3
NMTAP	56	360	3
NMTAP	57	0	2
NMTAP	57	0	4
NMTAP	57	48	0
NMTAP	57	48	7
NMTAP	57	96	3
NMTAP	57	96	5
NMTAP	57	144	0
NMTAP	57	144	7
NMTTP	57	192	1	B	0	M1
NMTTP	57	192	2	B	0	M1
NMTHO	57	192	4	1296	E	0	M1
BRSTR	57	288	0
NMSI_	57	288	0	96	48	6
NMSTR	58	0	0
NMSI_	58	0	0	96	48	2
NMTTP	58	48	4	B	0	M1
NMTAP	58	96	0
NMTTP	58	144	3	B	0	M1
NMTAP	58	192	7
EXTAP	58	216	6
NMTTP	58	240	4	B	0	M1
NMTAP	58	288	7
EXTAP	58	312	6
NMTTP	58	336	3	B	0	M1
NMHLD	59	0	0	48
NMTTP	59	48	4	B	0	M1
NMHLD	59	96	7	48
NMTTP	59	144	3	B	0	M1
NMHLD	59	192	0	48
NMTTP	59	240	4	B	0	M1
NMHLD	59	288	7	48
NMTTP	59	336	3	B	0	M1
NMTAP	60	0	0
EXTAP	60	24	7
NMTTP	60	48	4	B	0	M1
EXTAP	60	48	6
BRTAP	60	96	0
NMTTP	60	144	3	B	0	M1
NMTAP	60	192	0
EXTAP	60	216	7
NMTTP	60	240	4	B	0	M1
EXTAP	60	240	6
BRTAP	60	288	0
NMTTP	60	336	3	B	0	M1
NMTAP	61	0	0
NMTAP	61	96	1
NMTAP	61	96	7
NMTHO	61	192	4	1104	E	0	M1
NMTTP	61	192	5	B	0	M1
NMTTP	61	192	6	B	0	M1
BRSTR	61	288	7
NMSI_	61	288	7	96	48	1
NMSTR	62	0	7
NMSI_	62	0	7	96	48	5
NMTTP	62	48	3	B	0	M1
NMTAP	62	96	7
NMTTP	62	144	4	B	0	M1
NMTAP	62	192	0
EXTAP	62	216	1
NMTTP	62	240	3	B	0	M1
NMTAP	62	288	0
EXTAP	62	312	1
NMTTP	62	336	4	B	0	M1
NMHLD	63	0	7	48
NMTTP	63	48	3	B	0	M1
NMHLD	63	96	0	48
NMTTP	63	144	4	B	0	M1
NMHLD	63	192	7	48
NMTTP	63	240	3	B	0	M1
NMHLD	63	288	0	48
NMTTP	63	336	4	B	0	M1
NMTAP	64	0	7
EXTAP	64	24	0
EXTAP	64	48	1
NMTTP	64	48	3	B	0	M1
BRTAP	64	96	7
NMTTP	64	144	4	B	0	M1
NMTAP	64	192	7
NMTAP	64	288	0
NMTAP	64	288	7
NMSTR	65	0	0
NMSI_	65	0	0	96	48	4
NMTAP	65	0	6
NMTAP	65	48	7
NMTAP	65	72	7
NMTAP	65	96	0
NMTAP	65	192	2
NMTAP	65	192	6
NMSTR	65	288	0
NMSI_	65	288	0	96	48	5
NMTAP	65	288	4
NMTHO	66	0	4	304	E	1	M1
NMTHO	66	0	4	320	B	1	M1
NMTHO	66	0	4	336	A	1	M1
NMTHO	66	0	5	288	E	1	M1
CNSCR	66	48	5	0	48	0
CNSCR	66	96	0	0	48	2
NMTTP	66	192	3	E	0	M1
NMTTP	66	208	2	B	0	M1
NMTTP	66	224	1	B	0	M1
NMTTP	66	240	1	E	0	M1
BXTAP	66	288	0
NMTAP	67	0	6
NMTAP	67	0	7
NMTAP	67	72	0
NMTAP	67	72	1
NMTAP	67	144	4
NMTAP	67	144	5
NMTTP	67	192	3	B	0	M1
NMTTP	67	192	4	B	0	M1
NMTHO	67	192	4	528	E	0	M1
NMSTR	67	192	6
NMSCR	67	192	6	96	48	1
NMTAP	68	0	1
EXTAP	68	24	0
NMTTP	68	48	3	B	0	M1
EXTAP	68	48	7
BRTAP	68	96	1
NMTTP	68	144	4	B	0	M1
NMTAP	68	192	1
EXTAP	68	216	0
NMTTP	68	240	3	B	0	M1
EXTAP	68	240	7
BRTAP	68	288	1
NMTTP	68	336	4	B	0	M1
NMTAP	69	0	0
NMTAP	69	96	0
NMTAP	69	96	7
NMTTP	69	192	1	B	0	M1
NMTTP	69	192	2	B	0	M1
NMTHO	69	192	4	1104	E	0	M1
BRSTR	69	288	0
NMSI_	69	288	0	96	48	5
NMSTR	70	0	0
NMSCR	70	0	0	96	48	3
NMTTP	70	48	4	B	0	M1
NMTAP	70	96	0
NMTTP	70	144	3	B	0	M1
NMTAP	70	192	7
EXTAP	70	216	6
NMTTP	70	240	4	B	0	M1
NMTAP	70	288	7
EXTAP	70	312	6
NMTTP	70	336	3	B	0	M1
NMHLD	71	0	0	48
NMTTP	71	48	4	B	0	M1
NMHLD	71	96	6	48
NMTTP	71	144	3	B	0	M1
NMHLD	71	192	7	48
NMTTP	71	240	4	B	0	M1
NMHLD	71	288	5	48
NMTTP	71	336	3	B	0	M1
NMTAP	72	0	6
EXTAP	72	24	7
EXTAP	72	48	0
NMTTP	72	48	4	B	0	M1
BRTAP	72	96	6
NMTTP	72	144	3	B	0	M1
NMTAP	72	192	1
NMHLD	72	192	7	96
BRTAP	72	288	0
NMTAP	73	0	1
NMTAP	73	0	7
NMTAP	73	48	3
NMTAP	73	48	4
NMTAP	73	96	0
NMTAP	73	96	6
NMTAP	73	144	1
NMTAP	73	144	7
NMTAP	73	168	1
NMTAP	73	168	7
NMTAP	73	216	3
NMTAP	73	216	5
NMTAP	73	240	3
NMTAP	73	240	5
NMTTP	73	288	0	C	1	M1
NMTTP	73	288	2	B	0	M1
NMTTP	73	288	2	E	0	M1
NMTTP	73	288	6	B	0	M1
NMTTP	73	288	6	E	0	M1
NMTAP	74	0	1
NMTAP	74	0	7
NMTAP	74	48	1
NMTAP	74	48	7
NMTAP	74	96	1
NMTAP	74	96	7
NMTAP	74	144	2
NMTAP	74	144	6
NMTAP	74	168	2
NMTAP	74	168	6
NMTAP	74	240	5
NMTAP	74	240	7
NMTAP	74	312	0
NMTAP	74	312	2
NMTAP	75	24	1
NMTAP	75	24	7
NMTAP	75	96	3
NMTAP	75	96	4
NMTAP	75	144	6
NMTAP	75	144	7
NMSTR	75	192	0
NMSCR	75	192	0	96	48	3
NMSTR	75	192	4
NMSCR	75	192	4	96	48	7
BRTAP	75	288	0
BRTAP	75	288	4

T_REC_TAP	299
T_REC_BRK	35
T_REC_XTP	54
T_REC_BXX	1
T_REC_HLD	119
T_REC_XHO	0
T_REC_BHO	5
T_REC_BXH	0
T_REC_STR	45
T_REC_BST	5
T_REC_XST	0
T_REC_XBS	0
T_REC_TTP	119
T_REC_THO	17
T_REC_SLD	51
T_REC_BSL	0
T_REC_ALL	750
T_NUM_TAP	517
T_NUM_BRK	46
T_NUM_HLD	136
T_NUM_SLD	51
T_NUM_ALL	750
T_JUDGE_TAP	558
T_JUDGE_HLD	406
T_JUDGE_SLD	51
T_JUDGE_ALL	1015
TTM_EACHPAIRS	116
TTM_SCR_TAP	258500
TTM_SCR_BRK	119600
TTM_SCR_HLD	136000
TTM_SCR_SLD	76500
TTM_SCR_ALL	590600
TTM_SCR_S	568450
TTM_SCR_SS	586000
TTM_RAT_ACV	10078

