VERSION	0.00.00	1.05.00
FES_MODE	0
BPM_DEF	134.000	134.000	134.000	134.000
MET_DEF	4	4
RESOLUTION	384
CLK_DEF	384
COMPATIBLE_CODE	MA2

BPM	0	0	134.000
MET	0	0	4	4

NMTAP	1	0	5
NMTAP	1	48	5
NMHLD	1	96	4	72
NMHLD	1	96	5	72
EXTAP	1	240	3
EXTAP	1	240	4
EXSTR	1	312	2
NMSUR	1	312	2	96	168	4
EXTAP	1	312	3
EXTAP	2	240	6
NMTAP	2	288	4
NMTAP	2	288	6
NMHLD	3	0	4	120
NMHLD	3	0	5	120
EXTAP	3	168	3
EXTAP	3	168	4
EXTAP	3	240	2
EXTAP	3	240	3
EXSTR	3	312	1
NMSUR	3	312	1	96	168	4
EXTAP	3	312	4
EXTAP	4	240	5
NMTAP	4	288	4
NMTAP	4	288	5
NMTAP	5	0	6
NMTAP	5	48	6
NMHLD	5	96	6	72
NMHLD	5	96	7	72
EXTAP	5	240	0
EXTAP	5	240	7
EXTAP	5	312	0
EXSTR	5	312	1
NMSUL	5	312	1	96	168	7
EXTAP	6	240	5
NMTAP	6	288	5
NMTAP	6	288	7
NMTAP	7	0	0
NMTAP	7	48	1
NMTAP	7	48	7
NMTAP	7	144	2
NMTAP	7	192	1
NMTAP	7	192	3
NMTAP	7	288	5
NMTAP	7	336	4
NMTAP	7	336	6
NMTAP	8	48	7
NMTAP	8	96	0
NMTAP	8	96	6
NMTAP	8	192	3
NMTAP	8	240	2
NMTAP	8	240	4
NMTAP	8	288	2
NMTAP	8	288	4
BRSTR	9	0	5
NMSI_	9	0	5	96	48	3
NMTAP	9	96	1
NMSTR	9	192	1
NMSI_	9	192	1	96	48	3
NMTAP	9	288	5
NMSTR	10	0	5
NMSI_	10	0	5	96	48	3
NMTAP	10	96	1
NMTAP	10	192	2
NMTAP	10	288	3
NMTAP	10	288	5
NMSTR	11	0	6
NMSI_	11	0	6	96	48	4
NMTAP	11	96	2
NMSTR	11	192	2
NMSI_	11	192	2	96	48	4
NMTAP	11	288	6
NMSTR	12	0	6
NMSI_	12	0	6	96	48	4
NMTAP	12	96	2
NMTAP	12	192	2
NMTAP	12	288	1
NMTAP	12	288	5
NMHLD	13	0	0	288
EXSTR	13	0	4
NMSCR	13	0	4	96	192	2
EXSTR	14	0	0
NMSCR	14	0	0	96	192	6
NMHLD	14	0	4	288
NMHLD	15	0	0	288
EXSTR	15	0	4
NMSCR	15	0	4	96	192	2
NMTAP	16	0	1
NMTAP	16	48	1
NMTAP	16	96	3
NMTAP	16	144	2
NMTAP	16	192	6
NMTAP	16	240	6
NMTAP	16	288	4
NMTAP	17	0	4
NMHLD	17	0	5	480
NMTAP	17	96	4
NMTAP	17	192	7
NMTAP	17	288	7
NMTAP	18	0	4
NMTAP	18	96	6
NMTAP	18	192	6
NMTAP	18	192	7
NMTAP	18	288	0
NMTAP	18	288	5
NMTAP	19	0	2
NMTAP	19	48	2
NMTAP	19	96	3
NMTAP	19	192	1
NMTAP	19	192	3
NMTAP	19	288	1
NMTAP	19	288	3
NMHLD	20	0	6	96
NMTAP	20	96	4
NMTAP	20	192	6
NMTAP	20	192	7
NMTAP	20	288	0
NMTAP	20	288	1
NMTAP	21	0	0
NMHLD	21	0	1	480
NMTAP	21	96	0
NMTAP	21	192	3
NMTAP	21	288	3
NMTAP	22	0	0
NMTAP	22	96	2
NMTAP	22	192	2
NMTAP	22	192	3
NMTAP	22	288	4
NMTAP	22	288	5
NMTAP	23	0	6
NMTAP	23	96	0
NMSTR	23	96	7
NMSSR	23	96	7	96	144	3
EXTAP	24	0	1
NMTAP	24	96	0
NMTAP	24	96	7
NMTAP	24	192	4
NMTAP	24	192	6
BRTAP	24	288	3
BRTAP	24	288	4
NMSTR	25	0	1
NMSCR	25	0	1	96	48	4
NMTAP	25	96	7
NMSTR	25	192	7
NMSI_	25	192	7	96	48	3
NMTAP	25	288	2
NMSTR	26	0	1
NMSXL	26	0	1	96	192	4
NMTAP	26	192	5
NMTAP	26	288	6
NMSTR	27	0	6
NMSI_	27	0	6	96	48	3
NMSTR	27	0	7
NMSI_	27	0	7	96	48	2
NMTAP	27	192	1
NMTAP	27	192	4
NMTAP	27	288	1
NMTAP	27	288	4
NMSTR	28	0	6
NMSI_	28	0	6	96	48	3
NMSTR	28	96	2
NMSI_	28	96	2	96	48	7
NMTAP	28	192	5
NMTAP	28	288	5
NMSTR	29	0	6
NMSCL	29	0	6	96	48	3
NMTAP	29	96	0
NMSTR	29	192	0
NMSI_	29	192	0	96	48	4
NMTAP	29	288	6
NMSTR	30	0	6
NMSXR	30	0	6	96	192	3
NMTAP	30	192	2
NMTAP	30	288	2
NMHLD	31	0	2	96
NMHLD	31	96	0	96
NMHLD	31	192	7	96
NMTAP	31	288	5
NMTTP	32	0	4	E	0	M1
NMTTP	32	96	2	B	0	M1
NMTTP	32	96	5	B	0	M1
NMTTP	32	192	1	A	0	M1
NMTTP	32	192	2	D	0	M1
NMTTP	32	192	6	A	0	M1
NMTTP	32	192	6	D	0	M1
NMSTR	33	0	6
NMSI_	33	0	6	96	48	2
NMSTR	33	0	7
NMSI_	33	0	7	96	48	2
NMTAP	33	192	1
NMTAP	33	192	3
NMTAP	33	288	0
NMTAP	33	288	1
NMSTR	34	0	0
NMSI_	34	0	0	96	48	5
NMSTR	34	0	1
NMSI_	34	0	1	96	48	5
NMTAP	34	192	4
NMTAP	34	192	6
NMTAP	34	288	6
NMTAP	34	288	7
NMTAP	35	0	5
NMTAP	35	48	5
NMTAP	35	96	4
NMTAP	35	96	6
NMTAP	35	192	2
NMTAP	35	240	2
NMTAP	35	288	1
NMTAP	35	288	3
NMTAP	36	0	6
NMTAP	36	48	6
NMTAP	36	96	0
NMTAP	36	144	0
NMTAP	36	192	7
NMTAP	36	288	0
NMTAP	36	288	1
NMSTR	37	0	0
NMSV_	37	0	0	96	48	5
NMSTR	37	0	1
NMSI_	37	0	1	96	48	5
NMTAP	37	192	4
NMTAP	37	192	6
NMTAP	37	288	6
NMTAP	37	288	7
NMSTR	38	0	6
NMSI_	38	0	6	96	48	2
NMSTR	38	0	7
NMSV_	38	0	7	96	48	2
NMTAP	38	192	1
NMTAP	38	192	3
NMTAP	38	288	0
NMTAP	38	288	1
NMSTR	39	0	7
NMSI_	39	0	7	96	48	3
NMSTR	39	96	1
NMSI_	39	96	1	96	48	5
NMTAP	39	192	6
NMSTR	39	288	0
BRSXL	39	288	0	96	192	3
NMSTR	39	288	7
BRSXR	39	288	7	96	192	4
NMTHO	40	288	0	96	C	1	M1
NMHLD	42	0	5	96
NMHLD	42	96	4	96
NMHLD	42	192	3	96
NMTAP	42	288	2
NMHLD	43	0	1	96
NMHLD	43	96	3	96
NMHLD	43	192	4	96
NMTAP	43	288	6
NMHLD	44	0	5	96
NMHLD	44	96	3	96
NMHLD	44	192	2	96
NMTAP	44	288	0
NMHLD	45	0	1	96
NMHLD	45	96	3	96
NMHLD	45	192	5	96
NMTAP	45	288	7
NMSTR	46	0	7
NMSF_	46	0	7	96	96	3
NMTAP	46	288	2
NMTAP	46	288	4
BRTAP	47	0	1
BRTAP	47	0	2
BRTAP	47	96	1
BRTAP	47	96	2
BRTAP	47	192	1
BRTAP	47	192	2
NMTAP	47	288	3
NMTAP	47	288	4
NMSTR	48	0	5
NMSSR	48	0	5	96	144	1
NMHLD	49	0	0	192
NMTAP	49	96	2
NMHLD	49	192	7	192
NMTAP	49	288	5
NMHLD	50	0	0	192
NMTAP	50	96	3
NMHLD	50	192	7	192
NMTAP	50	288	4
NMHLD	51	0	0	192
NMTAP	51	96	1
NMHLD	51	192	7	96
NMTAP	51	288	6
BRTAP	52	0	0
BRTAP	52	0	5
NMTTP	52	192	0	C	1	M1
NMTTP	52	192	1	B	0	M1
NMTTP	52	192	5	B	0	M1
NMHLD	53	0	6	96
NMTAP	53	96	4
NMTAP	53	144	4
NMTAP	53	192	5
NMHLD	53	288	6	96
NMHLD	54	0	7	96
NMTAP	54	96	5
NMTAP	54	144	5
NMTAP	54	192	6
NMTAP	54	288	4
NMTAP	54	288	5
NMTAP	55	0	2
NMTAP	55	48	2
NMTAP	55	96	3
NMTAP	55	144	3
NMTAP	55	192	1
NMTAP	55	288	0
NMTAP	55	288	1
NMTAP	56	0	0
NMTAP	56	0	7
NMTAP	56	96	6
NMTAP	56	144	6
NMTAP	56	192	4
NMTAP	56	240	4
BRSTR	56	288	7
BRSCL	56	288	7	96	144	0
EXTAP	57	192	4
BXTAP	57	288	2
BXTAP	57	288	6
NMSTR	58	0	1
NMSCR	58	0	1	96	48	4
NMSTR	58	96	7
NMSI_	58	96	7	96	48	3
NMSTR	58	192	0
NMSI_	58	192	0	96	48	4
NMSTR	58	288	6
NMSCL	58	288	6	96	48	3
NMSTR	59	0	1
NMSXL	59	0	1	96	192	4
NMTAP	59	192	7
NMTAP	59	288	7
NMTAP	60	0	4
NMTAP	60	0	6
NMTAP	60	48	4
NMTAP	60	48	6
NMTAP	60	96	4
NMTAP	60	96	6
NMTAP	60	192	3
NMTAP	60	192	4
NMTAP	60	288	1
NMTAP	60	288	3
NMSTR	61	0	0
NMSLR	61	0	0	96	96	4
NMSTR	61	96	5
NMSLR	61	96	5	96	96	1
NMTAP	61	288	3
NMSTR	62	0	6
NMSCL	62	0	6	96	48	3
NMSTR	62	96	0
NMSI_	62	96	0	96	48	4
NMSTR	62	192	7
NMSI_	62	192	7	96	48	3
NMSTR	62	288	1
NMSCR	62	288	1	96	48	4
NMSTR	63	0	6
NMSXR	63	0	6	96	192	3
NMTAP	63	192	0
NMTAP	63	288	0
NMTAP	64	0	1
NMTAP	64	0	3
NMTAP	64	48	1
NMTAP	64	48	3
NMTAP	64	96	1
NMTAP	64	96	3
NMHLD	64	192	4	96
NMHLD	64	192	6	96
NMTAP	65	0	3
NMTAP	65	0	4
EXTAP	65	48	2
EXTAP	65	72	2
EXTAP	65	120	5
EXTAP	65	144	5
NMTAP	65	192	3
NMTAP	65	192	4
NMSTR	65	288	3
BRSCR	65	288	3	96	96	7
NMSTR	65	288	4
BRSCL	65	288	4	96	96	0
BRHLD	66	192	1	48
BRHLD	66	192	7	48
BRHLD	66	288	0	48
BRHLD	66	288	6	48
NMSTR	67	0	1
NMSI_	67	0	1	96	48	4
NMSTR	67	0	5
NMSI_	67	0	5	96	48	0
NMTAP	67	192	3
NMTAP	67	192	7
BRTAP	67	288	1
BRTAP	67	288	5
NMSTR	68	0	0
NMSUR	68	0	0	96	48	4
NMSTR	68	0	1
NMSCR	68	0	1	96	48	4
NMTAP	68	48	0
NMTAP	68	48	1
NMSTR	68	192	6
NMSCL	68	192	6	96	48	3
NMSTR	68	192	7
NMSUL	68	192	7	96	48	3
NMTAP	68	240	6
NMTAP	68	240	7
NMTAP	69	0	0
NMTAP	69	0	1
NMSTR	69	96	0
NMSI_	69	96	0	96	48	4
NMSTR	69	96	1
NMSI_	69	96	1	96	48	5
NMTAP	69	288	6
NMTAP	69	288	7
EXSTR	70	0	6
NMSI_	70	0	6	96	48	4
EXSTR	70	0	7
NMSI_	70	0	7	96	48	3
EXSTR	70	192	0
NMSI_	70	192	0	96	48	4
EXSTR	70	192	1
NMSI_	70	192	1	96	48	3
EXSTR	71	0	1
NMSCL	71	0	1	96	96	6
EXSTR	71	0	5
NMSCL	71	0	5	96	96	2
NMTAP	71	288	0
NMTAP	71	288	4
NMTAP	72	0	1
NMTAP	72	48	1
NMTAP	72	96	7
NMTAP	72	144	7
BXTAP	72	192	2
BXTAP	72	192	6
BXTAP	72	288	1
BXTAP	72	288	5
NMTAP	73	0	2
NMTAP	73	0	4
NMTAP	73	48	2
NMTAP	73	48	4
NMTAP	73	96	3
NMTAP	73	96	5
NMTAP	73	144	3
NMTAP	73	144	5
BRTAP	73	240	2
BRTAP	73	240	6
BRTAP	73	288	2
BRTAP	73	288	6
NMTAP	74	0	5
NMTAP	74	48	6
NMHLD	74	96	0	72
NMHLD	74	96	7	72
EXTAP	74	240	1
EXTAP	74	240	3
EXTAP	74	312	4
EXTAP	74	312	6
EXTAP	75	24	2
EXTAP	75	24	5
NMTAP	75	96	1
NMTAP	75	96	6
NMTAP	75	144	1
NMTAP	75	144	6
BRSTR	75	192	0
NMSI_	75	192	0	96	48	3
BRSTR	75	192	7
NMSI_	75	192	7	96	48	4

T_REC_TAP	221
T_REC_BRK	16
T_REC_XTP	26
T_REC_BXX	6
T_REC_HLD	40
T_REC_XHO	0
T_REC_BHO	4
T_REC_BXH	0
T_REC_STR	52
T_REC_BST	4
T_REC_XST	12
T_REC_XBS	0
T_REC_TTP	10
T_REC_THO	1
T_REC_SLD	63
T_REC_BSL	5
T_REC_ALL	460
T_NUM_TAP	321
T_NUM_BRK	35
T_NUM_HLD	41
T_NUM_SLD	63
T_NUM_ALL	460
T_JUDGE_TAP	347
T_JUDGE_HLD	126
T_JUDGE_SLD	68
T_JUDGE_ALL	541
TTM_EACHPAIRS	110
TTM_SCR_TAP	160500
TTM_SCR_BRK	91000
TTM_SCR_HLD	41000
TTM_SCR_SLD	94500
TTM_SCR_ALL	387000
TTM_SCR_S	372000
TTM_SCR_SS	383500
TTM_RAT_ACV	10091

