VERSION	0.00.00	1.05.00
FES_MODE	0
BPM_DEF	134.000	134.000	134.000	134.000
MET_DEF	4	4
RESOLUTION	384
CLK_DEF	384
COMPATIBLE_CODE	MA2

BPM	0	0	134.000
MET	0	0	4	4

NMTAP	5	0	4
NMTAP	5	96	4
NMTAP	5	192	4
NMTAP	6	0	3
NMTAP	6	96	3
NMTAP	6	192	3
EXTAP	7	0	3
EXTAP	7	0	4
EXTAP	7	288	3
EXTAP	7	288	4
EXTAP	8	192	2
EXTAP	8	192	5
NMTAP	9	0	4
NMTAP	9	96	4
NMTAP	9	192	5
NMTAP	10	0	6
NMTAP	10	96	6
NMTAP	10	192	7
NMTAP	11	0	0
NMTAP	11	96	0
NMTAP	11	192	1
NMTAP	12	0	2
NMTAP	12	96	2
NMTAP	12	192	3
NMTAP	12	192	4
NMTAP	13	0	3
NMTAP	13	96	3
NMTAP	13	192	2
NMTAP	14	0	1
NMTAP	14	96	1
NMTAP	14	192	0
NMTAP	15	0	7
NMTAP	15	96	7
NMTAP	15	192	6
NMTAP	16	0	5
NMTAP	16	96	5
NMTAP	16	192	3
NMTAP	16	192	4
NMHLD	17	0	2	192
NMHLD	17	192	3	192
NMHLD	18	0	4	192
NMTAP	18	192	5
NMHLD	19	0	5	192
NMHLD	19	192	4	192
NMHLD	20	0	3	192
NMTAP	20	192	2
NMHLD	21	0	1	192
NMHLD	21	192	2	192
NMHLD	22	0	3	192
NMTAP	22	192	4
NMHLD	23	0	6	192
NMHLD	23	192	5	192
NMHLD	24	0	4	192
NMTAP	24	192	3
NMTAP	25	0	5
NMTAP	25	96	5
NMTAP	25	192	6
NMTAP	25	288	6
NMTAP	26	0	7
NMTAP	26	96	7
NMTAP	26	192	0
NMTAP	26	192	1
NMTAP	27	0	2
NMTAP	27	96	2
NMTAP	27	192	1
NMTAP	27	288	1
NMTAP	28	0	0
NMTAP	28	96	0
NMTAP	28	192	6
NMTAP	28	192	7
NMTAP	29	0	6
NMTAP	29	96	6
NMTAP	29	192	5
NMTAP	29	288	5
NMTAP	30	0	4
NMTAP	30	96	4
NMTAP	30	192	2
NMTAP	30	192	3
NMTAP	31	0	1
NMTAP	31	96	1
NMTAP	31	192	2
NMTAP	31	288	2
NMTAP	32	0	3
NMTAP	32	96	3
BRTAP	32	192	4
BRTAP	32	192	5
NMTAP	33	0	5
NMTAP	33	96	5
NMTAP	33	192	6
NMTAP	33	288	6
NMTAP	34	0	7
NMTAP	34	96	7
NMTAP	34	192	0
NMTAP	34	192	1
NMTAP	34	288	0
NMTAP	34	288	1
NMTAP	35	0	2
NMTAP	35	96	2
NMTAP	35	192	1
NMTAP	35	288	1
NMTAP	36	0	0
NMTAP	36	96	0
NMTAP	36	192	6
NMTAP	36	192	7
NMTAP	37	0	6
NMTAP	37	96	6
NMTAP	37	192	5
NMTAP	37	288	5
NMTAP	38	0	4
NMTAP	38	96	4
NMTAP	38	192	2
NMTAP	38	192	3
NMTAP	38	288	2
NMTAP	38	288	3
NMTAP	39	0	1
NMTAP	39	96	1
NMTAP	39	192	2
NMTAP	39	288	2
NMTAP	40	0	3
NMTAP	40	96	3
NMTAP	40	192	4
NMTAP	40	192	5
NMHLD	41	0	4	192
NMHLD	41	0	5	192
NMSTR	42	0	6
NMSI_	42	0	6	96	192	3
NMSTR	43	0	1
NMSI_	43	0	1	96	192	4
NMSTR	44	0	5
NMSI_	44	0	5	96	192	0
NMSTR	45	0	1
NMSI_	45	0	1	96	192	5
NMSTR	46	0	7
NMSI_	46	0	7	96	192	3
NMSTR	47	0	1
NMSXR	47	0	1	96	480	4
NMTTP	49	0	6	B	0	L1
NMTTP	49	96	5	B	0	L1
NMTTP	49	192	4	B	0	L1
NMTTP	50	0	1	B	0	L1
NMTTP	50	96	2	B	0	L1
NMTTP	50	192	3	B	0	L1
NMTTP	51	0	6	B	0	L1
NMTTP	51	96	5	B	0	L1
NMTTP	51	192	4	B	0	L1
NMTTP	51	288	3	B	0	L1
NMTHO	52	0	0	192	C	1	L1
NMTTP	53	0	0	B	0	L1
NMTTP	53	96	1	B	0	L1
NMTTP	53	192	2	B	0	L1
NMTTP	53	192	3	B	0	L1
NMTTP	54	0	7	B	0	L1
NMTTP	54	96	6	B	0	L1
NMTTP	54	192	4	B	0	L1
NMTTP	54	192	5	B	0	L1
NMTTP	55	0	0	B	0	L1
NMTTP	55	96	1	B	0	L1
NMTTP	55	192	2	B	0	L1
NMTTP	55	288	3	B	0	L1
NMTTP	56	0	4	B	0	L1
NMTTP	56	96	5	B	0	L1
NMTTP	56	192	6	B	0	L1
NMTTP	56	288	7	B	0	L1
NMTTP	57	0	0	C	1	L1
NMTAP	58	0	1
NMTAP	58	96	1
NMTAP	58	192	0
NMTAP	58	192	1
NMTAP	58	288	0
NMTAP	58	288	1
NMTAP	59	0	7
NMTAP	59	96	7
NMTAP	59	192	6
NMTAP	59	192	7
NMTAP	60	0	5
NMTAP	60	96	5
NMTAP	60	192	6
NMTAP	60	192	7
NMTAP	60	288	6
NMTAP	60	288	7
NMTAP	61	0	0
NMTAP	61	96	0
BRTAP	61	192	0
BRTAP	61	192	1
NMTAP	62	0	1
NMTAP	62	96	1
NMTAP	62	192	2
NMTAP	62	192	3
NMTAP	62	288	2
NMTAP	62	288	3
NMTAP	63	0	4
NMTAP	63	96	4
NMTAP	63	192	4
NMTAP	63	192	5
NMTAP	64	0	6
NMTAP	64	96	6
NMTAP	64	192	4
NMTAP	64	192	5
NMTAP	64	288	4
NMTAP	64	288	5
NMTAP	65	0	3
NMTAP	65	96	3
NMTAP	65	192	2
NMTAP	65	192	3
NMSTR	66	0	3
NMSI_	66	0	3	96	192	0
NMSTR	66	0	4
NMSI_	66	0	4	96	192	7
NMTAP	68	0	0
NMTAP	68	96	1
NMTAP	68	192	2
NMTAP	68	288	3
NMTAP	69	0	4
NMTAP	69	96	5
NMTAP	69	192	6
NMTAP	69	192	7
NMTAP	70	0	6
NMTAP	70	96	6
NMTAP	70	192	6
NMTAP	70	288	6
NMTAP	70	288	7
NMTAP	71	0	5
NMTAP	71	96	5
NMTAP	71	192	5
NMTAP	71	288	4
NMTAP	71	288	5
NMTAP	72	0	3
NMTAP	72	96	3
NMTAP	72	192	3
NMTAP	72	288	2
NMTAP	72	288	3
NMTAP	73	0	0
NMTAP	73	0	1
NMTAP	73	96	0
NMTAP	73	96	1
NMTAP	73	192	0
NMTAP	73	192	1
NMTAP	74	0	0
NMTAP	74	0	7
NMTAP	74	96	0
NMTAP	74	96	7
NMTAP	74	192	1
NMTAP	74	192	6
NMTAP	74	288	1
NMTAP	74	288	6
NMTAP	75	0	2
NMTAP	75	0	5
NMTAP	75	96	2
NMTAP	75	96	5
EXTAP	75	192	3
EXTAP	75	192	4
BXTAP	75	288	3
BXTAP	75	288	4

T_REC_TAP	181
T_REC_BRK	4
T_REC_XTP	8
T_REC_BXX	2
T_REC_HLD	14
T_REC_XHO	0
T_REC_BHO	0
T_REC_BXH	0
T_REC_STR	8
T_REC_BST	0
T_REC_XST	0
T_REC_XBS	0
T_REC_TTP	27
T_REC_THO	1
T_REC_SLD	8
T_REC_BSL	0
T_REC_ALL	253
T_NUM_TAP	224
T_NUM_BRK	6
T_NUM_HLD	15
T_NUM_SLD	8
T_NUM_ALL	253
T_JUDGE_TAP	230
T_JUDGE_HLD	60
T_JUDGE_SLD	8
T_JUDGE_ALL	298
TTM_EACHPAIRS	44
TTM_SCR_TAP	112000
TTM_SCR_BRK	15600
TTM_SCR_HLD	15000
TTM_SCR_SLD	12000
TTM_SCR_ALL	154600
TTM_SCR_S	149400
TTM_SCR_SS	154000
TTM_RAT_ACV	10038

