VERSION	0.00.00	1.05.00
FES_MODE	0
BPM_DEF	134.000	134.000	134.000	134.000
MET_DEF	4	4
RESOLUTION	384
CLK_DEF	384
COMPATIBLE_CODE	MA2

BPM	0	0	134.000
MET	0	0	4	4

NMHLD	1	0	0	408
NMHLD	3	0	7	408
EXTAP	5	0	0
NMTAP	5	192	1
NMTAP	6	0	2
NMTAP	6	192	3
NMTAP	7	0	4
NMTAP	7	192	5
NMTAP	8	0	6
NMTAP	8	192	0
NMTAP	8	192	7
NMTAP	9	0	7
NMTAP	9	96	7
NMTAP	9	192	7
NMTAP	10	0	6
NMTAP	10	192	6
NMTAP	11	0	5
NMTAP	11	96	5
NMTAP	11	192	5
NMTAP	12	0	3
NMTAP	12	0	4
NMTAP	12	192	3
NMTAP	12	192	4
NMTAP	13	0	2
NMTAP	13	96	2
NMTAP	13	192	2
NMTAP	14	0	1
NMTAP	14	192	1
NMTAP	15	0	0
NMTAP	15	96	0
NMTAP	15	192	0
EXTAP	16	0	0
EXTAP	16	0	7
NMHLD	17	0	0	192
NMHLD	17	0	1	192
NMTAP	18	0	0
NMTAP	18	0	1
NMHLD	19	0	2	192
NMHLD	19	0	3	192
NMTAP	20	0	2
NMTAP	20	0	3
NMHLD	21	0	4	192
NMHLD	21	0	5	192
NMTAP	22	0	4
NMTAP	22	0	5
NMHLD	23	0	6	192
NMHLD	23	0	7	192
NMTAP	24	0	6
NMTAP	24	0	7
BRTAP	25	0	7
NMTAP	25	96	7
NMTAP	25	192	7
NMTAP	26	0	6
NMTAP	26	96	6
NMTAP	26	192	6
NMTAP	27	0	5
NMTAP	27	96	5
NMTAP	27	192	5
NMTAP	28	0	3
NMTAP	28	0	4
NMTAP	28	192	3
NMTAP	28	192	4
NMTAP	29	0	3
NMTAP	29	96	3
NMTAP	29	192	3
NMTAP	30	0	2
NMTAP	30	96	2
NMTAP	30	192	2
NMTAP	31	0	1
NMTAP	31	96	1
EXTAP	31	192	1
NMTAP	32	0	0
NMTAP	32	0	7
NMTAP	32	192	0
NMTAP	32	192	7
NMTAP	33	0	0
NMTAP	33	96	0
NMTAP	33	192	0
NMTAP	34	0	1
NMTAP	34	96	1
NMTAP	34	192	1
NMTAP	35	0	2
NMTAP	35	96	2
NMTAP	35	192	2
NMTAP	36	0	3
NMTAP	36	96	3
NMTAP	36	192	3
NMTAP	37	0	4
NMTAP	37	96	4
NMTAP	37	192	4
NMTAP	38	0	5
NMTAP	38	96	5
NMTAP	38	192	5
NMTAP	39	0	6
NMTAP	39	96	6
NMTAP	39	192	6
NMTAP	40	0	7
NMTAP	40	96	7
NMTAP	40	192	7
BXTAP	41	0	0
BXTAP	41	0	7
NMSTR	42	0	7
NMSI_	42	0	7	96	288	3
NMSTR	44	0	0
NMSI_	44	0	0	96	288	4
NMSTR	46	0	6
NMSI_	46	0	6	96	288	2
EXTAP	48	0	0
EXTAP	48	0	1
NMTTP	49	0	1	E	0	L1
NMTTP	49	192	2	E	0	L1
NMTTP	50	0	3	E	0	L1
NMTTP	50	192	4	E	0	L1
NMTTP	51	0	5	E	0	L1
NMTTP	51	192	6	E	0	L1
NMTTP	52	0	0	C	1	L1
NMTAP	53	0	7
NMTAP	53	96	7
NMTAP	53	192	7
NMTAP	54	0	6
NMTAP	54	96	6
NMTAP	54	192	6
NMTAP	54	192	7
NMTAP	55	0	0
NMTAP	55	96	0
NMTAP	55	192	0
NMTAP	56	0	1
NMTAP	56	96	1
NMTAP	56	192	0
NMTAP	56	192	1
NMHLD	57	0	0	192
NMHLD	57	0	7	192
BRTAP	58	0	7
NMTAP	58	96	7
NMTAP	58	192	7
NMTAP	58	288	7
NMTAP	59	0	6
NMTAP	59	96	6
NMTAP	59	192	6
NMTAP	59	192	7
NMTAP	60	0	5
NMTAP	60	96	5
NMTAP	60	192	5
NMTAP	60	288	5
NMTAP	61	0	4
NMTAP	61	96	4
NMTAP	61	192	3
NMTAP	61	192	4
NMTAP	62	0	3
NMTAP	62	96	3
NMTAP	62	192	3
NMTAP	62	288	3
NMTAP	63	0	2
NMTAP	63	96	2
NMTAP	63	192	2
NMTAP	63	192	3
NMTAP	64	0	1
NMTAP	64	96	1
NMTAP	64	192	1
NMTAP	64	288	1
NMTAP	65	0	0
NMTAP	65	96	0
NMTAP	65	192	0
NMTAP	65	192	7
NMHLD	66	0	0	192
NMHLD	66	0	7	192
NMTAP	67	0	0
NMTAP	67	0	7
NMTAP	67	96	0
NMTAP	67	96	7
NMTAP	67	192	0
NMTAP	67	192	7
BRTAP	68	0	0
NMTAP	68	96	0
NMTAP	68	192	1
NMTAP	68	288	1
NMTAP	69	0	2
NMTAP	69	96	2
NMTAP	69	192	3
NMTAP	69	192	4
NMTAP	70	0	4
NMTAP	70	96	4
NMTAP	70	192	5
NMTAP	70	288	5
NMTAP	71	0	6
NMTAP	71	96	6
NMTAP	71	192	0
NMTAP	71	192	7
NMTAP	72	0	1
NMTAP	72	96	1
NMTAP	72	192	0
NMTAP	72	288	0
NMTAP	73	0	7
NMTAP	73	96	7
NMTAP	73	192	6
NMTAP	73	192	7
NMHLD	74	0	0	672
NMHLD	74	0	7	672

T_REC_TAP	158
T_REC_BRK	3
T_REC_XTP	6
T_REC_BXX	2
T_REC_HLD	16
T_REC_XHO	0
T_REC_BHO	0
T_REC_BXH	0
T_REC_STR	3
T_REC_BST	0
T_REC_XST	0
T_REC_XBS	0
T_REC_TTP	7
T_REC_THO	0
T_REC_SLD	3
T_REC_BSL	0
T_REC_ALL	198
T_NUM_TAP	174
T_NUM_BRK	5
T_NUM_HLD	16
T_NUM_SLD	3
T_NUM_ALL	198
T_JUDGE_TAP	179
T_JUDGE_HLD	94
T_JUDGE_SLD	3
T_JUDGE_ALL	276
TTM_EACHPAIRS	33
TTM_SCR_TAP	87000
TTM_SCR_BRK	13000
TTM_SCR_HLD	16000
TTM_SCR_SLD	4500
TTM_SCR_ALL	120500
TTM_SCR_S	116400
TTM_SCR_SS	120000
TTM_RAT_ACV	10041

