VERSION	0.00.00	1.05.00
FES_MODE	0
BPM_DEF	185.000	185.000	185.000	185.000
MET_DEF	4	4
RESOLUTION	384
CLK_DEF	384
COMPATIBLE_CODE	MA2

BPM	0	0	185.000
MET	0	0	4	4

NMHLD	2	0	6	72
NMTAP	2	72	7
NMTAP	2	96	5
NMHLD	2	144	1	72
NMTAP	2	216	0
NMTAP	2	240	2
NMTAP	2	288	3
NMTAP	2	288	4
NMTAP	2	336	5
NMTAP	3	0	6
NMTAP	3	0	7
NMTAP	3	48	0
NMTAP	3	48	7
NMTAP	3	96	1
NMTAP	3	120	0
NMTAP	3	144	1
NMHLD	3	192	2	48
NMHLD	3	192	7	48
NMHLD	3	264	3	48
NMHLD	3	264	6	48
NMTAP	3	336	4
NMTAP	3	336	5
NMHLD	4	0	5	72
NMTAP	4	72	4
NMTAP	4	96	6
NMHLD	4	144	2	72
NMTAP	4	216	3
NMTAP	4	240	1
NMTAP	4	288	0
NMTAP	4	288	7
NMTAP	4	336	6
NMTAP	5	0	4
NMTAP	5	0	5
NMTAP	5	48	2
NMTAP	5	72	3
NMSTR	5	96	1
NMSCL	5	96	1	96	96	6
NMSCR	5	96	1	96	96	4
NMTAP	5	120	4
NMTAP	5	144	0
NMTAP	6	0	2
NMTAP	6	0	7
NMTAP	6	48	1
NMTAP	6	72	0
NMTAP	6	96	2
NMTAP	6	144	3
NMTAP	6	144	7
NMTAP	6	192	2
NMTAP	6	192	6
NMTAP	6	240	5
NMTAP	6	264	5
NMTAP	6	288	3
NMTAP	6	336	2
NMTAP	6	336	6
NMTAP	7	0	0
NMTAP	7	0	4
NMTAP	7	48	6
NMTAP	7	72	7
NMTAP	7	96	5
NMTAP	7	144	0
NMTAP	7	144	4
NMTAP	7	192	1
NMTAP	7	192	5
NMTAP	7	240	2
NMTAP	7	264	2
NMTAP	7	288	4
NMTAP	7	336	1
NMTAP	7	336	5
NMTAP	8	0	6
NMTAP	8	0	7
NMTAP	8	48	6
NMTAP	8	48	7
NMTAP	8	96	0
NMTAP	8	96	5
NMTAP	8	144	0
NMTAP	8	144	5
NMTAP	8	192	1
NMTAP	8	192	4
NMTAP	8	240	1
NMTAP	8	240	4
NMTAP	8	288	2
NMTAP	8	288	3
NMTAP	8	336	2
NMTAP	8	336	3
NMTAP	9	0	1
NMTAP	9	32	3
NMTAP	9	64	2
NMTAP	9	96	7
NMTAP	9	128	5
NMTAP	9	160	6
NMTAP	9	192	0
NMTAP	9	208	1
NMTAP	9	224	2
NMTAP	9	240	3
NMTAP	9	256	4
NMTAP	9	272	5
NMTAP	9	288	7
NMTAP	9	320	7
NMTAP	9	352	7
BRHLD	10	0	7	288
NMTTP	10	240	1	A	0	M1
NMTTP	10	248	2	E	0	M1
NMTTP	10	256	2	B	0	M1
NMTTP	10	264	3	B	0	M1
NMTTP	10	272	4	E	0	M1
NMTTP	10	280	4	A	1	M1
NMTTP	11	0	6	A	0	M1
NMTTP	11	0	6	D	0	M1
NMTTP	11	0	7	D	0	M1
NMTTP	11	96	1	A	0	M1
NMTTP	11	96	1	D	0	M1
NMTTP	11	96	2	D	0	M1
NMTTP	11	192	3	E	0	M1
NMTTP	11	192	3	A	0	M1
NMTTP	11	192	4	A	0	M1
NMTTP	11	192	5	E	0	M1
BRSTR	11	288	0
NMSCR	11	288	0	96	48	2
BRTAP	11	288	7
NMSTR	12	0	0
NMSCL	12	0	0	96	48	5
NMHLD	12	0	3	480
NMSTR	12	96	0
NMSI_	12	96	0	96	48	2
NMSTR	12	192	0
NMSI_	12	192	0	96	48	5
NMSTR	12	288	0
NMSCR	12	288	0	96	48	2
NMSTR	13	0	0
NMSCL	13	0	0	96	48	5
NMTAP	13	96	0
NMTAP	13	192	0
NMTAP	13	192	4
NMTAP	13	288	3
NMSTR	13	288	7
NMSI_	13	288	7	96	48	3
NMTAP	13	336	6
NMTAP	13	360	4
NMSTR	14	0	7
NMSCL	14	0	7	96	48	4
NMTAP	14	96	2
NMSTR	14	96	7
NMSCR	14	96	7	96	48	2
NMTAP	14	192	3
NMTAP	14	192	7
NMTAP	14	288	2
NMTAP	14	312	3
NMTAP	14	336	2
NMTAP	14	360	3
NMHLD	15	0	1	96
NMTAP	15	0	4
EXTAP	15	96	0
NMTAP	15	144	2
NMHLD	15	144	7	96
EXTAP	15	240	6
NMTAP	15	288	0
NMTAP	15	288	5
NMHLD	16	0	6	48
NMHLD	16	0	7	48
NMHLD	16	96	6	48
NMHLD	16	96	7	48
NMHLD	16	192	0	48
NMHLD	16	192	1	48
NMHLD	16	288	0	48
NMHLD	16	288	1	48
NMHLD	17	0	6	48
NMHLD	17	0	7	48
NMHLD	17	96	4	48
NMHLD	17	96	5	48
NMHLD	17	192	2	48
NMHLD	17	192	3	48
NMTAP	17	288	1
NMTAP	17	312	3
NMTAP	17	336	1
NMTAP	17	360	3
NMSTR	18	0	2
NMSCL	18	0	2	96	96	7
NMSTR	18	96	7
NMSCL	18	96	7	96	96	4
NMSTR	18	192	4
NMSCL	18	192	4	96	96	1
NMTAP	18	288	1
NMTAP	18	336	0
NMHLD	19	0	7	48
NMHLD	19	96	0	48
NMHLD	19	96	6	48
NMTAP	19	192	3
NMTAP	19	192	4
NMSTR	19	288	1
NMSI_	19	288	1	96	48	4
NMSTR	19	288	6
NMSI_	19	288	6	96	48	3
BRSTR	20	0	1
NMSI_	20	0	1	96	48	7
BRTAP	20	0	6
NMSTR	20	96	5
NMSI_	20	96	5	96	48	1
NMHLD	20	192	0	96
NMTAP	20	288	2
NMTAP	20	336	1
NMTAP	20	336	3
NMSTR	21	0	2
NMSI_	21	0	2	96	48	7
NMTAP	21	0	4
NMSTR	21	96	6
NMSI_	21	96	6	96	48	3
NMTAP	21	192	1
NMTAP	21	240	1
NMTAP	21	288	0
NMTAP	21	288	2
NMTAP	21	336	3
NMTAP	21	336	7
NMSTR	22	0	4
NMSI_	22	0	4	96	48	0
NMSTR	22	0	6
NMSI_	22	0	6	96	48	4
NMSTR	22	96	6
NMSCR	22	96	6	96	192	5
NMTTP	23	0	0	C	1	M1
NMTAP	23	96	0
NMTAP	23	96	5
NMTAP	23	144	6
NMTAP	23	144	7
NMTAP	23	240	2
NMTAP	23	240	7
BRSTR	23	288	0
NMSI_	23	288	0	96	48	4
BRSTR	23	288	1
NMSI_	23	288	1	96	48	3
BXSTR	24	0	0
NMSI_	24	0	0	96	48	6
BXSTR	24	0	1
NMSI_	24	0	1	96	48	5
BXSTR	24	96	0
NMSI_	24	96	0	96	48	4
BXSTR	24	96	1
NMSI_	24	96	1	96	48	3
BXTAP	24	192	0
BXTAP	24	192	1
BXSTR	24	288	6
NMSI_	24	288	6	96	48	2
BXSTR	24	288	7
NMSI_	24	288	7	96	48	1
BRTAP	24	336	5
BXSTR	25	0	6
NMSI_	25	0	6	96	48	4
BXSTR	25	0	7
NMSI_	25	0	7	96	48	3
BXTAP	25	96	6
BXTAP	25	96	7
BRTAP	25	192	1
BRTAP	25	192	5
NMTAP	25	240	1
NMTAP	25	240	5
BRTAP	25	288	3
BRTAP	25	288	7
NMTAP	25	336	3
NMTAP	25	336	7
NMTAP	25	360	2
NMTAP	25	360	6
BRSTR	26	0	1
NMSI_	26	0	1	96	48	4
BRSTR	26	0	5
NMSI_	26	0	5	96	48	0
BRTAP	26	96	1
BRTAP	26	96	5
NMTAP	26	192	2
NMTAP	26	192	6
NMTAP	26	240	2
NMTAP	26	240	6
BRTAP	26	288	1
NMTAP	26	312	1
BRTAP	26	336	7
NMTAP	26	360	7
BRSTR	27	0	0
NMSI_	27	0	0	96	48	5
NMTAP	27	96	0
NMSTR	27	96	7
NMSI_	27	96	7	96	48	2
NMSTR	27	192	0
NMSCR	27	192	0	96	48	3
NMSTR	27	192	7
NMSCL	27	192	7	96	48	4
NMTAP	27	288	0
NMTAP	27	288	7
NMTAP	28	0	2
NMTTP	28	0	4	B	0	M1
NMTTP	28	0	4	E	0	M1
NMTTP	28	0	5	E	0	M1
NMTTP	28	96	2	B	0	M1
NMTTP	28	96	2	E	0	M1
NMTTP	28	96	3	E	0	M1
NMTAP	28	96	6
NMTAP	28	192	1
NMTTP	28	192	6	B	0	M1
NMTTP	28	192	6	E	0	M1
NMTTP	28	192	7	E	0	M1
NMSTR	28	288	0
NMSI_	28	288	0	96	48	3
NMSTR	28	288	4
NMSI_	28	288	4	96	48	7
NMTAP	28	320	0
NMTAP	28	320	4
NMTAP	28	352	0
NMTAP	28	352	4
NMTAP	29	0	0
NMTAP	29	0	4
NMTAP	29	96	2
NMTAP	29	96	6
NMTTP	29	192	1	A	0	M1
NMTTP	29	204	2	E	0	M1
NMTTP	29	216	2	B	0	M1
NMTTP	29	228	3	B	0	M1
NMTTP	29	240	4	B	0	M1
NMTTP	29	252	5	E	0	M1
NMTAP	29	264	6
NMHLD	29	288	6	96
NMTAP	29	360	7
NMSTR	30	0	7
NMSSR	30	0	7	96	96	3
NMTAP	30	288	1
NMTAP	30	288	5
NMTAP	31	0	2
NMTAP	31	0	4
NMTAP	31	48	2
NMTAP	31	96	3
NMTAP	31	96	5
NMTAP	31	144	5
NMTAP	31	192	2
NMTAP	31	192	6
NMTAP	31	288	4
NMSTR	31	288	7
NMSI_	31	288	7	96	48	1
BRTAP	32	0	3
NMSTR	32	0	7
NMSI_	32	0	7	96	48	5
NMTAP	32	96	2
NMSTR	32	96	7
NMSCR	32	96	7	96	48	1
NMTAP	32	192	2
NMSTR	32	192	7
NMSCL	32	192	7	96	48	5
NMTAP	32	216	3
NMTAP	32	240	4
NMTAP	32	288	4
NMSTR	32	288	7
NMSI_	32	288	7	96	48	1
NMTAP	32	336	4
NMTAP	33	0	3
NMSTR	33	0	7
NMSI_	33	0	7	96	48	5
NMTAP	33	48	3
NMTAP	33	96	2
NMSTR	33	96	7
NMSCR	33	96	7	96	48	1
NMTAP	33	192	2
NMSTR	33	192	7
NMSCL	33	192	7	96	48	5
NMTAP	33	216	3
NMTAP	33	240	4
NMTAP	33	288	4
NMSTR	33	288	7
NMSI_	33	288	7	96	48	1
NMTAP	33	336	4
NMTAP	34	0	3
NMSTR	34	0	7
NMSI_	34	0	7	96	48	5
NMTAP	34	48	3
NMTAP	34	96	2
NMSTR	34	96	7
NMSCR	34	96	7	96	48	1
NMTAP	34	192	2
NMSTR	34	192	7
NMSCL	34	192	7	96	48	5
NMTAP	34	216	3
NMTAP	34	240	4
NMTAP	34	288	4
NMSTR	34	288	7
NMSI_	34	288	7	96	48	3
NMTAP	35	0	3
BRTAP	35	0	7
NMSTR	35	96	1
NMSI_	35	96	1	96	48	6
NMSTR	35	96	5
NMSI_	35	96	5	96	48	2
NMTAP	35	192	1
NMTAP	35	192	5
NMSTR	35	288	0
NMSI_	35	288	0	96	48	6
NMTAP	35	288	4
NMSTR	36	0	0
NMSI_	36	0	0	96	48	2
NMHLD	36	0	5	24
NMHLD	36	48	5	24
NMSTR	36	96	0
NMSCL	36	96	0	96	48	6
NMTAP	36	96	5
NMSTR	36	192	0
NMSCR	36	192	0	96	48	2
NMTAP	36	192	5
NMTAP	36	216	4
NMTAP	36	240	3
NMSTR	36	288	0
NMSI_	36	288	0	96	48	6
NMTAP	36	288	3
NMTAP	36	336	3
NMSTR	37	0	0
NMSI_	37	0	0	96	48	2
NMTAP	37	0	4
NMTAP	37	48	4
NMSTR	37	96	0
NMSCL	37	96	0	96	48	6
NMTAP	37	96	5
NMSTR	37	192	0
NMSCR	37	192	0	96	48	2
NMTAP	37	192	5
NMTAP	37	216	4
NMTAP	37	240	3
NMSTR	37	288	0
NMSI_	37	288	0	96	48	6
NMTAP	37	288	3
NMTAP	37	336	3
NMSTR	38	0	0
NMSI_	38	0	0	96	48	2
NMTAP	38	0	4
NMTAP	38	48	4
NMSTR	38	96	0
NMSCL	38	96	0	96	48	6
NMTAP	38	96	5
NMSTR	38	192	0
NMSI_	38	192	0	96	48	4
NMTAP	38	192	5
NMTAP	38	216	4
NMTAP	38	240	3
NMTAP	38	288	0
NMTAP	38	288	3
BRTAP	39	0	0
NMTAP	39	16	7
NMTAP	39	32	6
NMTAP	39	48	5
NMTAP	39	64	4
NMTAP	39	80	3
BRTAP	39	96	0
NMTAP	39	112	7
NMTAP	39	128	6
NMTAP	39	144	5
NMTAP	39	160	4
NMTAP	39	176	3
BRTAP	39	192	7
NMTAP	39	208	0
NMTAP	39	224	1
NMTAP	39	240	2
NMTAP	39	256	3
NMTAP	39	272	4
BRTAP	39	288	7
NMTAP	39	304	0
NMTAP	39	320	1
NMTAP	39	336	2
NMTAP	39	352	3
NMTAP	39	368	4
NMTTP	40	0	0	C	1	M1
NMTTP	40	0	5	B	0	M1
NMTTP	40	0	6	B	0	M1
NMTTP	40	0	6	E	0	M1
NMTTP	40	0	6	A	0	M1
NMTTP	40	0	6	D	0	M1
NMTTP	40	0	7	B	0	M1
NMTTP	40	0	7	E	0	M1
NMTTP	40	0	7	D	0	M1
NMTAP	43	288	3
NMTAP	43	288	4
NMTAP	44	0	2
NMTAP	44	48	2
NMSTR	44	96	1
NMSCR	44	96	1	96	96	5
NMTAP	44	96	3
NMTAP	44	192	4
NMTAP	44	288	6
NMTAP	45	0	7
NMTAP	45	48	7
NMTAP	45	96	4
NMSTR	45	96	6
NMSCL	45	96	6	96	96	2
NMTAP	45	192	3
NMTAP	45	288	1
NMTAP	46	0	0
NMTAP	46	48	0
NMTAP	46	96	1
NMTAP	46	96	7
NMTAP	46	192	6
NMTAP	46	240	6
NMTAP	46	288	5
NMTAP	46	288	7
NMTAP	47	0	1
NMTAP	47	0	3
NMTAP	47	72	0
NMTAP	47	72	7
NMTAP	47	144	4
NMTAP	47	144	6
NMTAP	47	192	4
NMTAP	47	192	6
NMTAP	47	288	0
NMTAP	47	288	7
NMHLD	48	0	1	72
NMHLD	48	72	2	72
NMHLD	48	144	4	72
NMHLD	48	216	5	72
NMTAP	48	288	7
NMSTR	48	336	7
NMSLR	48	336	7	96	192	4
NMTAP	49	48	5
NMSTR	49	96	5
NMSI_	49	96	5	96	48	0
NMTAP	49	288	3
NMTAP	49	288	7
NMHLD	50	0	6	72
NMHLD	50	72	5	72
NMHLD	50	144	3	72
NMHLD	50	216	2	72
NMTAP	50	288	0
NMSTR	50	336	0
NMSLL	50	336	0	96	192	3
NMTAP	51	48	2
NMSTR	51	96	2
NMSI_	51	96	2	96	48	7
NMTAP	51	288	0
NMTAP	51	288	4
NMHLD	52	0	0	72
NMHLD	52	72	2	72
NMHLD	52	144	4	72
NMHLD	52	216	6	72
NMTAP	52	288	7
NMHLD	52	336	7	96
NMTAP	53	48	6
NMTAP	53	96	6
NMTAP	53	96	7
NMTAP	53	120	0
NMTAP	53	120	5
NMSTR	53	144	1
NMSXL	53	144	1	96	144	4
NMTAP	53	144	4
NMTAP	53	192	3
NMTAP	53	264	5
NMTAP	53	336	7
NMHLD	54	0	7	72
NMHLD	54	72	5	72
NMHLD	54	144	3	72
NMHLD	54	216	1	72
NMSTR	54	288	0
NMSXL	54	288	0	96	288	5
NMTTP	55	0	1	B	0	M1
NMTTP	55	0	2	B	0	M1
NMTTP	55	0	2	E	1	M1
NMTAP	56	0	4
NMTAP	56	0	6
NMTAP	56	48	4
NMTAP	56	48	6
NMTAP	56	96	5
NMTAP	56	144	5
NMTAP	56	192	2
NMTAP	56	192	4
NMTAP	56	240	2
NMTAP	56	240	4
NMTAP	56	288	3
NMTAP	56	336	3
NMTAP	57	0	0
NMTAP	57	0	2
NMTAP	57	48	0
NMTAP	57	48	2
NMTAP	57	96	1
NMTAP	57	144	1
NMTAP	57	192	0
NMTAP	57	192	6
NMTAP	57	240	0
NMTAP	57	240	6
NMTAP	57	288	7
NMTAP	57	336	7
NMTAP	58	0	0
NMTAP	58	0	1
NMTAP	58	48	0
NMTAP	58	48	1
NMTAP	58	96	2
NMTAP	58	96	3
NMTAP	58	144	2
NMTAP	58	144	3
NMTAP	58	192	4
NMTAP	58	192	5
NMTAP	58	240	4
NMTAP	58	240	5
NMTAP	58	288	6
NMTAP	58	288	7
NMTAP	58	336	6
NMTAP	58	336	7
NMSTR	59	0	0
NMSCL	59	0	0	96	96	5
NMSTR	59	0	1
NMSCR	59	0	1	96	96	4
NMTAP	59	288	3
NMTAP	59	288	6
BRTAP	60	0	2
NMTAP	60	24	5
NMTAP	60	48	2
NMTAP	60	72	5
NMTAP	60	96	3
NMTAP	60	120	5
NMTAP	60	144	3
NMTAP	60	168	5
NMSTR	60	192	4
NMSI_	60	192	4	96	48	7
NMTAP	60	216	5
NMTAP	60	240	4
NMTAP	60	264	5
BRTAP	60	288	4
BRTAP	61	0	1
NMTAP	61	24	6
NMTAP	61	48	1
NMTAP	61	72	6
NMTAP	61	96	0
NMTAP	61	120	6
NMTAP	61	144	0
NMTAP	61	168	6
NMSTR	61	192	7
NMSI_	61	192	7	96	48	4
NMTAP	61	216	6
NMTAP	61	240	7
NMTAP	61	264	6
BRTAP	61	288	7
NMTAP	62	0	3
NMTAP	62	24	5
NMTAP	62	48	3
NMTAP	62	72	5
NMTAP	62	96	1
NMTAP	62	120	4
NMTAP	62	144	1
NMTAP	62	168	4
NMTAP	62	192	3
NMTAP	62	216	6
NMTAP	62	240	3
NMTAP	62	264	6
NMTAP	62	288	0
NMTAP	62	312	4
NMTAP	62	336	0
NMTAP	62	360	4
NMTAP	63	0	1
NMTAP	63	32	1
NMTAP	63	64	1
NMTAP	63	96	5
NMTAP	63	128	5
NMTAP	63	160	5
NMTAP	63	192	0
NMTAP	63	204	1
NMTAP	63	216	2
NMTAP	63	228	3
NMTAP	63	240	4
NMTAP	63	252	5
NMTAP	63	264	6
NMTAP	63	276	7
NMTAP	63	288	0
NMTAP	63	288	4
NMTAP	63	320	4
NMTAP	63	352	4
BRTAP	64	0	1
BRTAP	64	0	5
NMTAP	64	192	3
NMTAP	64	192	7
BRHLD	65	0	0	96
BRSTR	65	0	1
NMSI_	65	0	1	96	48	3
NMHLD	65	192	4	96
NMSTR	65	192	5
NMSI_	65	192	5	96	48	7
BXSTR	66	0	0
NMSI_	66	0	0	96	48	2
NMSI_	66	0	0	96	48	4
BXSTR	66	192	7
NMSI_	66	192	7	96	48	3
NMSI_	66	192	7	96	48	5
BRHLD	67	0	6	96
NMTAP	67	96	7
NMHLD	67	144	1	96
NMTAP	67	240	0
BRTAP	67	288	3
BRTAP	67	288	6
NMTAP	68	0	1
NMTAP	68	0	4
NMTAP	68	48	2
NMTAP	68	72	3
NMSTR	68	96	1
NMSCR	68	96	1	96	48	4
NMTAP	68	144	0
NMTAP	68	144	6
NMSTR	68	192	1
NMSCL	68	192	1	96	48	6
NMTAP	68	216	5
NMSTR	68	240	5
NMSI_	68	240	5	96	48	0
NMTAP	68	288	1
NMTAP	68	336	5
NMTAP	69	0	4
NMTAP	69	48	3
NMTAP	69	48	7
NMTAP	69	96	1
NMTAP	69	120	0
NMTAP	69	144	2
NMHLD	69	192	5	48
NMHLD	69	264	4	48
NMHLD	69	264	6	48
NMTAP	69	336	3
NMTAP	69	336	7
NMTAP	70	0	3
NMTAP	70	0	7
NMTAP	70	48	5
NMTAP	70	72	4
NMSTR	70	96	6
NMSCL	70	96	6	96	48	3
NMTAP	70	144	1
NMTAP	70	144	7
NMSTR	70	192	6
NMSCR	70	192	6	96	48	1
NMTAP	70	216	2
NMSTR	70	240	2
NMSI_	70	240	2	96	48	7
NMTAP	70	288	6
NMTAP	70	336	2
NMTAP	71	0	3
NMTAP	71	48	0
NMTAP	71	48	4
NMTAP	71	96	6
NMTAP	71	120	7
NMTAP	71	144	5
NMHLD	71	192	0	48
NMHLD	71	192	4	48
NMHLD	71	264	2	48
NMHLD	71	264	6	48
NMTAP	71	336	3
NMTAP	71	336	7
BRTAP	72	0	3
BRTAP	72	0	7
NMTAP	72	48	1
NMTAP	72	72	0
NMSTR	72	96	1
NMSCL	72	96	1	96	48	6
NMTAP	72	144	2
NMTAP	72	144	4
NMSTR	72	192	1
NMSCR	72	192	1	96	48	4
NMTAP	72	216	3
NMTAP	72	240	3
NMTAP	72	288	1
NMHLD	72	336	0	96
NMTAP	73	48	4
NMTAP	73	96	0
NMTAP	73	96	4
NMTAP	73	112	3
NMTAP	73	112	7
NMTAP	73	128	2
NMTAP	73	128	6
NMTAP	73	144	1
NMTAP	73	144	5
NMHLD	73	192	6	48
NMHLD	73	192	7	48
NMHLD	73	264	2	48
NMHLD	73	264	3	48
NMTAP	73	336	1
NMTAP	73	336	5
BRTAP	74	0	1
BRTAP	74	0	5
NMTAP	74	48	7
NMTAP	74	72	0
NMHLD	74	96	6	48
NMTAP	74	144	4
NMTAP	74	168	5
NMTAP	74	192	3
NMTAP	74	216	4
NMTAP	74	240	2
NMTAP	74	264	3
NMSTR	74	288	1
NMSXL	74	288	1	96	240	4
NMTAP	74	336	0
NMTAP	74	336	2
NMTAP	75	0	7
NMTAP	75	48	6
NMSTR	75	96	5
NMSCR	75	96	5	96	48	0
NMTAP	75	144	5
BRTAP	75	288	3
BRTAP	75	288	7
EXTAP	76	0	2
EXTAP	76	0	6
NMTAP	76	48	1
NMTAP	76	72	0
NMTAP	76	96	2
NMTAP	76	120	7
NMTAP	76	144	0
NMTAP	76	168	7
NMTAP	76	192	1
NMTAP	76	216	6
NMTAP	76	240	7
NMTAP	76	264	6
NMTAP	76	288	0
NMTAP	76	336	1
NMTAP	76	336	5
NMHLD	77	0	2	48
NMTAP	77	48	7
NMHLD	77	72	2	48
NMTAP	77	120	3
NMHLD	77	144	2	48
NMTAP	77	192	0
NMHLD	77	216	2	48
NMTAP	77	264	4
NMTAP	77	288	2
NMTAP	77	336	3
NMTAP	77	336	5
BRSTR	78	0	6
NMSI_	78	0	6	96	24	1
BRSTR	78	72	2
NMSI_	78	72	2	96	24	5
BRSTR	78	144	7
NMSI_	78	144	7	96	24	4
BRSTR	78	216	3
NMSI_	78	216	3	96	24	0
NMTAP	78	288	5
NMTAP	78	336	5
NMTAP	79	0	1
NMTAP	79	48	1
NMTAP	79	96	3
NMTAP	79	120	2
NMTAP	79	144	3
NMHLD	79	192	1	48
NMHLD	79	192	4	48
NMHLD	79	264	3	48
NMHLD	79	264	6	48
NMTAP	79	336	0
NMTAP	79	336	7
NMTAP	80	0	1
NMTAP	80	24	7
NMTAP	80	48	1
NMTAP	80	72	7
NMTAP	80	96	0
NMTAP	80	120	6
NMTAP	80	144	0
NMTAP	80	168	6
NMTAP	80	192	1
NMTAP	80	216	4
NMTAP	80	240	2
NMTAP	80	264	3
NMTTP	80	288	2	E	1	M1
NMTAP	81	0	6
NMTAP	81	24	0
NMTAP	81	48	6
NMTAP	81	72	0
NMTAP	81	96	7
NMTAP	81	120	1
NMTAP	81	144	7
NMTAP	81	168	1
NMTAP	81	192	6
NMTAP	81	216	3
NMTAP	81	240	5
NMTAP	81	264	4
NMTTP	81	288	7	E	1	M1
NMTAP	82	0	1
NMTAP	82	24	0
NMTAP	82	48	2
NMTAP	82	72	7
NMTAP	82	96	4
NMTAP	82	120	5
NMTAP	82	144	3
NMTAP	82	168	6
NMTAP	82	192	2
NMTAP	82	216	4
NMTAP	82	240	0
NMTAP	82	264	7
NMTAP	82	288	1
NMSTR	82	312	5
NMSXL	82	312	5	96	192	0
NMSTR	82	336	3
NMSXR	82	336	3	96	168	0
NMTAP	83	288	1
NMTAP	83	288	7
NMHLD	84	0	0	48
NMSTR	84	0	6
NMSI_	84	0	6	96	48	4
NMHLD	84	96	0	48
NMTAP	84	96	6
NMHLD	84	192	1	48
NMSTR	84	192	7
NMSI_	84	192	7	96	48	3
NMHLD	84	288	1	48
NMTAP	84	288	7
NMSTR	85	0	0
NMSV_	85	0	0	96	48	2
NMTAP	85	0	2
NMSTR	85	96	1
NMSLR	85	96	1	96	96	5
NMHLD	85	192	0	48
NMHLD	85	288	0	48
NMSTR	86	0	1
NMSI_	86	0	1	96	48	3
NMHLD	86	0	7	48
NMTAP	86	96	1
NMHLD	86	96	7	48
NMSTR	86	192	0
NMSI_	86	192	0	96	48	4
NMHLD	86	192	6	48
NMTAP	86	288	0
NMHLD	86	288	6	48
NMTAP	87	0	5
NMSTR	87	0	7
NMSV_	87	0	7	96	48	5
NMSTR	87	96	6
NMSLL	87	96	6	96	96	2
NMHLD	87	192	7	48
BRTAP	87	288	0
NMSTR	88	0	1
NMSI_	88	0	1	96	48	5
NMTAP	88	48	1
NMSTR	88	96	0
NMSI_	88	96	0	96	48	4
NMTAP	88	144	0
NMSTR	88	192	7
NMSI_	88	192	7	96	48	3
NMTAP	88	240	7
NMSTR	88	288	6
NMSI_	88	288	6	96	48	2
NMTAP	88	336	6
NMSTR	89	0	5
NMSI_	89	0	5	96	48	1
NMTAP	89	48	5
NMSTR	89	96	4
NMSI_	89	96	4	96	48	0
NMTAP	89	144	4
NMTAP	89	192	3
NMTAP	89	240	3
BRTAP	89	288	2
BRTAP	89	288	6
NMTAP	90	0	7
NMTAP	90	12	6
NMTAP	90	24	5
NMTAP	90	48	0
NMTAP	90	72	7
NMTAP	90	96	0
NMTAP	90	120	7
NMTAP	90	144	0
NMTAP	90	168	7
NMTAP	90	192	0
NMTAP	90	204	1
NMTAP	90	216	2
NMTAP	90	240	7
NMTAP	90	264	0
NMTAP	90	288	7
NMTAP	90	300	6
NMTAP	90	312	5
NMTAP	90	336	0
NMTAP	90	348	1
NMTAP	90	360	2
BRHLD	91	0	4	0
NMHLD	91	24	4	0
NMHLD	91	48	4	0
NMHLD	91	72	4	0
NMHLD	91	96	4	0
NMHLD	91	120	4	0
NMHLD	91	144	4	0
NMHLD	91	168	4	0
NMHLD	91	192	3	0
NMHLD	91	192	4	0
NMSTR	91	288	0
NMSCR	91	288	0	96	48	4
NMSTR	91	288	1
NMSI_	91	288	1	96	48	4
BRSTR	92	0	0
NMSI_	92	0	0	96	48	5
BRSTR	92	0	1
NMSCL	92	0	1	96	48	5
NMTTP	92	12	1	E	1	M1
BRSTR	92	96	0
NMSLR	92	96	0	96	48	4
BRSTR	92	96	1
NMSI_	92	96	1	96	48	3
NMTTP	92	108	1	E	1	M1
BRTAP	92	192	0
BRTAP	92	192	1
NMTTP	92	204	1	E	1	M1
BRTAP	92	288	2
NMTAP	92	288	6
NMTAP	92	336	2
BRTAP	92	336	6
BRTAP	93	0	0
NMTAP	93	0	4
BRHLD	93	96	1	24
NMHLD	93	96	3	24
NMHLD	93	144	0	24
BRHLD	93	144	7	24
BRHLD	93	192	4	24
NMHLD	93	192	6	24
BRHLD	93	240	1	24
NMHLD	93	240	3	24
NMTAP	93	288	0
BRTAP	93	288	4
NMTAP	93	336	1
NMTAP	93	348	2
NMTAP	93	360	3
NMTAP	93	372	4
BRSTR	94	0	0
NMSI_	94	0	0	96	48	5
NMSV_	94	0	0	96	48	3
NMTAP	94	0	5
BRTAP	94	96	0
BRTAP	94	192	2
BRTAP	94	192	6
NMTAP	94	240	1
NMTAP	94	264	5
NMTAP	94	288	0
NMTAP	94	312	4
NMTAP	94	336	7
NMTAP	94	360	3
BRSTR	95	0	2
NMSCR	95	0	2	96	48	5
BRSTR	95	0	6
NMSCR	95	0	6	96	48	1
NMSTR	95	96	2
NMSV_	95	96	2	96	48	7
NMSTR	95	96	6
NMSI_	95	96	6	96	48	3
NMTAP	95	192	2
NMTAP	95	192	6
BRTAP	95	288	1
BRTAP	95	288	5
BRSTR	96	0	0
NMSI_	96	0	0	96	48	4
BRSTR	96	0	7
NMSI_	96	0	7	96	48	3
NMTAP	96	16	1
NMTAP	96	16	6
NMTAP	96	32	2
NMTAP	96	32	5
NMTAP	96	48	3
NMTAP	96	48	4
BRTAP	96	96	0
BRTAP	96	96	7
BRTAP	96	192	1
NMTAP	96	192	6
BRTAP	96	288	4
BRTAP	96	288	5
NMTTP	96	336	0	D	0	M1
NMTTP	96	336	6	A	1	M1
NMTTP	96	336	6	D	0	M1
NMTTP	96	336	7	A	0	M1
NMTTP	96	336	7	D	0	M1
BRTAP	97	0	0
BRTAP	97	0	1
NMTTP	97	48	2	A	1	M1
NMTTP	97	48	2	D	0	M1
NMTTP	97	48	3	A	0	M1
NMTTP	97	48	3	D	0	M1
NMTTP	97	48	4	D	0	M1
BRTAP	97	96	4
BRTAP	97	96	5
BRTAP	97	192	6
BRTAP	97	192	7
BRTAP	97	240	3
BRTAP	97	240	4
BRTAP	97	288	0
BRTAP	97	288	1
NMTTP	97	336	6	A	1	M1
NMTTP	97	348	6	B	0	M1
NMTTP	97	360	0	C	1	M1
NMTTP	97	372	2	B	0	M1
NMTTP	98	0	2	A	1	M1
NMTTP	98	96	0	A	0	M1
NMTTP	98	96	0	D	1	M1
NMTTP	98	96	3	A	0	M1
NMTTP	98	96	4	A	0	M1
NMTTP	98	96	4	D	0	M1
NMTTP	98	96	7	A	0	M1
NMTAP	98	192	1
NMTAP	98	192	5
NMTAP	98	240	3
NMTAP	98	240	7
BRTAP	98	288	6
NMTAP	98	300	5
BRTAP	98	312	4
NMTAP	98	324	3
BRTAP	98	336	2
NMTAP	98	348	1
BRTAP	98	360	0
NMTAP	98	372	7
BXSTR	99	0	6
BRSSL	99	0	6	96	48	2
NMTAP	99	96	2
NMTTP	99	96	6	A	1	M1
NMSTR	99	144	4
BRSSL	99	144	4	96	48	0
NMTAP	99	240	0
NMTTP	99	240	4	A	1	M1
BXSTR	99	288	6
BRSF_	99	288	6	96	48	2

T_REC_TAP	584
T_REC_BRK	64
T_REC_XTP	4
T_REC_BXX	4
T_REC_HLD	96
T_REC_XHO	0
T_REC_BHO	8
T_REC_BXH	0
T_REC_STR	97
T_REC_BST	21
T_REC_XST	0
T_REC_XBS	12
T_REC_TTP	72
T_REC_THO	0
T_REC_SLD	131
T_REC_BSL	3
T_REC_ALL	1096
T_NUM_TAP	757
T_NUM_BRK	112
T_NUM_HLD	96
T_NUM_SLD	131
T_NUM_ALL	1096
T_JUDGE_TAP	858
T_JUDGE_HLD	148
T_JUDGE_SLD	134
T_JUDGE_ALL	1140
TTM_EACHPAIRS	222
TTM_SCR_TAP	378500
TTM_SCR_BRK	291200
TTM_SCR_HLD	96000
TTM_SCR_SLD	196500
TTM_SCR_ALL	962200
TTM_SCR_S	922500
TTM_SCR_SS	951000
TTM_RAT_ACV	10117

