VERSION	0.00.00	1.05.00
FES_MODE	0
BPM_DEF	185.000	185.000	185.000	185.000
MET_DEF	4	4
RESOLUTION	384
CLK_DEF	384
COMPATIBLE_CODE	MA2

BPM	0	0	185.000
MET	0	0	4	4

BXTAP	2	0	0
BXTAP	2	0	6
NMTAP	2	96	4
NMTAP	2	96	5
NMTAP	2	192	1
NMTAP	2	192	2
NMTAP	2	288	3
NMTAP	2	288	7
NMTAP	3	0	4
NMTAP	3	0	5
NMTAP	3	96	0
NMTAP	3	96	4
NMTAP	3	192	2
NMTAP	3	192	3
NMTAP	3	288	3
NMTAP	3	288	7
NMTAP	4	0	1
NMTAP	4	0	5
NMTAP	4	96	2
NMTAP	4	96	3
NMTAP	4	192	4
NMTAP	4	192	6
NMTAP	4	288	0
NMTAP	4	288	7
NMTAP	5	0	1
NMTAP	5	0	3
NMSTR	5	96	0
NMSCR	5	96	0	96	96	3
NMSTR	5	96	4
NMSCR	5	96	4	96	96	7
NMHLD	6	0	6	72
NMHLD	6	72	5	72
NMTAP	6	144	4
NMHLD	6	192	1	72
NMHLD	6	264	2	72
NMTAP	6	336	3
NMHLD	7	0	7	72
NMHLD	7	72	6	72
NMTAP	7	144	5
NMHLD	7	192	0	72
NMHLD	7	264	1	72
NMTAP	7	336	2
NMTAP	8	0	7
NMTAP	8	48	6
NMTAP	8	96	5
NMTAP	8	144	4
NMTAP	8	192	3
NMTAP	8	240	2
NMTAP	8	288	1
NMTAP	8	336	0
EXHLD	9	0	7	96
EXHLD	9	96	5	96
EXHLD	9	192	3	96
EXHLD	9	288	1	96
BRTAP	10	0	0
NMTAP	10	288	3
NMTAP	10	288	4
NMTTP	11	0	0	C	1	M1
NMTTP	11	0	1	B	0	M1
NMTTP	11	0	2	B	0	M1
NMTTP	11	0	5	B	0	M1
NMTTP	11	0	6	B	0	M1
NMTAP	11	288	6
NMTAP	11	288	7
NMTAP	11	336	6
NMTAP	11	336	7
BRHLD	12	0	6	48
BRHLD	12	0	7	48
NMHLD	12	96	3	48
NMHLD	12	96	5	48
NMHLD	12	192	2	48
NMHLD	12	192	3	48
NMHLD	12	288	1	48
NMHLD	12	288	7	48
NMHLD	13	0	4	48
NMHLD	13	0	5	48
NMHLD	13	96	2	48
NMHLD	13	96	4	48
NMHLD	13	192	0	48
NMHLD	13	192	1	48
NMTAP	13	288	7
NMTAP	13	336	7
EXHLD	14	0	0	48
EXHLD	14	0	6	48
NMHLD	14	96	2	48
NMHLD	14	96	3	48
NMHLD	14	192	3	48
NMHLD	14	192	5	48
NMTAP	14	288	6
NMTAP	14	312	7
NMTAP	14	336	6
NMTAP	14	360	7
NMHLD	15	0	6	96
NMTAP	15	96	4
NMTAP	15	192	2
NMTAP	15	192	3
NMTAP	15	240	2
NMTAP	15	240	3
NMTAP	15	288	1
NMTAP	15	288	4
NMSTR	16	0	0
NMSI_	16	0	0	96	48	2
NMSTR	16	96	7
NMSI_	16	96	7	96	48	3
NMSTR	16	192	0
NMSI_	16	192	0	96	48	2
NMSTR	16	288	6
NMSI_	16	288	6	96	48	4
NMSTR	17	0	7
NMSI_	17	0	7	96	48	3
NMSTR	17	96	6
NMSI_	17	96	6	96	48	4
NMTAP	17	192	0
NMTAP	17	288	7
NMTAP	17	336	7
BRSTR	18	0	7
NMSCL	18	0	7	96	192	1
EXTAP	19	0	0
EXTAP	19	0	2
EXTAP	19	96	5
EXTAP	19	96	7
NMSTR	19	192	0
NMSI_	19	192	0	96	48	4
NMSTR	19	192	7
NMSI_	19	192	7	96	48	3
EXTAP	20	0	0
EXTAP	20	0	7
BRTAP	20	96	1
NMTAP	20	192	2
NMTAP	20	192	3
NMTAP	20	288	4
NMTAP	20	288	5
NMTAP	20	336	4
NMTAP	20	336	5
NMTAP	21	0	3
NMSTR	21	0	6
NMSI_	21	0	6	96	48	2
NMSTR	21	96	7
NMSI_	21	96	7	96	48	1
NMTAP	21	192	5
NMTAP	21	288	2
NMTAP	21	288	4
NMHLD	22	0	0	288
NMSTR	22	0	2
NMSUL	22	0	2	96	192	5
NMTTP	23	0	0	C	1	M1
NMTTP	23	0	4	B	0	M1
NMTTP	23	0	5	B	0	M1
NMTTP	23	0	5	E	0	M1
NMTTP	23	0	6	B	0	M1
NMTTP	23	0	6	E	0	M1
BRTAP	23	288	6
NMTTP	24	0	0	A	1	M1
NMTTP	24	0	1	E	0	M1
NMTTP	24	0	1	D	0	M1
BXHLD	24	0	7	192
NMTTP	24	96	1	A	1	M1
NMTTP	24	96	2	E	0	M1
NMTTP	24	96	2	D	0	M1
NMTTP	24	192	2	A	1	M1
NMTTP	24	192	3	E	0	M1
NMTTP	24	192	3	D	0	M1
BXTAP	24	288	4
BXHLD	25	0	0	96
NMTTP	25	0	7	E	0	M1
NMTTP	25	0	7	A	1	M1
NMTTP	25	0	7	D	0	M1
NMTTP	25	96	6	E	0	M1
NMTTP	25	96	6	A	1	M1
NMTTP	25	96	6	D	0	M1
BXTAP	25	192	3
BXTAP	25	240	3
BXTAP	25	288	3
NMTTP	26	0	0	A	1	M1
NMTTP	26	0	1	E	0	M1
NMTTP	26	0	1	D	0	M1
BXHLD	26	0	7	96
NMTTP	26	96	1	A	1	M1
NMTTP	26	96	2	E	0	M1
NMTTP	26	96	2	D	0	M1
BRTAP	26	192	6
BRTAP	26	240	6
BRTAP	26	288	4
BRTAP	26	336	4
BRHLD	27	0	7	192
NMTTP	27	192	0	C	1	M1
NMTTP	27	192	3	B	0	M1
NMTTP	27	192	4	B	0	M1
NMHLD	28	0	0	48
NMHLD	28	0	1	48
NMHLD	28	96	2	48
NMHLD	28	96	7	48
NMHLD	28	192	3	48
NMSTR	28	192	6
NMSI_	28	192	6	96	48	4
NMHLD	29	0	3	48
NMHLD	29	0	5	48
NMSTR	29	96	1
NMSCR	29	96	1	96	96	4
NMSTR	29	96	4
NMSCR	29	96	4	96	96	7
BXHLD	30	0	3	288
BXSTR	30	0	7
NMSXL	30	0	7	96	192	4
NMTAP	31	0	4
NMTAP	31	0	5
NMTAP	31	96	0
NMTAP	31	96	2
NMTAP	31	192	6
NMTAP	31	192	7
NMTTP	31	288	3	B	0	M1
NMTTP	31	288	3	E	0	M1
NMTTP	31	288	4	B	0	M1
NMTTP	31	288	4	E	0	M1
NMTTP	31	288	5	E	0	M1
BRTAP	32	0	0
BRTAP	32	0	1
NMHLD	32	96	5	96
NMTAP	32	192	4
NMTAP	32	240	4
NMTAP	32	288	3
NMTAP	32	288	6
NMTAP	33	0	2
NMTAP	33	48	2
NMHLD	33	96	1	96
NMTAP	33	96	3
NMTAP	33	192	0
NMTAP	33	240	0
NMTAP	33	288	2
NMTAP	33	288	7
BRTAP	34	0	6
BRTAP	34	0	7
NMHLD	34	96	2	96
NMTAP	34	192	3
NMTAP	34	240	3
NMSTR	34	288	1
NMSI_	34	288	1	96	48	6
NMTAP	34	288	4
NMSTR	35	0	5
NMSI_	35	0	5	96	48	2
NMSTR	35	96	7
NMSSR	35	96	7	96	144	3
BXTAP	36	0	6
BXTAP	36	24	7
BXTAP	36	48	6
BXTAP	36	72	7
BXTAP	36	96	6
NMTAP	36	192	2
NMTAP	36	192	3
NMTAP	36	288	1
NMHLD	36	288	4	96
NMTAP	37	0	7
NMTAP	37	48	7
NMHLD	37	96	0	96
NMTAP	37	96	6
NMTAP	37	192	3
NMTAP	37	288	1
NMTAP	37	312	0
NMTAP	37	336	1
NMTAP	37	360	0
NMSTR	38	0	1
NMSI_	38	0	1	96	48	4
NMSI_	38	0	1	96	48	5
NMSTR	38	192	6
NMSI_	38	192	6	96	48	2
NMSI_	38	192	6	96	48	3
NMSTR	39	0	1
NMSI_	39	0	1	96	48	4
NMSTR	39	96	5
NMSI_	39	96	5	96	48	0
NMSTR	39	192	2
NMSI_	39	192	2	96	48	5
NMSTR	39	288	6
NMSCR	39	288	6	96	768	4
BRHLD	40	0	1	1344
CNSUR	42	0	4	0	576	5
EXTAP	44	0	2
NMTTP	44	96	4	E	0	M1
NMTAP	44	192	1
NMTAP	44	240	1
NMTTP	44	288	5	E	0	M1
NMTAP	45	0	2
NMTTP	45	96	6	E	0	M1
NMTAP	45	192	3
NMTAP	45	240	3
NMTTP	45	288	7	E	0	M1
NMTAP	46	0	7
NMTAP	46	48	7
NMTTP	46	96	1	E	0	M1
NMTAP	46	192	6
NMTAP	46	240	6
NMTTP	46	288	2	E	0	M1
NMTAP	47	0	0
NMTAP	47	0	5
NMTAP	47	96	1
NMTAP	47	96	4
NMTAP	47	144	1
NMTAP	47	144	4
NMTAP	47	240	3
NMTAP	47	240	6
NMSTR	47	288	3
BRSI_	47	288	3	96	48	0
NMTAP	47	288	6
BRHLD	48	0	7	672
NMTTP	49	0	6	E	0	M1
NMTTP	49	96	5	E	0	M1
NMTTP	49	192	4	E	0	M1
NMTTP	49	288	3	E	0	M1
NMHLD	50	0	1	672
NMTTP	50	96	2	B	0	M1
NMTTP	50	192	3	B	0	M1
NMTTP	50	288	4	B	0	M1
NMTTP	51	0	5	B	0	M1
NMTTP	51	96	6	B	0	M1
NMTTP	51	192	7	B	0	M1
EXTAP	51	288	0
EXSTR	52	0	3
NMSI_	52	0	3	96	48	0
EXTAP	52	0	7
NMSTR	52	96	5
NMSI_	52	96	5	96	48	2
NMSTR	52	192	1
NMSI_	52	192	1	96	48	4
NMSTR	52	288	6
NMSI_	52	288	6	96	48	3
NMTAP	53	0	7
NMSTR	53	96	0
BRSCR	53	96	0	96	96	3
NMSTR	53	96	4
BRSCR	53	96	4	96	96	7
EXSTR	54	0	3
NMSI_	54	0	3	96	48	0
EXTAP	54	0	7
NMSTR	54	96	5
NMSI_	54	96	5	96	48	2
NMSTR	54	192	1
NMSI_	54	192	1	96	48	4
NMTAP	54	288	0
NMSTR	55	0	7
NMSF_	55	0	7	96	96	3
EXHLD	56	0	2	96
EXTAP	56	0	5
NMTAP	56	48	5
NMTAP	56	96	5
NMTAP	56	144	5
NMTAP	56	192	3
NMTAP	56	192	6
NMTAP	56	240	3
NMTAP	56	240	6
NMTAP	56	288	3
NMTAP	56	288	6
EXTAP	57	0	2
EXHLD	57	0	5	96
NMTAP	57	48	2
NMTAP	57	96	2
NMTAP	57	144	2
NMTAP	57	192	1
NMTAP	57	192	4
NMTAP	57	240	1
NMTAP	57	240	4
NMTAP	57	288	1
NMTAP	57	288	4
EXHLD	58	0	2	96
EXTAP	58	0	5
NMTAP	58	48	5
NMTAP	58	96	6
NMTAP	58	144	6
NMTAP	58	192	2
NMTAP	58	192	5
NMTAP	58	240	2
NMTAP	58	240	5
NMTAP	58	288	1
NMTAP	58	288	4
NMTAP	58	336	1
NMTAP	58	336	4
BXTAP	59	0	1
BXSTR	59	0	4
NMSF_	59	0	4	96	96	0
NMTAP	60	0	1
NMTAP	60	24	0
NMTAP	60	48	1
NMTAP	60	72	0
NMTAP	60	96	1
NMTAP	60	120	0
NMTAP	60	144	1
NMTAP	60	168	0
NMTAP	60	192	1
NMTAP	60	216	0
NMTAP	60	240	1
NMTAP	60	264	0
BRTAP	60	288	1
NMTAP	61	0	6
NMTAP	61	24	7
NMTAP	61	48	6
NMTAP	61	72	7
NMTAP	61	96	6
NMTAP	61	120	7
NMTAP	61	144	6
NMTAP	61	168	7
NMTAP	61	192	6
NMTAP	61	216	7
NMTAP	61	240	6
NMTAP	61	264	7
BRTAP	61	288	6
NMTAP	62	0	2
NMTAP	62	24	3
NMTAP	62	48	2
NMTAP	62	72	3
NMTAP	62	96	2
NMTAP	62	120	3
NMTAP	62	144	2
NMTAP	62	168	3
NMTAP	62	192	1
NMTAP	62	216	4
NMTAP	62	240	1
NMTAP	62	264	4
NMTAP	62	288	1
NMTAP	62	312	4
NMTAP	62	336	1
NMTAP	62	360	4
NMHLD	63	0	0	96
NMHLD	63	96	2	96
NMHLD	63	192	4	96
NMHLD	63	288	6	96
BXSTR	64	0	0
NMSI_	64	0	0	96	48	4
BXSTR	64	192	3
NMSI_	64	192	3	96	48	0
BXSTR	64	192	5
NMSI_	64	192	5	96	48	0
EXTAP	65	0	1
EXTAP	65	0	7
NMTAP	65	96	4
NMTAP	65	96	6
BXSTR	65	192	4
NMSI_	65	192	4	96	48	2
BXSTR	65	192	6
NMSI_	65	192	6	96	48	2
BXSTR	66	0	1
NMSI_	66	0	1	96	48	5
BXSTR	66	0	3
NMSI_	66	0	3	96	48	5
BXSTR	66	192	4
NMSI_	66	192	4	96	48	0
BXSTR	66	192	6
NMSI_	66	192	6	96	48	0
BXSTR	67	0	7
NMSF_	67	0	7	96	96	3
BRTAP	67	288	0
BRTAP	67	288	7
NMSTR	68	0	6
NMSV_	68	0	6	96	48	3
NMSTR	68	96	0
NMSCR	68	96	0	96	48	3
NMSTR	68	192	4
NMSI_	68	192	4	96	48	1
NMSI_	68	192	4	96	48	7
NMTAP	69	0	0
NMTAP	69	48	0
NMTAP	69	96	1
NMTAP	69	96	7
BRSTR	69	192	5
NMSI_	69	192	5	96	48	2
BRSTR	69	192	7
NMSI_	69	192	7	96	48	2
NMSTR	70	0	1
NMSV_	70	0	1	96	48	4
NMSTR	70	96	7
NMSCL	70	96	7	96	48	4
NMSTR	70	192	3
NMSI_	70	192	3	96	48	0
NMSI_	70	192	3	96	48	6
NMTAP	71	0	7
NMTAP	71	48	7
NMTAP	71	96	0
NMHLD	71	96	6	96
NMTTP	71	192	1	B	0	M1
NMTTP	71	192	2	B	0	M1
NMTTP	71	192	2	E	1	M1
NMSTR	72	0	6
NMSV_	72	0	6	96	48	3
NMSTR	72	96	0
NMSCR	72	96	0	96	48	3
NMSTR	72	192	4
NMSI_	72	192	4	96	48	1
NMSI_	72	192	4	96	48	7
EXTAP	73	48	0
EXTAP	73	48	6
EXTAP	73	96	0
EXTAP	73	96	6
BRSTR	73	192	5
NMSI_	73	192	5	96	48	2
BRSTR	73	192	7
NMSI_	73	192	7	96	48	2
NMSTR	74	0	1
NMSV_	74	0	1	96	48	4
NMSTR	74	96	7
NMSCL	74	96	7	96	48	4
NMSTR	74	192	3
NMSI_	74	192	3	96	48	0
NMSI_	74	192	3	96	48	6
EXSTR	75	0	1
NMSI_	75	0	1	96	48	6
EXSTR	75	96	5
NMSI_	75	96	5	96	48	2
EXSTR	75	192	7
NMSSR	75	192	7	96	144	3
BRSTR	76	96	0
NMSI_	76	96	0	96	48	4
NMSTR	76	192	5
NMSI_	76	192	5	96	48	0
NMSI_	76	192	5	96	48	2
NMTAP	77	0	7
NMTAP	77	48	7
NMTAP	77	96	1
NMHLD	77	96	6	96
BRSTR	77	192	7
NMSI_	77	192	7	96	48	3
NMSTR	78	0	1
NMSV_	78	0	1	96	48	4
NMSTR	78	96	7
NMSCL	78	96	7	96	48	4
NMSTR	78	192	3
NMSI_	78	192	3	96	48	0
NMSI_	78	192	3	96	48	6
BXSTR	79	0	7
NMSI_	79	0	7	96	48	3
NMSI_	79	0	7	96	48	4
BXTAP	79	192	1
BXTAP	79	192	6
EXTAP	79	288	0
EXTAP	79	288	7
NMHLD	80	0	6	72
NMHLD	80	72	4	72
NMHLD	80	144	3	72
NMHLD	80	216	1	72
NMTTP	80	288	5	B	0	M1
NMTTP	80	288	6	B	0	M1
NMTTP	80	288	6	E	0	M1
NMTAP	81	0	2
NMTAP	81	0	4
NMTAP	81	48	2
NMTAP	81	48	4
NMTAP	81	96	2
NMTAP	81	96	4
BRSTR	81	192	0
NMSI_	81	192	0	96	48	3
BRSTR	81	192	6
NMSI_	81	192	6	96	48	3
NMHLD	82	0	1	72
NMHLD	82	72	3	72
NMHLD	82	144	4	72
NMHLD	82	216	6	72
NMSTR	82	288	0
BRSCL	82	288	0	96	288	1
NMHLD	84	0	1	48
NMHLD	84	0	3	48
NMHLD	84	96	4	48
NMHLD	84	96	5	48
NMHLD	84	192	0	48
NMHLD	84	192	6	48
NMHLD	84	288	2	48
NMHLD	84	288	7	48
NMHLD	85	0	4	48
NMHLD	85	0	6	48
NMSTR	85	96	2
NMSLL	85	96	2	96	96	6
NMHLD	85	96	3	192
EXHLD	86	0	4	48
EXHLD	86	0	6	48
NMHLD	86	96	2	48
NMHLD	86	96	3	48
NMHLD	86	192	1	48
NMHLD	86	192	7	48
NMHLD	86	288	0	48
NMHLD	86	288	5	48
NMHLD	87	0	1	48
NMHLD	87	0	3	48
NMHLD	87	96	4	192
NMSTR	87	96	5
NMSXL	87	96	5	96	192	0
EXTAP	88	0	2
NMTAP	88	48	2
NMTAP	88	96	2
NMTAP	88	144	2
NMSTR	88	192	0
NMSI_	88	192	0	96	48	5
NMSTR	88	192	2
NMSI_	88	192	2	96	48	5
EXTAP	89	0	4
EXTAP	89	0	6
NMTAP	89	48	4
NMTAP	89	48	6
NMTAP	89	96	4
NMTAP	89	96	6
NMTAP	89	144	4
NMTAP	89	144	6
NMSTR	89	192	4
NMSI_	89	192	4	96	48	1
NMSTR	89	192	6
NMSI_	89	192	6	96	48	1
EXTAP	90	0	0
NMTAP	90	48	0
NMTAP	90	96	7
NMTAP	90	144	7
EXTAP	90	192	0
EXTAP	90	216	1
EXTAP	90	240	2
EXTAP	90	264	3
EXTAP	90	288	4
EXTAP	90	312	5
EXTAP	90	336	6
EXTAP	90	360	7
NMTTP	91	0	0	C	1	M1
BRTAP	91	288	6
NMTTP	92	0	0	A	1	M1
NMTTP	92	0	1	E	0	M1
NMTTP	92	0	1	D	0	M1
BRTAP	92	0	7
NMTTP	92	96	1	A	1	M1
NMTTP	92	96	2	E	0	M1
NMTTP	92	96	2	D	0	M1
BRTAP	92	96	7
NMTTP	92	192	2	A	1	M1
NMTTP	92	192	3	E	0	M1
NMTTP	92	192	3	D	0	M1
BRTAP	92	192	7
BXTAP	92	288	3
BXTAP	92	288	5
BRTAP	93	0	0
NMTTP	93	0	7	E	0	M1
NMTTP	93	0	7	A	1	M1
NMTTP	93	0	7	D	0	M1
BRTAP	93	96	0
NMTTP	93	96	6	E	0	M1
NMTTP	93	96	6	A	1	M1
NMTTP	93	96	6	D	0	M1
BXTAP	93	192	2
BXTAP	93	192	4
BXTAP	93	240	2
BXTAP	93	240	4
BXTAP	93	288	2
BXTAP	93	288	4
NMTTP	94	0	0	A	1	M1
NMTTP	94	0	1	E	0	M1
NMTTP	94	0	1	D	0	M1
BRTAP	94	0	7
NMTTP	94	96	1	A	1	M1
NMTTP	94	96	2	E	0	M1
NMTTP	94	96	2	D	0	M1
BRTAP	94	96	7
BRTAP	94	192	6
BRTAP	94	240	6
BRTAP	94	288	4
BRTAP	94	336	4
BRHLD	95	0	7	192
NMTTP	95	192	3	B	0	M1
NMTTP	95	192	4	B	0	M1
BRTAP	96	0	0
NMTTP	96	0	7	E	0	M1
NMTTP	96	0	7	A	1	M1
NMTTP	96	0	7	D	0	M1
BRTAP	96	96	0
NMTTP	96	96	6	E	0	M1
NMTTP	96	96	6	A	1	M1
NMTTP	96	96	6	D	0	M1
BRTAP	96	192	0
NMTTP	96	192	5	E	0	M1
NMTTP	96	192	5	A	1	M1
NMTTP	96	192	5	D	0	M1
BXHLD	96	288	2	48
BXHLD	96	288	4	48
NMTTP	97	0	0	A	1	M1
NMTTP	97	0	1	E	0	M1
NMTTP	97	0	1	D	0	M1
BRTAP	97	0	7
NMTTP	97	96	1	A	1	M1
NMTTP	97	96	2	E	0	M1
NMTTP	97	96	2	D	0	M1
BRTAP	97	96	7
BXTAP	97	192	3
BXTAP	97	192	5
BXTAP	97	240	3
BXTAP	97	240	5
BXTAP	97	288	2
BXTAP	97	288	4
BRTAP	98	0	0
NMTTP	98	0	7	E	0	M1
NMTTP	98	0	7	A	1	M1
NMTTP	98	0	7	D	0	M1
BRTAP	98	96	0
NMTTP	98	96	6	E	0	M1
NMTTP	98	96	6	A	1	M1
NMTTP	98	96	6	D	0	M1
BRTAP	98	192	1
BRTAP	98	240	1
BRTAP	98	288	3
BRTAP	98	336	3
BXSTR	99	0	0
BRSI_	99	0	0	96	48	4
BXSTR	99	192	2
BRSI_	99	192	2	96	48	7
BXSTR	99	192	3
BRSI_	99	192	3	96	48	6
BXTAP	100	0	0
BXTAP	100	0	5

T_REC_TAP	218
T_REC_BRK	38
T_REC_XTP	33
T_REC_BXX	30
T_REC_HLD	73
T_REC_XHO	11
T_REC_BHO	6
T_REC_BXH	6
T_REC_STR	57
T_REC_BST	9
T_REC_XST	5
T_REC_XBS	16
T_REC_TTP	107
T_REC_THO	0
T_REC_SLD	89
T_REC_BSL	7
T_REC_ALL	705
T_NUM_TAP	420
T_NUM_BRK	112
T_NUM_HLD	84
T_NUM_SLD	89
T_NUM_ALL	705
T_JUDGE_TAP	513
T_JUDGE_HLD	211
T_JUDGE_SLD	96
T_JUDGE_ALL	820
TTM_EACHPAIRS	128
TTM_SCR_TAP	210000
TTM_SCR_BRK	291200
TTM_SCR_HLD	84000
TTM_SCR_SLD	133500
TTM_SCR_ALL	718700
TTM_SCR_S	686300
TTM_SCR_SS	707500
TTM_RAT_ACV	10158

