VERSION	0.00.00	1.05.00
FES_MODE	0
BPM_DEF	185.000	185.000	185.000	185.000
MET_DEF	4	4
RESOLUTION	384
CLK_DEF	384
COMPATIBLE_CODE	MA2

BPM	0	0	185.000
MET	0	0	4	4

NMTAP	2	0	0
NMTAP	2	96	0
NMTAP	2	192	0
NMTAP	3	0	1
NMTAP	3	96	1
NMTAP	3	192	1
NMTAP	4	0	2
NMTAP	4	96	2
NMTAP	4	192	2
NMTAP	5	0	3
NMTAP	5	96	3
NMTAP	5	192	3
NMTAP	6	0	4
NMTAP	6	96	4
NMTAP	6	192	4
NMTAP	7	0	5
NMTAP	7	96	5
NMTAP	7	192	5
NMTAP	8	0	6
NMTAP	8	96	6
NMTAP	8	192	6
NMTAP	9	0	7
NMTAP	9	96	7
NMTAP	9	192	7
BRTAP	10	0	0
BRTAP	10	0	7
NMTAP	11	0	0
NMTAP	11	0	1
NMTAP	11	192	0
NMTAP	11	192	1
NMTAP	12	0	2
NMTAP	12	96	2
NMTAP	12	192	1
NMTAP	12	288	1
NMTAP	13	0	0
NMTAP	13	96	0
NMTAP	13	192	6
NMTAP	13	192	7
NMTAP	14	0	5
NMTAP	14	96	5
NMTAP	14	192	6
NMTAP	14	288	6
NMTAP	15	0	7
NMTAP	15	96	7
NMTAP	15	192	0
NMTAP	15	192	1
NMTAP	16	0	1
NMTAP	16	96	1
NMTAP	16	192	2
NMTAP	16	288	2
NMTAP	17	0	3
NMTAP	17	96	3
NMTAP	17	192	4
NMTAP	17	192	5
NMTAP	18	0	6
NMTAP	18	96	6
NMTAP	18	192	5
NMTAP	18	288	5
NMTAP	19	0	4
NMTAP	19	96	4
NMTAP	19	192	3
NMTAP	19	192	4
NMTTP	20	0	5	B	0	L1
NMTTP	20	96	6	B	0	L1
NMTTP	20	192	7	B	0	L1
NMTTP	20	288	0	B	0	L1
NMTTP	21	0	1	B	0	L1
NMTTP	21	96	2	B	0	L1
NMTTP	21	192	3	B	0	L1
NMTTP	21	192	4	B	0	L1
NMTHO	22	0	0	384	C	1	L1
BXTAP	24	0	6
BXTAP	24	0	7
EXTAP	24	96	6
EXTAP	24	96	7
EXTAP	24	192	6
EXTAP	24	192	7
BXTAP	25	0	4
BXTAP	25	0	5
NMTAP	25	96	4
NMTAP	25	96	5
NMTAP	25	192	4
NMTAP	25	192	5
BXTAP	26	0	2
BXTAP	26	0	3
NMTAP	26	96	2
NMTAP	26	96	3
NMTAP	26	192	2
NMTAP	26	192	3
BXTAP	27	0	0
BXTAP	27	0	1
NMTAP	27	96	0
NMTAP	27	96	1
NMTAP	27	192	0
NMTAP	27	192	1
NMTAP	28	0	1
NMTAP	28	96	1
NMTAP	28	192	1
NMTAP	28	288	0
NMTAP	28	288	1
NMTAP	29	0	2
NMTAP	29	96	2
NMTAP	29	192	2
NMTAP	29	288	2
NMTAP	29	288	3
NMTAP	30	0	4
NMTAP	30	96	4
NMTAP	30	192	4
NMTAP	30	288	4
NMTAP	30	288	5
NMTAP	31	0	6
NMTAP	31	0	7
NMTAP	31	96	6
NMTAP	31	96	7
NMTAP	31	192	6
NMTAP	31	192	7
NMTAP	32	0	5
NMTAP	32	96	5
NMTAP	32	192	6
NMTAP	32	192	7
NMTAP	32	288	6
NMTAP	32	288	7
NMTAP	33	0	0
NMTAP	33	96	0
NMTAP	33	192	0
NMTAP	33	192	1
NMTAP	34	0	2
NMTAP	34	96	2
NMTAP	34	192	0
NMTAP	34	192	1
NMTAP	34	288	0
NMTAP	34	288	1
NMTAP	35	0	7
NMTAP	35	96	7
NMTAP	35	192	6
NMTAP	35	192	7
NMTAP	36	0	6
NMTAP	36	96	6
NMTAP	36	192	4
NMTAP	36	192	5
NMTAP	36	288	4
NMTAP	36	288	5
NMTAP	37	0	3
NMTAP	37	96	3
NMTAP	37	192	2
NMTAP	37	192	3
NMTAP	38	0	1
NMTAP	38	96	1
NMTAP	38	192	2
NMTAP	38	192	3
NMTAP	38	288	2
NMTAP	38	288	3
NMTAP	39	0	4
NMTAP	39	96	4
NMTAP	39	192	4
NMTAP	39	192	5
NMHLD	40	0	5	192
NMHLD	40	192	4	192
NMHLD	41	0	3	192
NMTAP	41	192	2
NMHLD	42	0	2	192
NMHLD	42	192	3	192
NMHLD	43	0	4	192
NMTAP	43	192	5
NMHLD	44	0	6	192
NMHLD	44	192	5	192
NMHLD	45	0	4	192
NMTAP	45	192	3
NMHLD	46	0	1	192
NMHLD	46	192	2	192
NMHLD	47	0	3	192
NMTAP	47	192	4
NMTAP	48	0	3
NMTAP	48	96	3
NMTAP	48	192	2
NMTAP	48	288	2
NMTAP	49	0	1
NMTAP	49	96	1
NMTAP	49	192	0
NMTAP	49	192	1
NMTAP	50	0	7
NMTAP	50	96	7
NMTAP	50	192	6
NMTAP	50	288	6
NMTAP	51	0	5
NMTAP	51	96	5
NMTAP	51	192	4
NMTAP	51	192	5
NMTAP	52	0	4
NMTAP	52	96	4
NMTAP	52	192	5
NMTAP	52	288	5
NMTAP	53	0	6
NMTAP	53	96	6
NMTAP	53	192	0
NMTAP	53	192	7
NMTAP	54	0	0
NMTAP	54	96	0
NMTAP	54	192	1
NMTAP	54	288	1
NMTAP	55	0	2
NMTAP	55	96	2
NMTAP	55	192	3
NMTAP	55	192	4
NMSTR	56	0	5
NMSI_	56	0	5	96	192	2
NMSTR	57	0	1
NMSI_	57	0	1	96	192	5
NMSTR	58	0	6
NMSI_	58	0	6	96	192	3
NMSTR	59	0	1
NMSI_	59	0	1	96	192	4
NMSTR	60	0	6
NMSUL	60	0	6	96	480	3
NMSTR	62	0	1
NMSUR	62	0	1	96	480	4
EXTAP	64	0	4
EXTAP	64	0	5
NMTAP	64	192	4
NMTAP	64	192	5
EXTAP	65	0	3
EXTAP	65	0	4
NMTAP	65	192	3
NMTAP	65	192	4
EXTAP	66	0	2
EXTAP	66	0	3
EXTAP	66	192	2
EXTAP	66	192	3
EXTAP	67	0	3
EXTAP	67	0	4
NMTAP	68	0	2
NMTAP	68	48	2
NMTAP	68	96	2
NMTAP	68	192	1
NMTAP	68	240	1
NMTAP	68	288	1
NMTAP	69	0	0
NMTAP	69	48	0
NMTAP	69	96	0
NMTAP	69	192	6
NMTAP	69	192	7
NMTAP	69	288	6
NMTAP	69	288	7
NMTAP	70	0	5
NMTAP	70	48	5
NMTAP	70	96	5
NMTAP	70	192	6
NMTAP	70	240	6
NMTAP	70	288	6
NMTAP	71	0	7
NMTAP	71	48	7
NMTAP	71	96	7
NMTAP	71	192	0
NMTAP	71	192	1
NMTAP	72	0	1
NMTAP	72	48	1
NMTAP	72	96	1
NMTAP	72	192	2
NMTAP	72	240	2
NMTAP	72	288	2
NMTAP	73	0	3
NMTAP	73	48	3
NMTAP	73	96	3
NMTAP	73	192	4
NMTAP	73	192	5
NMTAP	73	288	4
NMTAP	73	288	5
NMTAP	74	0	6
NMTAP	74	48	6
NMTAP	74	96	6
NMTAP	74	192	5
NMTAP	74	240	5
NMTAP	74	288	5
NMTAP	75	0	4
NMTAP	75	48	4
NMTAP	75	96	4
NMTAP	75	192	2
NMTAP	75	192	3
NMTAP	76	0	2
NMTAP	76	48	2
NMTAP	76	96	2
NMTAP	76	192	0
NMTAP	76	192	1
NMTAP	76	240	0
NMTAP	76	240	1
NMTAP	76	288	0
NMTAP	76	288	1
NMTAP	77	0	7
NMTAP	77	48	7
NMTAP	77	96	7
NMTAP	77	192	6
NMTAP	77	192	7
NMTAP	78	0	5
NMTAP	78	48	5
NMTAP	78	96	5
NMTAP	78	192	6
NMTAP	78	192	7
NMTAP	78	240	6
NMTAP	78	240	7
NMTAP	78	288	6
NMTAP	78	288	7
NMTAP	79	0	0
NMTAP	79	48	0
NMTAP	79	96	0
NMTAP	79	192	0
NMTAP	79	192	1
NMTAP	80	0	1
NMTAP	80	48	1
NMTAP	80	96	1
NMTAP	80	192	2
NMTAP	80	192	3
NMTAP	80	240	2
NMTAP	80	240	3
NMTAP	80	288	2
NMTAP	80	288	3
NMTAP	81	0	4
NMTAP	81	48	4
NMTAP	81	96	4
NMTAP	81	192	4
NMTAP	81	192	5
NMTAP	82	0	6
NMTAP	82	48	6
NMTAP	82	96	6
NMTAP	82	192	4
NMTAP	82	192	5
NMTAP	82	240	4
NMTAP	82	240	5
NMTAP	82	288	4
NMTAP	82	288	5
NMTAP	83	0	3
NMTAP	83	48	3
NMTAP	83	96	3
NMTAP	83	192	2
NMTAP	83	192	3
NMTAP	84	0	2
NMTAP	84	48	2
NMTAP	84	96	2
NMTAP	84	192	0
NMTAP	84	192	1
NMTAP	84	288	0
NMTAP	84	288	1
NMTAP	85	0	2
NMTAP	85	0	7
NMTAP	85	96	3
NMTAP	85	96	6
NMTAP	85	192	4
NMTAP	85	192	5
NMTAP	86	0	5
NMTAP	86	48	5
NMTAP	86	96	5
NMTAP	86	192	6
NMTAP	86	192	7
NMTAP	86	288	6
NMTAP	86	288	7
NMTAP	87	0	0
NMTAP	87	0	5
NMTAP	87	96	1
NMTAP	87	96	4
NMTAP	87	192	2
NMTAP	87	192	3
NMTAP	88	0	1
NMTAP	88	48	1
NMTAP	88	96	1
NMTAP	88	192	2
NMTAP	88	192	3
NMTAP	88	288	2
NMTAP	88	288	3
NMTAP	89	0	1
NMTAP	89	0	4
NMTAP	89	96	0
NMTAP	89	96	5
NMTAP	89	192	6
NMTAP	89	192	7
NMTAP	90	0	0
NMTAP	90	0	7
NMTAP	90	96	0
NMTAP	90	96	7
NMTAP	90	192	1
NMTAP	90	192	6
NMTAP	90	288	1
NMTAP	90	288	6
BRTAP	91	0	2
BRTAP	91	0	5
BXTAP	92	0	4
BXTAP	92	0	5
NMTAP	92	96	4
NMTAP	92	96	5
BXTAP	92	192	6
BXTAP	92	192	7
NMTAP	92	288	6
NMTAP	92	288	7
BXTAP	93	0	0
BXTAP	93	0	1
NMTAP	93	96	0
NMTAP	93	96	1
BXTAP	93	192	2
BXTAP	93	192	3
BXTAP	94	0	2
BXTAP	94	0	3
NMTAP	94	96	2
NMTAP	94	96	3
BXTAP	94	192	0
BXTAP	94	192	1
NMTAP	94	288	0
NMTAP	94	288	1
BXTAP	95	0	6
BXTAP	95	0	7
NMTAP	95	96	6
NMTAP	95	96	7
NMTAP	95	192	4
NMTAP	95	192	5
BRTAP	96	0	6
BRTAP	96	0	7
NMTAP	96	96	6
NMTAP	96	96	7
BRTAP	96	192	0
BRTAP	96	192	5
NMTAP	96	288	0
NMTAP	96	288	5
BRTAP	97	0	1
BRTAP	97	0	4
NMTAP	97	96	1
NMTAP	97	96	4
BRTAP	97	192	2
BRTAP	97	192	3
BRTAP	98	0	0
BRTAP	98	0	1
NMTAP	98	96	0
NMTAP	98	96	1
BRTAP	98	192	2
BRTAP	98	192	7
NMTAP	98	288	2
NMTAP	98	288	7
BRTAP	99	0	3
BRTAP	99	0	6
NMTAP	99	96	3
NMTAP	99	96	6
NMTAP	99	192	4
NMTAP	99	192	5
NMTAP	99	288	4
NMTAP	99	288	5
BRTAP	100	0	3
BRTAP	100	0	6

T_REC_TAP	354
T_REC_BRK	20
T_REC_XTP	14
T_REC_BXX	22
T_REC_HLD	12
T_REC_XHO	0
T_REC_BHO	0
T_REC_BXH	0
T_REC_STR	6
T_REC_BST	0
T_REC_XST	0
T_REC_XBS	0
T_REC_TTP	8
T_REC_THO	1
T_REC_SLD	6
T_REC_BSL	0
T_REC_ALL	443
T_NUM_TAP	382
T_NUM_BRK	42
T_NUM_HLD	13
T_NUM_SLD	6
T_NUM_ALL	443
T_JUDGE_TAP	424
T_JUDGE_HLD	56
T_JUDGE_SLD	6
T_JUDGE_ALL	486
TTM_EACHPAIRS	120
TTM_SCR_TAP	191000
TTM_SCR_BRK	109200
TTM_SCR_HLD	13000
TTM_SCR_SLD	9000
TTM_SCR_ALL	322200
TTM_SCR_S	308500
TTM_SCR_SS	318000
TTM_RAT_ACV	10132

