VERSION	0.00.00	1.05.00
FES_MODE	0
BPM_DEF	160.000	160.000	160.000	160.000
MET_DEF	4	4
RESOLUTION	384
CLK_DEF	384
COMPATIBLE_CODE	MA2

BPM	0	0	160.000
MET	0	0	4	4

NMTTP	1	36	6	E	0	M1
NMTTP	1	60	7	E	0	M1
NMTTP	1	84	0	E	0	M1
NMTTP	1	108	1	E	0	M1
NMTTP	1	132	2	E	0	M1
NMTTP	1	168	3	E	0	M1
NMTTP	1	204	4	E	0	M1
NMTTP	1	240	5	E	0	M1
NMTTP	1	276	6	E	0	M1
NMTTP	1	304	7	E	0	M1
NMTTP	1	304	7	D	0	M1
NMTTP	1	352	0	E	0	M1
NMTTP	1	352	0	D	0	M1
NMTTP	2	16	1	E	0	M1
NMTTP	2	16	1	D	0	M1
NMTTP	2	64	2	E	0	M1
NMTTP	2	64	2	D	0	M1
NMTTP	2	136	3	E	0	M1
NMTTP	2	136	3	D	0	M1
NMTTP	2	210	4	E	0	M1
NMTTP	2	210	4	D	0	M1
NMTAP	2	288	2
NMTAP	2	288	5
BRSTR	3	0	1
NMSI_	3	0	1	96	96	6
BRTAP	3	0	6
NMTAP	3	144	4
NMHLD	3	192	4	96
NMSTR	3	288	7
NMSCR	3	288	7	96	96	2
NMTAP	4	48	6
NMSTR	4	96	6
NMSCL	4	96	6	96	96	3
NMTAP	4	192	2
NMTAP	4	288	1
NMTAP	5	0	1
NMSTR	5	0	3
NMSI_	5	0	3	96	96	0
NMTAP	5	144	2
NMHLD	5	192	2	96
NMSTR	5	288	0
NMSCL	5	288	0	96	96	5
NMTAP	6	48	1
NMSTR	6	96	1
NMSCR	6	96	1	96	96	4
NMTAP	6	192	5
NMTAP	6	264	7
NMTAP	6	336	6
BXHLD	7	0	6	288
NMTTP	7	144	5	E	0	M1
NMTTP	7	192	4	E	0	M1
NMTHO	7	288	0	144	C	0	M1
NMTAP	8	48	0
NMSTR	8	96	0
NMSUL	8	96	0	96	96	3
NMTAP	8	192	1
NMHLD	9	0	2	288
NMTAP	9	0	3
NMTTP	9	144	2	E	0	M1
NMTTP	9	192	3	E	0	M1
NMHLD	9	288	7	96
EXTAP	10	0	0
EXTAP	10	12	1
EXTAP	10	24	2
NMTAP	10	48	6
NMTAP	10	72	4
NMTAP	10	96	5
NMTAP	10	144	2
NMTAP	10	168	3
BXTAP	10	192	1
NMTAP	10	240	7
NMTAP	10	264	0
BXTAP	10	288	7
NMTAP	10	312	0
BXTAP	10	336	6
NMTAP	10	360	0
BRSTR	11	0	6
NMSCR	11	0	6	96	48	1
NMTAP	11	72	3
NMTAP	11	144	3
NMSTR	11	192	1
NMSCL	11	192	1	96	48	6
NMTAP	11	192	2
NMTAP	11	264	2
NMTAP	11	336	2
NMTAP	12	0	1
NMSTR	12	0	6
NMSCL	12	0	6	96	48	3
NMTAP	12	72	1
NMTAP	12	144	1
NMHLD	12	192	0	48
NMTAP	12	240	2
NMHLD	12	288	3	48
NMTAP	12	336	2
NMSTR	13	0	1
NMSCL	13	0	1	96	48	6
NMTAP	13	72	5
NMTAP	13	144	5
NMTAP	13	192	4
NMSTR	13	192	6
NMSCR	13	192	6	96	48	1
NMTAP	13	264	4
NMTAP	13	336	4
NMTAP	14	0	2
NMTAP	14	0	3
NMTAP	14	48	2
NMTAP	14	72	3
NMTAP	14	120	3
NMTAP	14	144	2
NMTAP	14	192	1
NMTAP	14	192	3
NMTAP	14	240	2
NMTAP	14	240	4
NMTAP	14	288	3
NMTAP	14	288	5
BRSTR	15	0	5
NMSCL	15	0	5	96	48	2
NMTAP	15	72	0
NMTAP	15	144	0
NMTAP	15	192	1
NMSTR	15	192	2
NMSCR	15	192	2	96	48	5
NMTAP	15	264	1
NMTAP	15	336	1
NMTAP	16	0	2
NMSTR	16	0	5
NMSCR	16	0	5	96	48	0
NMTAP	16	72	2
NMTAP	16	144	2
NMHLD	16	192	1	48
NMTAP	16	240	0
NMHLD	16	288	6	48
NMTAP	16	336	7
NMSTR	17	0	1
NMSCR	17	0	1	96	48	4
NMTAP	17	72	6
NMTAP	17	144	6
NMSTR	17	192	4
NMSCL	17	192	4	96	48	1
NMTAP	17	192	7
NMTAP	17	264	7
NMTAP	17	336	7
NMTAP	18	0	0
EXTAP	18	0	1
NMTAP	18	48	1
NMTAP	18	72	0
NMTAP	18	120	0
NMTAP	18	144	1
NMSTR	18	192	2
NMSI_	18	192	2	96	48	7
NMSTR	18	192	7
NMSI_	18	192	7	96	48	5
NMTAP	18	288	2
NMTAP	18	288	7
BRTAP	19	0	0
NMHLD	19	0	6	192
NMTAP	19	144	5
NMSTR	19	192	5
NMSCR	19	192	5	96	192	3
NMTTP	19	288	5	E	0	M1
NMTTP	19	336	4	E	0	M1
EXTAP	20	96	4
NMTAP	20	192	2
NMSTR	20	192	4
NMSI_	20	192	4	96	96	1
NMTTP	20	288	0	C	0	M1
NMHLD	21	0	0	144
NMTAP	21	144	2
NMSTR	21	192	2
NMSUR	21	192	2	96	96	6
NMTAP	21	288	1
NMSTR	21	336	1
NMSCR	21	336	1	96	96	4
NMTAP	22	144	6
NMHLD	22	192	6	96
NMTAP	22	288	4
NMTAP	22	336	4
NMTAP	22	360	5
BRSTR	23	0	3
NMSCL	23	0	3	96	96	0
NMSTR	23	96	0
NMSCL	23	96	0	96	96	5
NMSTR	23	192	5
NMSCL	23	192	5	96	96	2
NMSTR	23	288	2
NMSCL	23	288	2	96	96	7
NMSTR	24	0	7
NMSCL	24	0	7	96	96	3
NMSTR	24	96	3
NMSCL	24	96	3	96	96	7
NMSTR	24	192	7
NMSCL	24	192	7	96	96	3
NMTAP	24	288	3
NMTAP	25	0	7
NMTAP	25	48	7
NMTAP	25	96	7
NMTAP	25	144	7
NMTAP	25	192	7
NMTAP	25	216	6
NMTAP	25	240	5
NMTAP	25	264	4
NMTAP	25	288	0
NMTAP	25	312	1
NMTAP	25	336	2
NMTAP	25	360	3
NMTTP	26	0	0	C	1	M1
NMTAP	26	0	4
NMSTR	26	192	0
NMSI_	26	192	0	96	48	4
NMTAP	26	216	7
NMTAP	26	240	1
NMTAP	26	264	6
BRSTR	26	288	0
BRSCR	26	288	0	96	48	3
NMTAP	27	0	0
NMTAP	27	0	7
NMSTR	27	96	5
NMSI_	27	96	5	96	48	0
NMTAP	27	120	4
EXTAP	27	144	6
NMTAP	27	192	0
EXSTR	27	192	5
NMSI_	27	192	5	96	48	3
NMSTR	27	288	1
NMSI_	27	288	1	96	48	5
NMTAP	27	288	5
EXTAP	27	336	2
NMTAP	28	0	1
EXSTR	28	0	6
NMSCR	28	0	6	96	48	1
NMSTR	28	96	3
NMSI_	28	96	3	96	48	0
EXSTR	28	96	6
NMSI_	28	96	6	96	48	2
EXTAP	28	144	2
NMTAP	28	192	3
EXTAP	28	192	6
EXTAP	28	288	1
NMSTR	28	288	3
NMSI_	28	288	3	96	48	7
EXTAP	28	336	4
EXTAP	29	0	3
NMTAP	29	0	5
NMSTR	29	96	6
NMSI_	29	96	6	96	48	3
NMTAP	29	120	7
EXTAP	29	144	5
EXTAP	29	192	3
NMSTR	29	192	6
NMSI_	29	192	6	96	48	0
NMSTR	29	288	2
NMSI_	29	288	2	96	48	6
NMTAP	29	288	6
EXTAP	29	336	1
NMTAP	30	0	2
NMSTR	30	0	5
NMSCL	30	0	5	96	48	2
NMSTR	30	96	0
NMSI_	30	96	0	96	48	4
NMSTR	30	96	5
NMSI_	30	96	5	96	48	1
NMTAP	30	144	1
NMSTR	30	192	0
NMSCL	30	192	0	96	48	5
NMTAP	30	192	5
NMSTR	30	288	0
NMSF_	30	288	0	96	48	4
NMTAP	30	288	2
BRTAP	31	0	0
NMTAP	31	96	2
NMTAP	31	96	6
NMTAP	31	144	0
NMTAP	31	192	1
NMSTR	31	192	3
BRSI_	31	192	3	96	48	6
NMTAP	31	240	2
NMHLD	31	264	2	120
CNSI_	31	336	6	0	72	0
NMTAP	32	96	1
NMTAP	32	96	7
NMTAP	32	144	3
NMSTR	32	192	4
NMSCL	32	192	4	96	48	2
NMTAP	32	192	6
NMTAP	32	240	5
NMHLD	32	264	5	120
CNSI_	32	336	2	0	72	7
NMSTR	33	96	0
NMSI_	33	96	0	96	48	4
NMTAP	33	96	7
NMTAP	33	144	1
NMTAP	33	192	0
NMTAP	33	192	2
NMSTR	33	288	0
NMSI_	33	288	0	96	48	4
NMTAP	33	288	6
NMTAP	33	336	1
BRTAP	34	0	0
BRTAP	34	0	2
EXTAP	34	96	3
EXHLD	34	96	5	96
NMTAP	34	192	6
NMTAP	34	216	7
NMTAP	34	240	0
NMTAP	34	264	1
NMTAP	34	288	2
NMTAP	34	288	3
NMTAP	34	312	4
NMTAP	34	336	5
NMTAP	34	360	6
NMSTR	35	0	0
NMSV_	35	0	0	96	48	2
NMSTR	35	0	7
NMSUR	35	0	7	96	48	3
BRTAP	35	96	0
BRSTR	35	96	7
NMSCL	35	96	7	96	48	4
EXSTR	35	192	1
NMSI_	35	192	1	96	48	7
NMTAP	35	192	7
NMTAP	35	288	1
EXSTR	35	288	5
NMSI_	35	288	5	96	48	0
NMTAP	35	336	6
NMSTR	36	0	2
NMSCR	36	0	2	96	48	5
NMTAP	36	0	5
NMSTR	36	96	2
NMSI_	36	96	2	96	48	6
NMSTR	36	96	7
NMSI_	36	96	7	96	48	4
NMTAP	36	144	6
NMTAP	36	192	2
NMTAP	36	192	7
NMTAP	36	288	5
NMSTR	36	288	7
NMSI_	36	288	7	96	48	3
NMTAP	36	336	0
NMTAP	37	0	1
NMTAP	37	0	7
NMSTR	37	96	2
NMSI_	37	96	2	96	48	7
NMTAP	37	120	3
NMTAP	37	144	1
NMSTR	37	192	2
NMSI_	37	192	2	96	48	4
NMTAP	37	192	4
NMTAP	37	288	2
NMSTR	37	288	6
NMSI_	37	288	6	96	48	2
NMTAP	37	336	5
NMSTR	38	0	1
NMSCL	38	0	1	96	48	6
NMTAP	38	0	6
NMSTR	38	96	1
NMSI_	38	96	1	96	48	5
NMSTR	38	96	4
NMSI_	38	96	4	96	48	7
NMTAP	38	192	1
NMSTR	38	192	4
NMSCL	38	192	4	96	48	1
NMSTR	38	288	4
NMSF_	38	288	4	96	48	0
NMTAP	38	288	6
BRTAP	39	0	4
NMTAP	39	96	2
NMTAP	39	96	6
NMTAP	39	144	4
NMSTR	39	192	1
BRSI_	39	192	1	96	48	6
NMTAP	39	192	3
NMTAP	39	240	2
NMHLD	39	264	2	120
CNSI_	39	336	6	0	72	4
NMTAP	40	96	1
NMTAP	40	96	3
NMTAP	40	144	0
NMTAP	40	192	4
NMSTR	40	192	6
NMSCR	40	192	6	96	72	1
NMTAP	40	240	5
NMHLD	40	264	5	120
CNSI_	40	360	1	0	48	4
NMSTR	41	96	6
NMSI_	41	96	6	96	48	3
NMTAP	41	144	7
NMSTR	41	192	0
NMSI_	41	192	0	96	48	5
NMTAP	41	192	6
NMTAP	41	288	0
NMTAP	41	288	1
NMTAP	41	336	2
NMTTP	42	0	3	B	1	M1
NMTTP	42	0	3	E	0	M1
NMTTP	42	0	4	E	0	M1
NMTAP	42	192	6
NMTAP	42	208	5
NMTAP	42	224	4
NMTAP	42	240	0
NMTAP	42	256	1
NMTAP	42	272	2
NMSTR	42	288	5
NMSI_	42	288	5	96	48	2
NMTAP	42	312	4
NMTAP	42	336	6
BRTAP	43	0	0
NMTAP	43	96	1
NMTAP	43	120	3
NMTAP	43	144	1
NMTAP	43	168	3
NMTAP	43	192	0
NMTAP	43	216	3
NMTAP	43	240	0
NMTAP	43	264	3
NMSTR	43	288	1
BRSI_	43	288	1	96	48	5
NMTAP	43	312	3
NMTAP	43	336	2
NMTAP	43	360	3
BRTAP	44	0	1
NMTAP	44	96	6
NMTAP	44	120	4
NMTAP	44	144	6
NMTAP	44	168	4
NMTAP	44	192	7
NMTAP	44	216	4
NMTAP	44	240	7
NMTAP	44	264	4
NMSTR	44	288	6
BRSI_	44	288	6	96	48	2
NMTAP	44	312	4
NMTAP	44	336	5
NMTAP	44	360	4
BRTAP	45	0	6
NMTAP	45	96	1
NMTAP	45	120	3
NMTAP	45	144	1
NMTAP	45	168	3
NMTAP	45	192	0
NMTAP	45	216	3
NMTAP	45	240	0
NMTAP	45	264	3
NMSTR	45	288	7
BRSV_	45	288	7	96	48	2
NMTAP	45	312	3
NMTAP	45	336	6
NMTAP	45	360	3
BRTAP	46	0	7
NMTAP	46	96	1
NMTAP	46	96	3
NMTAP	46	144	4
NMHLD	46	168	4	48
NMTAP	46	216	1
NMTAP	46	240	5
NMTAP	46	264	3
BRTAP	46	288	7
NMTTP	46	336	3	B	0	M1
NMTTP	46	336	3	E	0	M1
NMTTP	46	336	4	B	0	M1
NMTTP	46	336	5	E	0	M1
BRTAP	47	0	1
BRTAP	47	0	6
NMTAP	47	96	1
NMTAP	47	120	0
NMTAP	47	144	1
NMTAP	47	168	0
NMTAP	47	192	1
NMTAP	47	216	2
NMTAP	47	240	1
NMTAP	47	264	0
NMSTR	47	288	1
BRSCR	47	288	1	96	48	4
NMTAP	47	312	2
NMTAP	47	336	1
NMTAP	47	360	0
BRTAP	48	0	1
NMTAP	48	96	6
NMTAP	48	120	7
NMTAP	48	144	6
NMTAP	48	168	7
NMTAP	48	192	6
NMTAP	48	216	5
NMTAP	48	240	6
NMTAP	48	264	7
NMSTR	48	288	6
BRSCL	48	288	6	96	48	3
NMTAP	48	312	5
NMTAP	48	336	6
NMTAP	48	360	7
BRTAP	49	0	6
NMTAP	49	96	1
NMTAP	49	120	7
NMTAP	49	144	2
NMTAP	49	168	6
NMTAP	49	192	3
NMTAP	49	216	4
NMTAP	49	240	2
NMTAP	49	264	5
NMTAP	49	288	7
NMTAP	49	312	6
NMTAP	49	336	0
NMTAP	49	360	5
NMHLD	50	0	3	144
NMTAP	50	144	4
NMTAP	50	168	4
NMTAP	50	192	4
NMTAP	50	264	5
NMTAP	50	336	3
BRTAP	51	0	1
BRTAP	51	0	7
NMSTR	51	96	6
NMSI_	51	96	6	96	240	3
NMTAP	51	144	0
NMTAP	51	192	7
NMTTP	51	288	7	E	0	M1
CNSCL	52	48	3	0	48	2
CNSI_	52	96	2	0	192	7
NMTHO	52	192	3	192	E	0	M1
NMTAP	53	0	0
NMSTR	53	96	1
NMSI_	53	96	1	96	96	4
NMTAP	53	144	7
NMTAP	53	192	0
NMTTP	53	288	1	E	0	M1
CNSCR	53	288	4	0	48	5
CNSI_	53	336	5	0	336	0
NMTHO	54	192	5	192	E	1	M1
BXTAP	55	0	0
NMSTR	55	96	1
NMSI_	55	96	1	96	96	4
NMTAP	55	144	7
NMSTR	55	192	0
NMSCL	55	192	0	96	96	5
NMHLD	56	0	4	96
NMSTR	56	96	3
NMSCL	56	96	3	96	192	5
NMTHO	56	192	4	192	B	0	M1
NMSTR	57	96	6
BRSCL	57	96	6	96	96	3
NMTAP	57	144	0
NMTAP	57	192	7
NMTAP	57	288	2
NMTHO	57	336	3	192	B	1	M1
BRTAP	58	144	0
BRTAP	58	240	1
BRTAP	58	240	7
EXHLD	58	288	1	96
EXSTR	58	288	7
NMSI_	58	288	7	96	48	3
NMTAP	59	0	7
NMTAP	59	72	2
NMSTR	59	96	2
NMSCL	59	96	2	96	48	7
NMTAP	59	144	3
NMTAP	59	192	2
NMTAP	59	192	4
NMTAP	59	264	6
NMSTR	59	288	6
NMSCL	59	288	6	96	48	3
NMTAP	59	336	7
NMTAP	60	0	0
NMTAP	60	0	6
NMTAP	60	72	1
NMSTR	60	96	1
NMSI_	60	96	1	96	48	6
NMTAP	60	144	3
NMTAP	60	192	1
NMSTR	60	192	4
NMSI_	60	192	4	96	48	2
NMTAP	60	240	5
NMSTR	60	288	4
NMSI_	60	288	4	96	48	7
BXTAP	61	0	0
NMTAP	61	0	4
NMTAP	61	72	1
NMSTR	61	96	1
NMSCR	61	96	1	96	48	4
NMTAP	61	144	0
NMTAP	61	192	1
NMHLD	61	192	6	96
NMTAP	61	264	7
NMSTR	61	288	7
NMSI_	61	288	7	96	48	3
NMTAP	61	336	0
NMTAP	61	336	6
NMSTR	62	0	7
NMSCL	62	0	7	96	48	4
NMSCR	62	0	7	96	48	2
NMSTR	62	96	7
NMSV_	62	96	7	96	96	1
NMSV_	62	96	7	96	96	5
CNSI_	62	288	1	0	48	3
CNSI_	62	288	5	0	48	3
NMSTR	63	0	1
NMSV_	63	0	1	96	48	4
NMTAP	63	0	5
NMTAP	63	72	0
NMTAP	63	96	1
NMTAP	63	144	5
NMSTR	63	192	6
NMSV_	63	192	6	96	48	3
NMTAP	63	264	7
NMTAP	63	288	6
NMTAP	63	336	2
NMSTR	64	0	1
BRSI_	64	0	1	96	48	3
NMTAP	64	72	0
NMSTR	64	96	1
NMSCL	64	96	1	96	48	6
NMTAP	64	144	5
NMSTR	64	192	4
NMSI_	64	192	4	96	48	1
NMSI_	64	192	4	96	48	7
BRTAP	65	0	2
BRTAP	65	0	6
NMTAP	65	96	4
NMTAP	65	96	5
BRTAP	65	144	3
BRTAP	65	144	7
NMTAP	65	240	2
NMTAP	65	240	3
BRTAP	65	288	0
BRTAP	65	288	4
NMTAP	66	0	0
NMTAP	66	0	1
BRSTR	66	48	3
NMSLL	66	48	3	96	96	7
BRTAP	66	48	7
NMTAP	66	144	4
NMTAP	66	192	4
NMTAP	66	240	3
CNSI_	66	240	7	0	48	5
NMSTR	66	288	3
BRSF_	66	288	3	96	48	7
CNSI_	66	288	5	0	48	0
NMTTP	67	0	3	A	1	M1
NMTTP	67	0	3	D	0	M1
NMTTP	67	0	4	D	0	M1
NMTAP	67	144	6
NMHLD	67	192	6	144
NMTTP	67	288	7	E	0	M1
NMTHO	67	336	6	192	E	0	M1
NMTAP	68	144	7
NMSTR	68	192	7
NMSCL	68	192	7	96	96	3
NMTAP	68	288	0
NMHLD	69	0	1	144
NMTTP	69	144	1	E	0	M1
NMTHO	69	192	2	96	E	0	M1
NMTAP	69	288	0
NMSTR	69	336	0
NMSI_	69	336	0	96	96	4
NMTTP	70	48	7	E	0	M1
NMTHO	70	96	6	96	E	0	M1
NMTHO	70	192	5	96	E	0	M1
NMTHO	70	288	4	96	E	0	M1
NMTTP	71	0	5	B	0	M1
NMTTP	71	0	6	B	0	M1
NMTTP	71	0	6	E	1	M1
NMSTR	71	96	7
NMSCR	71	96	7	96	96	2
NMTAP	71	192	1
CNSI_	71	288	2	0	96	6
NMTAP	71	288	3
NMTAP	72	0	1
CNSCL	72	0	6	0	96	3
NMSTR	72	96	7
NMSI_	72	96	7	96	72	1
BRTAP	72	192	3
CNSI_	72	264	1	0	72	3
CNSI_	72	336	3	0	48	5
NMTAP	73	0	6
NMTAP	73	48	6
NMTAP	73	96	6
NMTAP	73	144	6
NMTAP	73	192	6
NMTAP	73	216	7
NMTAP	73	240	6
NMTAP	73	264	7
NMSTR	73	288	6
BRSCR	73	288	6	96	192	4
NMTAP	73	312	5
NMTAP	73	336	6
NMTAP	73	360	4
NMHLD	74	192	7	24
NMHLD	74	240	7	24
NMSTR	74	288	0
NMSI_	74	288	0	96	96	6
BRTAP	74	288	6
NMHLD	75	0	5	576
CNSI_	75	96	6	0	96	2
CNSI_	75	192	2	0	96	4
CNSSL	75	288	4	0	144	0
NMSTR	76	192	7
NMSCL	76	192	7	96	48	4
NMTAP	76	240	0
BRTAP	76	288	1
NMSTR	76	288	7
NMSCR	76	288	7	96	48	2
NMSTR	77	0	3
BRSF_	77	0	3	96	48	7
BRTAP	77	96	3
EXSTR	77	192	1
NMSI_	77	192	1	96	48	7
NMTAP	77	216	3
NMTAP	77	240	2
NMTAP	77	288	1
NMSTR	77	288	5
NMSI_	77	288	5	96	48	1
NMTAP	77	336	6
NMSTR	78	0	2
NMSCR	78	0	2	96	48	5
NMTAP	78	0	5
NMSTR	78	96	2
NMSI_	78	96	2	96	48	6
NMSTR	78	96	7
NMSI_	78	96	7	96	48	4
NMTAP	78	144	6
NMTAP	78	192	2
NMTAP	78	192	7
NMTAP	78	288	5
NMSTR	78	288	7
NMSCL	78	288	7	96	48	4
NMTAP	78	336	0
NMTAP	79	0	1
NMTAP	79	0	7
NMSTR	79	96	2
NMSI_	79	96	2	96	48	7
NMTAP	79	120	3
NMTAP	79	144	1
NMTAP	79	168	3
NMSTR	79	192	2
NMSI_	79	192	2	96	48	4
NMTAP	79	240	5
NMTAP	79	288	2
NMSTR	79	288	6
NMSI_	79	288	6	96	48	2
NMTAP	79	336	7
BRSTR	80	0	1
NMSCL	80	0	1	96	48	6
NMTAP	80	0	6
NMSTR	80	96	1
NMSI_	80	96	1	96	48	5
BRSTR	80	96	4
NMSI_	80	96	4	96	48	7
NMTAP	80	144	5
NMTAP	80	192	1
BRSTR	80	192	4
NMSCL	80	192	4	96	48	1
BRSTR	80	288	4
NMSV_	80	288	4	96	48	1
NMSV_	80	288	4	96	48	7
NMTAP	80	288	6
BRTAP	81	0	4
NMTAP	81	96	2
NMTAP	81	96	6
NMTAP	81	144	4
NMSTR	81	192	5
BRSI_	81	192	5	96	72	2
NMTAP	81	192	7
NMTAP	81	240	6
NMHLD	81	264	6	120
CNSI_	81	360	2	0	48	0
NMTAP	82	96	1
NMTAP	82	96	5
NMTAP	82	144	3
NMSTR	82	192	0
BRSCL	82	192	0	96	72	6
NMTAP	82	192	2
NMTAP	82	240	1
NMHLD	82	264	1	120
CNSI_	82	360	6	0	48	3
NMTAP	83	96	2
NMSTR	83	96	4
NMSI_	83	96	4	96	48	0
NMTAP	83	144	5
NMTAP	83	192	4
NMTAP	83	192	6
NMTAP	83	288	3
NMSTR	83	288	4
NMSI_	83	288	4	96	48	0
NMTAP	83	336	5
BRTAP	84	0	4
BRTAP	84	0	6
EXTAP	84	96	2
EXTAP	84	96	7
NMTAP	84	192	1
NMTAP	84	216	0
NMTAP	84	240	1
NMTAP	84	264	0
NMTAP	84	288	1
NMTAP	84	300	2
NMTAP	84	312	3
NMTAP	84	324	4
NMTAP	84	336	5
NMTAP	84	348	6
NMTAP	84	360	7
NMTAP	84	372	0
NMSTR	85	0	1
BRSCR	85	0	1	96	48	4
NMSTR	85	0	2
BRSI_	85	0	2	96	48	7
BRTAP	85	96	1
BRTAP	85	96	2
NMSTR	85	192	6
NMSI_	85	192	6	96	48	0
NMTAP	85	216	4
NMTAP	85	240	5
NMSTR	85	288	2
NMSI_	85	288	2	96	48	6
NMTAP	85	288	6
NMTAP	85	336	3
NMTAP	86	0	2
NMSTR	86	0	5
NMSCL	86	0	5	96	48	2
NMSTR	86	96	0
NMSI_	86	96	0	96	48	3
NMSTR	86	96	5
NMSI_	86	96	5	96	48	1
NMTAP	86	144	1
NMTAP	86	192	0
NMTAP	86	192	5
NMSTR	86	288	0
NMSCR	86	288	0	96	48	3
NMTAP	86	288	2
NMTAP	86	336	7
NMTAP	87	0	0
NMTAP	87	0	6
NMSTR	87	96	5
NMSI_	87	96	5	96	48	0
NMTAP	87	120	4
NMTAP	87	144	6
NMTAP	87	168	4
NMSTR	87	192	5
NMSI_	87	192	5	96	48	3
NMTAP	87	240	2
NMSTR	87	288	1
NMSI_	87	288	1	96	48	6
NMTAP	87	288	5
NMTAP	87	336	0
BRSTR	88	0	1
NMSI_	88	0	1	96	48	3
NMSTR	88	0	7
NMSI_	88	0	7	96	48	3
NMSTR	88	96	1
NMSI_	88	96	1	96	48	5
BRSTR	88	96	7
NMSI_	88	96	7	96	48	5
NMTAP	88	192	1
BRSTR	88	192	7
NMSCR	88	192	7	96	48	2
BRSTR	88	288	3
BRSF_	88	288	3	96	48	7
NMTAP	88	288	7
NMTAP	88	336	4
BRTAP	89	0	3
NMTAP	89	96	1
NMTAP	89	96	5
NMTAP	89	144	3
NMTAP	89	192	4
NMSTR	89	192	6
BRSI_	89	192	6	96	72	0
NMTAP	89	240	5
NMHLD	89	264	5	120
CNSV_	89	360	0	0	48	3
NMTAP	90	96	2
NMTAP	90	96	4
NMTAP	90	144	5
NMSTR	90	192	0
BRSCL	90	192	0	96	72	5
NMTAP	90	192	3
NMTAP	90	240	1
NMHLD	90	264	1	120
CNSV_	90	360	5	0	48	2
NMSTR	91	96	1
NMSI_	91	96	1	96	48	4
NMTAP	91	120	0
NMTAP	91	144	2
NMTAP	91	192	1
NMSTR	91	192	7
NMSCR	91	192	7	96	96	6
NMTAP	91	240	5
NMTTP	91	288	0	E	0	M1
NMTTP	91	300	1	E	0	M1
NMTTP	91	312	2	E	0	M1
NMTTP	91	324	3	E	0	M1
NMTTP	91	336	4	E	0	M1
NMTTP	91	348	5	E	0	M1
NMTTP	91	360	6	E	0	M1
NMTTP	91	372	7	E	0	M1
NMTTP	92	0	0	E	0	M1
NMTTP	92	0	0	A	1	M1
NMTTP	92	0	1	E	0	M1
NMTAP	92	192	1
NMTAP	92	208	0
NMTAP	92	224	1
NMTAP	92	240	7
NMTAP	92	264	3
NMSTR	92	288	5
BRSI_	92	288	5	96	48	1
NMTAP	92	312	1
BRTAP	92	336	3
BRSTR	93	0	5
NMSI_	93	0	5	96	144	7
NMTTP	93	0	7	B	1	M1
CNSI_	93	240	7	0	144	1
CNSI_	94	0	1	0	192	3
CNSI_	94	192	3	0	192	5
NMTHO	95	0	0	192	C	0	M1
NMTHO	96	0	1	288	E	0	M1
NMTHO	96	0	2	192	E	0	M1
NMTTP	96	0	4	B	0	M1
NMTTP	96	0	5	E	0	M1
NMTAP	96	192	5
NMSTR	96	288	6
NMSSR	96	288	6	96	96	2

T_REC_TAP	415
T_REC_BRK	39
T_REC_XTP	18
T_REC_BXX	5
T_REC_HLD	28
T_REC_XHO	2
T_REC_BHO	0
T_REC_BXH	1
T_REC_STR	129
T_REC_BST	16
T_REC_XST	7
T_REC_XBS	0
T_REC_TTP	61
T_REC_THO	13
T_REC_SLD	135
T_REC_BSL	21
T_REC_ALL	890
T_NUM_TAP	630
T_NUM_BRK	82
T_NUM_HLD	43
T_NUM_SLD	135
T_NUM_ALL	890
T_JUDGE_TAP	690
T_JUDGE_HLD	132
T_JUDGE_SLD	156
T_JUDGE_ALL	978
TTM_EACHPAIRS	123
TTM_SCR_TAP	315000
TTM_SCR_BRK	213200
TTM_SCR_HLD	43000
TTM_SCR_SLD	202500
TTM_SCR_ALL	773700
TTM_SCR_S	742550
TTM_SCR_SS	765500
TTM_RAT_ACV	10107

