VERSION	0.00.00	1.05.00
FES_MODE	0
BPM_DEF	160.000	160.000	160.000	160.000
MET_DEF	4	4
RESOLUTION	384
CLK_DEF	384
COMPATIBLE_CODE	MA2

BPM	0	0	160.000
MET	0	0	4	4

NMSTR	3	0	6
NMSI_	3	0	6	96	288	3
NMSTR	4	0	1
NMSI_	4	0	1	96	288	4
NMSTR	5	0	5
NMSI_	5	0	5	96	288	0
NMTAP	6	0	1
NMTAP	6	96	2
NMTAP	6	192	3
NMTAP	6	288	4
NMSTR	7	0	5
NMSI_	7	0	5	96	288	0
NMSTR	8	0	2
NMSI_	8	0	2	96	288	7
NMSTR	9	0	6
NMSI_	9	0	6	96	288	3
NMTAP	10	0	2
NMTAP	10	96	1
NMTAP	10	96	5
NMTAP	10	192	1
NMTAP	10	192	5
BRTAP	11	0	0
NMHLD	11	0	6	192
NMTAP	11	96	7
NMTAP	11	144	7
NMHLD	11	192	0	192
NMTAP	11	288	7
NMTAP	11	336	7
NMHLD	12	0	6	144
NMTAP	12	96	7
NMTAP	12	144	7
NMTAP	12	192	0
NMTAP	12	192	5
NMTAP	12	288	2
NMTAP	12	288	6
NMHLD	13	0	1	192
NMTAP	13	0	7
NMTAP	13	96	0
NMTAP	13	144	0
NMHLD	13	192	7	192
NMTAP	13	288	0
NMTAP	13	336	0
NMHLD	14	0	1	144
NMTAP	14	96	0
NMTAP	14	144	0
NMTAP	14	192	2
NMTAP	14	192	7
NMTAP	14	288	3
NMTAP	14	288	5
NMTAP	15	0	2
NMHLD	15	0	6	192
NMTAP	15	96	4
NMTAP	15	144	3
NMHLD	15	192	2	192
NMTAP	15	288	4
NMTAP	15	336	5
NMHLD	16	0	6	96
NMTAP	16	96	4
NMTAP	16	144	3
NMTAP	16	192	2
NMTAP	16	192	4
NMTAP	16	288	2
NMTAP	16	288	4
NMHLD	17	0	1	192
NMTAP	17	0	5
NMTAP	17	96	3
NMTAP	17	144	4
NMHLD	17	192	5	192
NMTAP	17	288	3
NMTAP	17	336	2
NMHLD	18	0	1	96
NMTAP	18	96	3
NMTAP	18	144	4
BRTAP	18	192	3
BRTAP	18	192	5
BRTAP	18	288	0
BRTAP	18	288	7
BRSTR	19	0	2
NMSCR	19	0	2	96	288	5
BRTAP	19	0	4
NMTTP	19	192	4	E	0	M1
NMSTR	20	0	6
NMSCR	20	0	6	96	288	1
NMTTP	20	192	0	E	0	M1
NMSTR	21	0	2
NMSCR	21	0	2	96	288	5
NMTTP	21	192	4	E	0	M1
NMSTR	22	0	6
NMSCR	22	0	6	96	288	1
NMTTP	22	192	0	E	0	M1
NMTAP	23	0	2
NMHLD	23	96	2	48
NMHLD	23	96	3	48
NMHLD	23	192	3	48
NMHLD	23	192	4	48
NMHLD	23	288	4	48
NMHLD	23	288	5	48
NMHLD	24	0	3	48
NMHLD	24	0	6	48
NMHLD	24	96	4	48
NMHLD	24	96	5	48
NMHLD	24	192	3	48
NMHLD	24	192	4	48
NMHLD	24	288	2	48
NMHLD	24	288	3	48
NMTAP	25	0	1
NMTAP	25	48	1
NMTAP	25	96	6
NMTAP	25	144	6
NMTAP	25	192	0
NMTAP	25	216	7
NMTAP	25	240	0
NMTAP	25	264	7
NMSTR	25	288	0
NMSI_	25	288	0	96	48	4
BRTAP	26	0	6
NMTAP	26	288	2
NMTAP	26	288	5
NMSTR	27	0	1
NMSI_	27	0	1	96	48	4
NMTAP	27	0	7
NMSTR	27	96	0
NMSI_	27	96	0	96	48	5
NMTAP	27	144	0
NMSTR	27	192	3
NMSI_	27	192	3	96	48	0
NMTAP	27	288	4
NMSTR	28	0	6
NMSI_	28	0	6	96	48	3
NMSTR	28	0	7
NMSI_	28	0	7	96	48	3
NMTAP	28	192	1
NMTAP	28	240	1
NMTAP	28	288	7
NMTAP	28	336	7
NMTAP	29	0	0
NMSTR	29	0	6
NMSI_	29	0	6	96	48	3
NMSTR	29	96	7
NMSI_	29	96	7	96	48	2
NMTAP	29	144	7
NMSTR	29	192	4
NMSI_	29	192	4	96	48	7
NMTAP	29	288	3
NMSTR	30	0	0
NMSI_	30	0	0	96	48	4
NMSTR	30	0	1
NMSI_	30	0	1	96	48	4
NMSTR	30	192	6
NMSI_	30	192	6	96	48	3
NMSTR	30	192	7
NMSI_	30	192	7	96	48	3
BRTAP	31	0	1
BRTAP	31	0	5
NMTAP	31	144	6
NMHLD	31	192	6	72
NMHLD	31	264	5	72
NMTAP	31	336	4
NMTAP	32	0	4
NMTAP	32	96	3
NMTAP	32	96	6
NMTAP	32	144	2
NMHLD	32	192	1	72
NMHLD	32	264	2	72
NMTAP	32	336	3
NMTAP	33	0	3
NMTAP	33	96	1
NMTAP	33	96	4
NMSTR	33	192	7
NMSF_	33	192	7	96	48	3
NMSTR	34	0	0
NMSF_	34	0	0	96	48	4
NMTAP	34	192	2
NMTAP	34	192	6
NMHLD	34	288	3	96
NMHLD	34	288	4	96
BRTAP	35	96	1
BRTAP	35	96	6
NMSTR	35	192	0
NMSI_	35	192	0	96	48	3
NMTAP	35	240	0
NMTAP	35	288	7
NMSTR	36	0	4
NMSI_	36	0	4	96	48	0
NMSTR	36	0	5
NMSI_	36	0	5	96	48	0
NMSTR	36	192	2
NMSI_	36	192	2	96	48	7
NMSTR	36	192	3
NMSI_	36	192	3	96	48	7
NMTAP	37	0	3
NMSTR	37	0	5
NMSI_	37	0	5	96	48	0
NMSTR	37	96	4
NMSI_	37	96	4	96	48	1
NMTAP	37	144	4
NMSTR	37	192	7
NMSI_	37	192	7	96	48	4
NMTAP	37	288	0
NMSTR	38	0	2
NMSI_	38	0	2	96	48	7
NMSTR	38	0	3
NMSI_	38	0	3	96	48	7
NMSTR	38	192	4
NMSI_	38	192	4	96	48	0
NMSTR	38	192	5
NMSI_	38	192	5	96	48	0
BRTAP	39	0	2
BRTAP	39	0	6
NMTAP	39	144	1
NMHLD	39	192	1	72
NMHLD	39	264	2	72
NMTAP	39	336	3
NMTAP	40	0	3
NMTAP	40	96	1
NMTAP	40	96	4
NMTAP	40	144	5
NMHLD	40	192	6	72
NMHLD	40	264	5	72
NMTAP	40	336	4
NMTAP	41	0	4
NMTAP	41	96	3
NMTAP	41	144	2
NMTAP	41	144	4
NMHLD	41	192	2	96
NMHLD	41	192	4	96
NMTAP	41	336	0
NMTAP	41	336	6
NMSTR	42	0	0
NMSI_	42	0	0	96	192	4
NMSTR	42	0	6
NMSI_	42	0	6	96	192	2
BRTAP	43	0	1
BRTAP	43	0	5
NMTAP	43	96	2
NMTAP	43	120	3
NMTAP	43	144	2
NMTAP	43	192	5
NMTAP	43	216	4
NMTAP	43	240	5
NMTAP	43	288	1
NMTAP	43	312	3
NMTAP	43	336	1
NMTAP	44	0	2
NMTAP	44	0	4
NMTAP	44	96	5
NMTAP	44	120	4
NMTAP	44	144	5
NMTAP	44	192	2
NMTAP	44	216	3
NMTAP	44	240	2
NMTAP	44	288	6
NMTAP	44	312	4
NMTAP	44	336	6
NMTAP	45	0	3
NMTAP	45	0	5
NMTAP	45	96	2
NMTAP	45	120	3
NMTAP	45	144	2
NMTAP	45	192	5
NMTAP	45	216	4
NMTAP	45	240	5
NMTAP	45	288	1
NMTAP	45	312	3
NMTAP	45	336	1
NMTAP	46	0	6
NMTAP	46	24	4
NMTAP	46	48	6
NMTAP	46	96	2
NMTAP	46	120	3
NMTAP	46	144	2
NMTAP	46	192	5
NMTAP	46	216	4
NMTAP	46	240	5
BRTAP	46	288	3
BRTAP	46	288	6
NMTAP	47	0	4
NMTAP	47	0	5
NMTAP	47	96	1
NMTAP	47	120	3
NMTAP	47	144	1
NMTAP	47	192	6
NMTAP	47	216	4
NMTAP	47	240	6
NMTAP	47	288	2
NMTAP	47	312	3
NMTAP	47	336	2
NMTAP	48	0	1
NMTAP	48	0	4
NMTAP	48	96	6
NMTAP	48	120	4
NMTAP	48	144	6
NMTAP	48	192	1
NMTAP	48	216	3
NMTAP	48	240	1
NMTAP	48	288	5
NMTAP	48	312	4
NMTAP	48	336	5
NMTAP	49	0	3
NMTAP	49	0	6
NMTAP	49	96	1
NMTAP	49	120	3
NMTAP	49	144	1
NMTAP	49	192	6
NMTAP	49	216	4
NMTAP	49	240	6
NMTAP	49	288	3
NMTAP	49	312	4
NMTAP	49	336	3
NMTAP	49	360	4
NMSTR	50	0	3
NMSUR	50	0	3	96	240	4
NMHLD	51	0	5	384
NMTTP	51	192	5	B	0	M1
NMHLD	52	0	4	384
NMTTP	52	192	4	B	0	M1
NMHLD	53	0	3	384
NMTTP	53	192	3	B	0	M1
NMHLD	54	0	2	384
EXTAP	54	192	3
EXTAP	54	240	4
EXTAP	54	288	4
NMHLD	55	0	5	384
NMTTP	55	192	5	B	0	M1
NMHLD	56	0	4	576
NMTTP	56	192	4	B	0	M1
NMHLD	57	0	3	192
NMTAP	57	288	3
NMTAP	57	288	4
NMTAP	57	336	3
NMTAP	57	336	4
BRTAP	58	144	2
BRTAP	58	144	6
BRTAP	58	240	0
BRTAP	58	240	4
NMHLD	59	0	1	72
NMTAP	59	0	4
NMTAP	59	72	3
NMTAP	59	96	2
NMTAP	59	144	2
NMTAP	59	192	3
NMHLD	59	192	6	72
NMTAP	59	264	4
NMTAP	59	288	5
NMTAP	59	336	5
NMHLD	60	0	1	72
NMTAP	60	0	4
NMTAP	60	72	3
NMTAP	60	96	2
NMTAP	60	144	2
NMTAP	60	192	1
NMTAP	60	192	3
NMTAP	60	240	1
NMTAP	60	240	3
NMTAP	60	288	0
NMTAP	60	288	4
NMTAP	61	0	3
NMHLD	61	0	6	72
NMTAP	61	72	4
NMTAP	61	96	5
NMTAP	61	144	5
NMHLD	61	192	1	72
NMTAP	61	192	4
NMTAP	61	264	3
NMTAP	61	288	2
NMTAP	61	336	2
NMTAP	62	0	3
NMHLD	62	0	6	72
NMTAP	62	72	4
NMTAP	62	96	5
NMTAP	62	144	5
NMTAP	62	192	4
NMTAP	62	192	6
NMTAP	62	240	4
NMTAP	62	240	6
NMTAP	62	288	3
NMTAP	62	288	5
NMHLD	63	0	2	72
NMTAP	63	0	7
NMTAP	63	72	0
NMTAP	63	96	1
NMTAP	63	144	1
NMTAP	63	192	0
NMHLD	63	192	5	72
NMTAP	63	264	7
NMTAP	63	288	6
NMTAP	63	336	6
NMHLD	64	0	2	72
NMTAP	64	0	7
NMTAP	64	72	0
NMTAP	64	96	1
NMTAP	64	144	1
NMTAP	64	192	0
NMTAP	64	192	2
NMTAP	64	240	0
NMTAP	64	240	2
NMTAP	64	288	3
NMTAP	64	288	7
BXTAP	65	0	0
NMTTP	65	0	5	B	0	M1
NMTTP	65	144	2	B	0	M1
BXTAP	65	144	7
BXTAP	65	288	0
NMTTP	65	288	4	B	0	M1
NMTTP	66	48	3	B	1	M1
BXTAP	66	48	7
NMTAP	66	192	0
NMTAP	66	192	7
BRTAP	66	288	1
BRTAP	66	288	6
NMSTR	67	0	2
NMSCR	67	0	2	96	288	5
NMTTP	67	192	4	E	0	M1
NMSTR	68	0	6
NMSCR	68	0	6	96	288	1
NMTTP	68	192	0	E	0	M1
NMSTR	69	0	2
NMSCR	69	0	2	96	288	5
NMTTP	69	192	4	E	0	M1
NMSTR	70	0	6
NMSCR	70	0	6	96	288	1
NMTTP	70	192	0	E	0	M1
NMTAP	71	0	2
NMHLD	71	96	2	48
NMHLD	71	96	3	48
NMHLD	71	192	3	48
NMHLD	71	192	4	48
NMHLD	71	288	4	48
NMHLD	71	288	5	48
NMHLD	72	0	3	48
NMHLD	72	0	6	48
NMHLD	72	96	4	48
NMHLD	72	96	5	48
NMHLD	72	192	3	48
NMHLD	72	192	4	48
NMHLD	72	288	2	48
NMHLD	72	288	3	48
NMTAP	73	0	1
NMTAP	73	48	1
NMTAP	73	96	6
NMTAP	73	144	6
NMTAP	73	192	0
NMTAP	73	216	7
NMTAP	73	240	0
NMTAP	73	264	7
NMSTR	73	288	0
NMSI_	73	288	0	96	48	4
BRTAP	74	0	6
NMTAP	74	288	3
NMTAP	74	288	4
NMHLD	75	0	2	576
NMHLD	75	0	5	576
NMTTP	76	288	3	E	0	M1
NMTTP	76	288	5	E	0	M1
NMTAP	77	0	3
NMTAP	77	0	4
BRTAP	77	96	0
BRTAP	77	96	7
NMSTR	77	192	1
NMSI_	77	192	1	96	48	6
NMTAP	77	240	1
NMSTR	77	288	5
NMSI_	77	288	5	96	48	2
NMTAP	77	336	5
NMSTR	78	0	7
NMSI_	78	0	7	96	48	3
NMTAP	78	96	6
NMSTR	78	192	0
NMSI_	78	192	0	96	48	4
NMSTR	78	192	1
NMSI_	78	192	1	96	48	4
NMTAP	79	0	2
NMTAP	79	0	7
NMSTR	79	96	6
NMSI_	79	96	6	96	48	1
NMTAP	79	144	6
NMSTR	79	192	2
NMSI_	79	192	2	96	48	5
NMTAP	79	240	2
NMSTR	79	288	0
NMSI_	79	288	0	96	48	4
NMTAP	80	0	1
NMTAP	80	96	5
NMTAP	80	144	5
NMSTR	80	192	6
NMSCL	80	192	6	96	96	1
NMSTR	80	192	7
NMSUL	80	192	7	96	96	0
NMTAP	81	144	0
NMHLD	81	192	7	72
NMHLD	81	264	5	72
NMTAP	81	336	4
NMSTR	82	0	4
NMSI_	82	0	4	96	48	1
NMSI_	82	0	4	96	48	7
NMHLD	82	192	0	72
NMHLD	82	264	2	72
NMTAP	82	336	3
NMSTR	83	0	3
NMSI_	83	0	3	96	48	0
NMSI_	83	0	3	96	48	6
NMSTR	83	192	1
NMSI_	83	192	1	96	48	4
NMSTR	83	192	7
NMSI_	83	192	7	96	48	4
NMSTR	84	0	0
NMSI_	84	0	0	96	48	3
NMSTR	84	0	6
NMSI_	84	0	6	96	48	3
NMTAP	84	192	1
NMTAP	84	192	7
NMTAP	84	240	2
NMTAP	84	240	6
NMTAP	84	288	3
NMHLD	84	288	5	96
NMTAP	85	0	4
BRTAP	85	96	1
BRTAP	85	96	7
NMSTR	85	192	0
NMSI_	85	192	0	96	48	5
NMTAP	85	240	0
NMSTR	85	288	4
NMSI_	85	288	4	96	48	1
NMTAP	85	336	4
NMSTR	86	0	7
NMSI_	86	0	7	96	48	3
NMTAP	86	96	6
NMSTR	86	192	1
NMSI_	86	192	1	96	48	4
NMSTR	86	192	5
NMSI_	86	192	5	96	48	0
NMTAP	87	0	2
NMTAP	87	0	6
NMSTR	87	96	7
NMSI_	87	96	7	96	48	2
NMTAP	87	144	7
NMSTR	87	192	3
NMSI_	87	192	3	96	48	6
NMTAP	87	240	3
NMSTR	87	288	0
NMSI_	87	288	0	96	48	4
NMTAP	88	0	1
NMSTR	88	96	1
NMSUL	88	96	1	96	96	2
NMSTR	88	96	7
NMSCL	88	96	7	96	96	2
BRTAP	89	0	0
BRTAP	89	0	1
NMTAP	89	144	0
NMHLD	89	192	7	72
NMHLD	89	264	5	72
NMTAP	89	336	4
NMSTR	90	0	4
NMSV_	90	0	4	96	48	1
NMSV_	90	0	4	96	48	7
NMHLD	90	192	0	72
NMHLD	90	264	2	72
NMTAP	90	336	3
NMSTR	91	0	3
NMSV_	91	0	3	96	48	0
NMSV_	91	0	3	96	48	6
NMSTR	91	192	1
NMSI_	91	192	1	96	48	4
NMSTR	91	192	5
NMSI_	91	192	5	96	48	0
NMTAP	92	0	3
NMHLD	92	0	7	192
NMTAP	92	192	0
NMTAP	92	216	1
NMTAP	92	240	2
NMTAP	92	264	3
NMTAP	92	288	4
NMTAP	92	312	5
NMTAP	92	336	6
NMTAP	92	360	7
BRSTR	93	0	0
NMSCR	93	0	0	96	1344	7
NMSTR	96	288	1
NMSI_	96	288	1	96	48	5

T_REC_TAP	285
T_REC_BRK	30
T_REC_XTP	3
T_REC_BXX	4
T_REC_HLD	80
T_REC_XHO	0
T_REC_BHO	0
T_REC_BXH	0
T_REC_STR	75
T_REC_BST	2
T_REC_XST	0
T_REC_XBS	0
T_REC_TTP	19
T_REC_THO	0
T_REC_SLD	81
T_REC_BSL	0
T_REC_ALL	579
T_NUM_TAP	382
T_NUM_BRK	36
T_NUM_HLD	80
T_NUM_SLD	81
T_NUM_ALL	579
T_JUDGE_TAP	418
T_JUDGE_HLD	214
T_JUDGE_SLD	81
T_JUDGE_ALL	713
TTM_EACHPAIRS	102
TTM_SCR_TAP	191000
TTM_SCR_BRK	93600
TTM_SCR_HLD	80000
TTM_SCR_SLD	121500
TTM_SCR_ALL	486100
TTM_SCR_S	468050
TTM_SCR_SS	482500
TTM_RAT_ACV	10074

