VERSION	0.00.00	1.05.00
FES_MODE	0
BPM_DEF	160.000	160.000	160.000	160.000
MET_DEF	4	4
RESOLUTION	384
CLK_DEF	384
COMPATIBLE_CODE	MA2

BPM	0	0	160.000
MET	0	0	4	4

NMHLD	3	0	5	192
NMHLD	3	192	4	192
NMHLD	4	0	3	192
NMTAP	4	192	2
NMHLD	5	0	2	192
NMHLD	5	192	3	192
NMHLD	6	0	4	192
NMTAP	6	192	5
NMHLD	7	0	6	192
NMHLD	7	192	5	192
NMHLD	8	0	4	192
NMTAP	8	192	3
NMHLD	9	0	1	192
NMHLD	9	192	2	192
NMHLD	10	0	3	192
NMTAP	10	192	4
NMTAP	11	0	3
NMTAP	11	96	3
NMTAP	11	192	2
NMTAP	12	0	1
NMTAP	12	96	1
NMTAP	12	192	0
NMTAP	13	0	7
NMTAP	13	96	7
NMTAP	13	192	6
NMTAP	14	0	5
NMTAP	14	96	5
NMTAP	14	192	3
NMTAP	14	192	4
NMTAP	15	0	4
NMTAP	15	96	4
NMTAP	15	192	5
NMTAP	16	0	6
NMTAP	16	96	6
NMTAP	16	192	7
NMTAP	17	0	0
NMTAP	17	96	0
NMTAP	17	192	1
NMTAP	18	0	2
NMTAP	18	96	2
NMTAP	18	192	3
NMTAP	18	192	4
NMHLD	19	0	2	192
NMTAP	19	192	3
NMTAP	20	0	2
NMTAP	20	96	2
NMTAP	20	192	2
NMTAP	20	192	3
NMHLD	21	0	1	192
NMTAP	21	192	0
NMTAP	22	0	1
NMTAP	22	96	1
NMTAP	22	192	0
NMTAP	22	192	1
NMHLD	23	0	6	192
NMTAP	23	192	7
NMTAP	24	0	6
NMTAP	24	96	6
NMTAP	24	192	6
NMTAP	24	192	7
NMHLD	25	0	5	192
NMTAP	25	192	4
BXTAP	26	0	4
BXTAP	26	0	5
NMTAP	27	0	5
NMTAP	27	96	5
NMTAP	27	192	6
NMTAP	27	288	6
NMTAP	28	0	7
NMTAP	28	96	7
NMTAP	28	192	0
NMTAP	28	192	1
NMTAP	29	0	2
NMTAP	29	96	2
NMTAP	29	192	1
NMTAP	29	288	1
NMTAP	30	0	0
NMTAP	30	96	0
NMTAP	30	192	6
NMTAP	30	192	7
NMTAP	31	0	6
NMTAP	31	96	6
NMTAP	31	192	5
NMTAP	31	288	5
NMTAP	32	0	4
NMTAP	32	96	4
NMTAP	32	192	2
NMTAP	32	192	3
NMTAP	33	0	1
NMTAP	33	96	1
NMTAP	33	192	2
NMTAP	33	288	2
NMTAP	34	0	3
NMTAP	34	96	3
NMTAP	34	192	4
NMTAP	34	192	5
NMTAP	35	0	6
BXTAP	35	96	6
NMTAP	35	192	6
NMTAP	35	288	6
NMTAP	35	288	7
NMTAP	36	0	5
NMTAP	36	96	5
NMTAP	36	192	5
NMTAP	36	288	4
NMTAP	36	288	5
NMTAP	37	0	3
NMTAP	37	96	3
NMTAP	37	192	3
NMTAP	37	288	2
NMTAP	37	288	3
NMTAP	38	0	0
NMTAP	38	0	1
NMTAP	38	96	0
NMTAP	38	96	1
NMTAP	38	192	0
NMTAP	38	192	1
NMTAP	39	0	1
NMTAP	39	96	1
NMTAP	39	192	1
NMTAP	39	288	0
NMTAP	39	288	1
NMTAP	40	0	2
NMTAP	40	96	2
NMTAP	40	192	2
NMTAP	40	288	2
NMTAP	40	288	3
NMTAP	41	0	4
NMTAP	41	96	4
NMTAP	41	192	4
NMTAP	41	288	4
NMTAP	41	288	5
EXTAP	42	0	6
EXTAP	42	0	7
NMTTP	43	0	6	B	0	L1
NMTTP	43	96	5	B	0	L1
NMTTP	43	192	4	B	0	L1
NMTTP	44	0	1	B	0	L1
NMTTP	44	96	2	B	0	L1
NMTTP	44	192	3	B	0	L1
NMTTP	45	0	6	B	0	L1
NMTTP	45	96	5	B	0	L1
NMTTP	45	192	4	B	0	L1
NMTTP	45	288	3	B	0	L1
NMTTP	46	0	0	C	0	L1
NMTTP	47	0	0	B	0	L1
NMTTP	47	96	1	B	0	L1
NMTTP	47	192	2	B	0	L1
NMTTP	47	192	3	B	0	L1
NMTTP	48	0	7	B	0	L1
NMTTP	48	96	6	B	0	L1
NMTTP	48	192	4	B	0	L1
NMTTP	48	192	5	B	0	L1
NMTTP	49	0	1	B	0	L1
NMTTP	49	96	2	B	0	L1
NMTTP	49	192	3	B	0	L1
NMTTP	49	288	4	B	0	L1
NMTTP	50	0	0	C	1	L1
NMSTR	51	0	7
NMSI_	51	0	7	96	192	3
NMSTR	52	0	1
NMSI_	52	0	1	96	192	5
NMSTR	53	0	6
NMSI_	53	0	6	96	192	3
NMTAP	54	0	2
NMTAP	54	192	2
NMTAP	54	192	3
NMSTR	55	0	1
NMSI_	55	0	1	96	192	5
NMSTR	56	0	6
NMSI_	56	0	6	96	192	3
NMSTR	57	0	2
NMSUL	57	0	2	96	480	7
NMTAP	59	0	6
NMTAP	59	96	6
NMTAP	59	192	6
NMTAP	59	192	7
NMTAP	60	0	5
NMTAP	60	96	5
NMTAP	60	192	4
NMTAP	60	192	5
NMTAP	61	0	3
NMTAP	61	96	3
NMTAP	61	192	2
NMTAP	61	192	3
NMTAP	62	0	0
NMTAP	62	0	1
NMTAP	62	96	0
NMTAP	62	96	1
NMTAP	62	192	0
NMTAP	62	192	1
NMTAP	63	0	1
NMTAP	63	96	1
NMTAP	63	192	0
NMTAP	63	192	1
NMTAP	64	0	2
NMTAP	64	96	2
NMTAP	64	192	2
NMTAP	64	192	3
NMTAP	65	0	4
NMTAP	65	96	4
NMTAP	65	192	4
NMTAP	65	192	5
NMTAP	66	0	6
NMTAP	66	0	7
NMTAP	66	96	6
NMTAP	66	96	7
NMTAP	66	192	6
NMTAP	66	192	7
NMHLD	67	0	6	192
NMHLD	67	192	5	192
NMHLD	68	0	4	192
NMTAP	68	192	3
NMHLD	69	0	1	192
NMHLD	69	192	2	192
NMHLD	70	0	3	192
NMTAP	70	192	4
NMTAP	71	0	5
NMTAP	71	96	5
NMTAP	71	192	4
NMTAP	71	192	5
NMTAP	72	0	2
NMTAP	72	96	2
NMTAP	72	192	2
NMTAP	72	192	3
NMHLD	73	0	3	192
NMHLD	73	0	4	192
BXTAP	74	0	3
BXTAP	74	0	4
NMSTR	75	0	3
NMSI_	75	0	3	96	192	0
NMSTR	75	0	4
NMSI_	75	0	4	96	192	7
NMTAP	77	0	1
NMTAP	77	48	1
BXTAP	77	96	1
NMTAP	77	192	0
NMTAP	77	192	1
NMTAP	77	288	0
NMTAP	77	288	1
NMTAP	78	0	7
NMTAP	78	48	7
NMTAP	78	96	7
NMTAP	78	192	6
NMTAP	78	192	7
NMTAP	79	0	5
NMTAP	79	48	5
NMTAP	79	96	5
NMTAP	79	192	6
NMTAP	79	192	7
NMTAP	79	288	6
NMTAP	79	288	7
NMTAP	80	0	0
NMTAP	80	48	0
NMTAP	80	96	0
NMTAP	80	192	0
NMTAP	80	192	1
NMTAP	81	0	1
NMTAP	81	48	1
NMTAP	81	96	1
NMTAP	81	192	2
NMTAP	81	192	3
NMTAP	81	288	2
NMTAP	81	288	3
NMTAP	82	0	4
NMTAP	82	48	4
NMTAP	82	96	4
NMTAP	82	192	4
NMTAP	82	192	5
NMTAP	83	0	6
NMTAP	83	48	6
NMTAP	83	96	6
NMTAP	83	192	4
NMTAP	83	192	5
NMTAP	83	288	4
NMTAP	83	288	5
NMTAP	84	0	3
NMTAP	84	48	3
NMTAP	84	96	3
NMTAP	84	192	2
NMTAP	84	192	3
NMTAP	85	0	2
NMTAP	85	48	2
NMTAP	85	96	2
NMTAP	85	192	0
NMTAP	85	192	1
NMTAP	85	240	0
NMTAP	85	240	1
NMTAP	85	288	0
NMTAP	85	288	1
NMTAP	86	0	7
NMTAP	86	48	7
NMTAP	86	96	7
NMTAP	86	192	6
NMTAP	86	192	7
NMTAP	87	0	5
NMTAP	87	48	5
NMTAP	87	96	5
NMTAP	87	192	6
NMTAP	87	192	7
NMTAP	87	240	6
NMTAP	87	240	7
NMTAP	87	288	6
NMTAP	87	288	7
NMTAP	88	0	0
NMTAP	88	48	0
NMTAP	88	96	0
NMTAP	88	192	0
NMTAP	88	192	1
NMTAP	89	0	1
NMTAP	89	48	1
NMTAP	89	96	1
NMTAP	89	192	2
NMTAP	89	192	3
NMTAP	89	240	2
NMTAP	89	240	3
NMTAP	89	288	2
NMTAP	89	288	3
NMTAP	90	0	4
NMTAP	90	48	4
NMTAP	90	96	4
NMTAP	90	192	4
NMTAP	90	192	5
NMTAP	91	0	6
NMTAP	91	48	6
NMTAP	91	96	6
NMTAP	91	192	4
NMTAP	91	192	5
NMTAP	91	240	4
NMTAP	91	240	5
NMTAP	91	288	4
NMTAP	91	288	5
NMTAP	92	0	3
NMTAP	92	48	3
NMTAP	92	96	3
BRTAP	92	192	2
BRTAP	92	192	3
NMSTR	93	0	1
NMSXR	93	0	1	96	480	4
NMSTR	95	0	6
NMSXL	95	0	6	96	480	3
EXTAP	97	0	3
EXTAP	97	0	4

T_REC_TAP	263
T_REC_BRK	2
T_REC_XTP	4
T_REC_BXX	6
T_REC_HLD	24
T_REC_XHO	0
T_REC_BHO	0
T_REC_BXH	0
T_REC_STR	10
T_REC_BST	0
T_REC_XST	0
T_REC_XBS	0
T_REC_TTP	24
T_REC_THO	0
T_REC_SLD	10
T_REC_BSL	0
T_REC_ALL	343
T_NUM_TAP	301
T_NUM_BRK	8
T_NUM_HLD	24
T_NUM_SLD	10
T_NUM_ALL	343
T_JUDGE_TAP	309
T_JUDGE_HLD	96
T_JUDGE_SLD	10
T_JUDGE_ALL	415
TTM_EACHPAIRS	67
TTM_SCR_TAP	150500
TTM_SCR_BRK	20800
TTM_SCR_HLD	24000
TTM_SCR_SLD	15000
TTM_SCR_ALL	210300
TTM_SCR_S	203250
TTM_SCR_SS	209500
TTM_RAT_ACV	10038

