VERSION	0.00.00	1.05.00
FES_MODE	0
BPM_DEF	160.000	160.000	160.000	160.000
MET_DEF	4	4
RESOLUTION	384
CLK_DEF	384
COMPATIBLE_CODE	MA2

BPM	0	0	160.000
MET	0	0	4	4

NMTAP	3	0	0
NMTAP	3	192	0
NMTAP	4	0	1
NMTAP	5	0	2
NMTAP	5	192	2
NMTAP	6	0	3
NMTAP	6	0	4
NMTAP	7	0	4
NMTAP	7	192	4
NMTAP	8	0	5
NMTAP	9	0	6
NMTAP	9	192	6
NMTAP	10	0	0
NMTAP	10	0	7
NMTAP	11	0	7
NMTAP	11	192	7
NMTAP	12	0	6
NMTAP	12	192	6
NMTAP	13	0	5
NMTAP	13	192	5
NMTAP	14	0	3
NMTAP	14	0	4
NMTAP	15	0	3
NMTAP	15	192	3
NMTAP	16	0	2
NMTAP	16	192	2
NMTAP	17	0	1
NMTAP	17	192	1
NMTAP	18	0	0
NMTAP	18	0	7
NMHLD	19	0	0	192
NMHLD	19	0	1	192
NMTAP	20	0	0
NMTAP	20	0	1
NMHLD	21	0	2	192
NMHLD	21	0	3	192
NMTAP	22	0	2
NMTAP	22	0	3
NMHLD	23	0	4	192
NMHLD	23	0	5	192
NMTAP	24	0	4
NMTAP	24	0	5
NMHLD	25	0	6	192
NMHLD	25	0	7	192
NMTAP	26	0	6
NMTAP	26	0	7
BRTAP	27	0	7
NMTAP	27	96	7
NMTAP	27	192	7
NMTAP	28	0	6
NMTAP	28	192	6
NMTAP	29	0	5
NMTAP	29	96	5
NMTAP	29	192	5
NMTAP	30	0	3
NMTAP	30	0	4
NMTAP	30	192	3
NMTAP	30	192	4
NMTAP	31	0	3
NMTAP	31	96	3
NMTAP	31	192	3
NMTAP	32	0	2
NMTAP	32	192	2
NMTAP	33	0	1
NMTAP	33	96	1
NMTAP	33	192	1
NMTAP	34	0	0
NMTAP	34	0	7
NMTAP	35	0	0
NMTAP	35	96	0
NMTAP	35	192	0
NMTAP	36	0	1
NMTAP	36	192	1
NMTAP	37	0	2
NMTAP	37	96	2
NMTAP	37	192	2
NMTAP	38	0	3
NMTAP	38	0	4
NMTAP	38	192	3
NMTAP	38	192	4
NMTAP	39	0	4
NMTAP	39	96	4
NMTAP	39	192	4
NMTAP	40	0	5
NMTAP	40	192	5
NMTAP	41	0	6
NMTAP	41	96	6
NMTAP	41	192	6
NMTAP	42	0	0
NMTAP	42	0	7
NMSTR	43	0	7
NMSI_	43	0	7	96	288	3
NMSTR	45	0	0
NMSI_	45	0	0	96	288	4
NMSTR	47	0	6
NMSI_	47	0	6	96	288	2
NMSTR	49	0	1
NMSI_	49	0	1	96	288	5
NMTAP	51	0	6
NMTAP	51	96	6
NMTAP	51	192	6
NMTAP	52	0	6
NMTAP	52	0	7
NMTAP	53	0	5
NMTAP	53	96	5
NMTAP	53	192	5
NMTAP	54	0	4
NMTAP	54	0	5
NMTAP	55	0	2
NMTAP	55	96	2
NMTAP	55	192	2
NMTAP	56	0	2
NMTAP	56	0	3
NMHLD	57	0	0	336
NMHLD	57	0	1	336
EXTAP	59	0	0
EXTAP	59	96	0
EXTAP	59	192	0
NMTAP	60	0	0
NMTAP	60	0	1
NMTAP	60	192	0
NMTAP	60	192	1
NMTAP	61	0	2
NMTAP	61	96	2
NMTAP	61	192	2
NMTAP	62	0	3
NMTAP	62	0	4
NMTAP	62	192	3
NMTAP	62	192	4
NMTAP	63	0	4
NMTAP	63	96	4
NMTAP	63	192	4
NMTAP	64	0	4
NMTAP	64	0	5
NMTAP	64	192	4
NMTAP	64	192	5
NMTAP	65	0	6
NMTAP	65	96	6
NMTAP	65	192	6
EXTAP	66	0	0
EXTAP	66	0	7
NMTTP	67	0	0	E	0	L1
NMTTP	68	0	7	E	0	L1
NMTTP	69	0	6	E	0	L1
NMTTP	70	0	5	E	0	L1
NMTTP	71	0	4	E	0	L1
NMTTP	72	0	3	E	0	L1
NMTTP	73	0	2	E	0	L1
NMTTP	74	0	1	E	0	L1
NMTHO	75	0	0	384	C	1	L1
NMTAP	77	0	0
BXTAP	77	96	0
NMTAP	77	192	0
NMTAP	77	288	0
NMTAP	78	0	1
NMTAP	78	96	1
NMTAP	78	192	0
NMTAP	78	192	1
NMTAP	79	0	2
NMTAP	79	96	2
NMTAP	79	192	2
NMTAP	79	288	2
NMTAP	80	0	3
NMTAP	80	96	3
NMTAP	80	192	3
NMTAP	80	192	4
NMTAP	81	0	4
NMTAP	81	96	4
NMTAP	81	192	4
NMTAP	81	288	4
NMTAP	82	0	5
NMTAP	82	96	5
NMTAP	82	192	4
NMTAP	82	192	5
NMTAP	83	0	6
NMTAP	83	96	6
NMTAP	83	192	6
NMTAP	83	288	6
NMTAP	84	0	7
NMTAP	84	96	7
NMTAP	84	192	0
NMTAP	84	192	7
NMTAP	85	0	7
BRTAP	85	96	7
NMTAP	85	192	6
NMTAP	85	288	6
NMTAP	86	0	5
NMTAP	86	96	5
NMTAP	86	192	4
NMTAP	86	192	5
NMTAP	87	0	3
NMTAP	87	96	3
NMTAP	87	192	2
NMTAP	87	288	2
NMTAP	88	0	1
NMTAP	88	96	1
EXTAP	88	192	0
EXTAP	88	192	1
NMTAP	89	0	0
NMTAP	89	96	0
NMTAP	89	192	1
NMTAP	89	288	1
NMTAP	90	0	2
NMTAP	90	96	2
NMTAP	90	192	3
NMTAP	90	288	3
NMTAP	91	0	4
NMTAP	91	96	4
NMTAP	91	192	5
NMTAP	91	288	5
NMTAP	92	0	6
NMTAP	92	96	6
NMTAP	92	192	0
NMTAP	92	192	7
NMSTR	93	0	0
NMSI_	93	0	0	96	288	3
NMSTR	95	0	7
NMSI_	95	0	7	96	288	4
NMTTP	97	0	4	E	0	L1

T_REC_TAP	177
T_REC_BRK	2
T_REC_XTP	7
T_REC_BXX	1
T_REC_HLD	10
T_REC_XHO	0
T_REC_BHO	0
T_REC_BXH	0
T_REC_STR	6
T_REC_BST	0
T_REC_XST	0
T_REC_XBS	0
T_REC_TTP	9
T_REC_THO	1
T_REC_SLD	6
T_REC_BSL	0
T_REC_ALL	219
T_NUM_TAP	199
T_NUM_BRK	3
T_NUM_HLD	11
T_NUM_SLD	6
T_NUM_ALL	219
T_JUDGE_TAP	202
T_JUDGE_HLD	54
T_JUDGE_SLD	6
T_JUDGE_ALL	262
TTM_EACHPAIRS	36
TTM_SCR_TAP	99500
TTM_SCR_BRK	7800
TTM_SCR_HLD	11000
TTM_SCR_SLD	9000
TTM_SCR_ALL	127300
TTM_SCR_S	123200
TTM_SCR_SS	127000
TTM_RAT_ACV	10023

