VERSION	0.00.00	1.05.00
FES_MODE	0
BPM_DEF	200.000	200.000	220.000	200.000
MET_DEF	4	4
RESOLUTION	384
CLK_DEF	384
COMPATIBLE_CODE	MA2

BPM	0	0	200.000
BPM	46	0	220.000
BPM	71	192	200.000
MET	0	0	4	4
MET	46	0	4	3
MET	71	192	4	6
MET	73	0	4	4

NMTAP	2	0	5
NMTAP	2	48	4
NMTAP	2	96	3
NMTAP	2	144	2
NMTAP	2	192	5
NMTAP	2	240	3
NMTAP	2	240	4
NMTAP	2	336	2
NMTAP	3	0	2
NMTAP	3	48	2
NMTAP	3	96	2
NMSTR	3	144	1
NMSI_	3	144	1	96	48	4
BRTAP	3	240	1
NMTAP	3	336	5
NMTAP	4	0	4
NMTAP	4	48	3
NMTAP	4	96	2
NMTAP	4	144	4
NMTAP	4	192	3
NMTAP	4	240	2
NMTAP	4	240	4
NMTAP	4	336	5
NMTAP	5	0	5
NMTAP	5	48	5
NMTAP	5	96	5
NMSTR	5	144	6
NMSI_	5	144	6	96	48	3
BRTAP	5	240	6
NMTAP	5	336	2
NMTAP	6	0	3
NMTAP	6	48	4
NMTAP	6	96	5
NMTAP	6	144	3
NMTAP	6	192	4
NMTAP	6	240	3
NMTAP	6	240	5
NMTAP	6	336	2
NMTAP	7	0	2
NMTAP	7	48	1
NMTAP	7	96	1
NMSTR	7	144	0
NMSI_	7	144	0	96	48	4
BRTAP	7	240	0
NMTAP	7	336	5
NMTAP	8	0	4
NMTAP	8	48	3
NMTAP	8	96	2
NMTAP	8	144	4
NMTAP	8	192	3
NMTAP	8	240	2
NMTAP	8	240	4
NMTAP	8	336	5
NMTAP	9	0	5
NMTAP	9	48	6
NMTAP	9	96	6
NMSTR	9	144	7
NMSI_	9	144	7	96	48	3
BRTAP	9	240	7
NMTAP	9	336	6
NMTAP	10	0	5
NMTAP	10	48	5
NMTAP	10	96	5
NMTAP	10	144	5
NMTAP	10	192	5
NMTAP	10	240	4
NMTAP	10	240	6
NMTAP	10	336	2
NMTAP	11	0	1
NMTAP	11	48	0
NMTAP	11	96	7
NMSTR	11	144	6
NMSI_	11	144	6	96	48	3
NMSTR	11	144	7
NMSI_	11	144	7	96	48	3
BRTAP	11	240	6
BRTAP	11	240	7
NMTAP	11	336	1
NMTAP	12	0	2
NMTAP	12	48	2
NMTAP	12	96	2
NMTAP	12	144	2
NMTAP	12	192	2
NMTAP	12	240	1
NMTAP	12	240	3
NMTAP	12	336	5
NMTAP	13	0	6
NMTAP	13	48	7
NMTAP	13	96	0
NMSTR	13	144	0
NMSI_	13	144	0	96	48	4
NMSTR	13	144	1
NMSI_	13	144	1	96	48	4
BRTAP	13	240	0
BRTAP	13	240	1
NMTAP	13	336	6
NMTAP	14	0	5
NMTAP	14	48	5
NMTAP	14	96	5
NMTAP	14	144	5
NMTAP	14	192	5
NMTAP	14	240	4
NMTAP	14	240	6
NMTAP	14	336	2
NMTAP	15	0	1
NMTAP	15	48	0
NMTAP	15	96	7
NMSTR	15	144	6
NMSI_	15	144	6	96	48	3
NMSTR	15	144	7
NMSI_	15	144	7	96	48	3
BRTAP	15	240	6
BRTAP	15	240	7
NMHLD	15	336	2	288
NMHLD	15	336	5	288
NMSTR	16	336	4
NMSI_	16	336	4	96	48	7
NMSTR	17	48	3
NMSI_	17	48	3	96	48	0
NMTAP	17	144	6
BRTAP	17	240	1
BRTAP	17	240	5
NMTAP	17	336	0
NMTAP	17	336	6
NMSTR	18	0	0
NMSI_	18	0	0	96	48	2
NMTAP	18	0	6
NMTAP	18	96	7
NMSTR	18	192	6
NMSI_	18	192	6	96	48	4
NMTAP	18	240	6
NMTAP	18	288	7
NMSTR	19	0	1
NMSI_	19	0	1	96	48	3
NMTAP	19	96	0
NMSTR	19	192	7
NMSI_	19	192	7	96	48	5
NMTAP	19	240	7
NMTAP	19	288	0
NMSTR	20	0	2
NMSI_	20	0	2	96	48	0
NMTAP	20	96	3
NMSTR	20	192	5
NMSI_	20	192	5	96	48	7
NMTAP	20	240	5
NMTAP	20	288	4
NMSTR	21	0	3
NMSI_	21	0	3	96	48	1
NMTAP	21	96	4
NMSTR	21	192	5
NMSI_	21	192	5	96	48	7
NMTAP	21	240	5
NMTAP	21	288	4
NMSTR	22	0	1
NMSI_	22	0	1	96	48	4
NMTAP	22	96	0
NMSTR	22	192	6
NMSI_	22	192	6	96	48	3
NMTAP	22	240	6
NMTAP	22	288	7
NMSTR	23	0	2
NMSI_	23	0	2	96	48	7
NMTAP	23	96	3
NMSTR	23	192	5
NMSI_	23	192	5	96	48	0
NMTAP	23	240	5
NMTAP	23	288	4
NMTAP	24	0	1
NMTAP	24	96	2
NMTAP	24	96	3
NMTAP	24	192	4
NMTAP	24	192	6
NMTAP	24	240	4
NMSTR	24	240	6
NMSI_	24	240	6	96	48	0
NMSTR	24	336	2
NMSI_	24	336	2	96	48	4
NMTAP	24	336	6
NMTAP	25	48	2
NMSTR	25	48	5
NMSI_	25	48	5	96	48	1
NMSTR	25	144	0
NMSF_	25	144	0	96	48	4
NMTAP	25	144	5
BRTAP	25	240	0
NMHLD	26	0	1	96
NMTAP	26	0	7
NMHLD	26	96	5	192
NMTAP	26	192	4
NMHLD	26	288	3	96
NMHLD	27	0	6	240
NMTAP	27	96	4
NMTAP	27	144	4
NMSTR	27	240	2
NMSCL	27	240	2	96	192	5
NMTAP	27	336	4
NMTAP	28	0	4
NMTAP	28	96	3
NMTAP	28	144	3
NMSTR	28	240	4
NMSCR	28	240	4	96	96	7
NMTAP	28	336	0
NMSTR	29	48	0
NMSI_	29	48	0	96	96	4
NMTAP	29	144	7
NMSTR	29	240	7
NMSCL	29	240	7	96	96	4
NMHLD	29	336	3	288
NMTAP	30	144	4
NMSTR	30	240	4
NMSI_	30	240	4	96	96	7
NMSTR	30	336	7
NMSI_	30	336	7	96	96	2
NMSTR	31	48	2
NMSI_	31	48	2	96	96	5
NMSTR	31	144	5
NMSI_	31	144	5	96	96	0
NMSTR	31	240	0
NMSCL	31	240	0	96	240	2
NMTAP	31	336	2
NMHLD	32	192	1	96
NMTAP	32	288	0
NMHLD	32	336	0	96
NMTAP	33	48	7
NMTAP	33	96	7
NMTAP	33	144	7
NMTAP	33	240	1
NMTAP	33	240	6
NMTAP	33	288	1
NMTAP	33	288	6
BRTAP	33	336	1
BRTAP	33	336	6
NMHLD	34	0	2	384
NMTAP	34	96	3
NMTAP	34	240	4
NMTAP	34	288	4
NMHLD	35	0	5	384
NMTAP	35	96	3
NMTAP	35	240	4
NMTAP	35	288	4
NMHLD	36	0	3	384
NMTAP	36	96	4
NMTAP	36	240	2
NMTAP	36	288	2
NMHLD	37	0	5	192
NMTAP	37	96	4
NMTAP	37	240	3
NMTAP	37	240	4
NMTAP	37	288	3
NMTAP	37	288	4
NMHLD	38	0	2	384
NMTTP	38	96	2	B	0	M1
NMTAP	38	240	4
NMTAP	38	288	4
NMHLD	39	0	5	384
NMTTP	39	96	5	B	0	M1
NMTAP	39	240	3
NMTAP	39	288	3
NMHLD	40	0	2	384
NMTTP	40	96	2	E	0	M1
NMTAP	40	240	4
NMTAP	40	288	4
NMHLD	41	0	5	192
NMTTP	41	96	6	E	0	M1
NMTAP	41	240	3
NMTAP	41	240	4
NMTAP	41	288	3
NMTAP	41	288	4
NMHLD	42	0	2	192
NMTTP	42	96	3	B	0	M1
NMTTP	42	96	3	E	0	M1
NMHLD	42	192	5	192
NMTTP	42	288	4	B	0	M1
NMTTP	42	288	5	E	0	M1
NMHLD	43	0	2	192
NMTTP	43	96	3	B	0	M1
NMTTP	43	96	4	E	0	M1
NMTAP	43	192	5
NMTAP	43	288	0
NMTAP	43	288	6
NMTAP	43	336	0
BRTAP	43	336	6
BRTAP	44	48	2
NMTAP	44	48	3
NMTAP	44	144	1
BRTAP	44	144	7
NMTAP	44	240	4
BRTAP	44	240	5
NMTAP	44	288	6
NMTAP	44	320	7
NMTAP	45	0	7
NMTAP	45	32	6
NMTAP	45	96	1
NMTAP	45	128	0
NMTAP	45	192	0
NMTAP	45	224	1
BRTAP	45	288	2
BRTAP	45	288	6
NMTAP	46	0	0
NMSTR	46	0	7
NMSUL	46	0	7	96	96	2
NMTAP	46	96	0
NMTAP	46	192	0
NMTAP	46	288	0
NMTAP	46	288	2
NMTAP	47	0	0
NMTAP	47	64	3
NMTAP	47	96	0
NMTAP	47	192	0
NMSTR	47	192	2
NMSXL	47	192	2	96	144	3
NMTAP	47	288	0
NMTAP	48	0	0
NMTAP	48	96	0
NMTAP	48	192	0
NMTAP	48	192	2
NMTAP	48	288	0
NMTAP	48	352	3
NMTAP	49	0	0
NMTAP	49	96	0
NMTAP	49	192	2
NMTAP	49	192	4
NMTAP	49	288	3
NMTAP	49	288	5
NMHLD	50	0	2	96
NMHLD	50	0	6	96
BRTAP	50	160	1
BRTAP	50	160	7
NMTAP	50	256	5
NMTAP	50	288	4
NMTAP	51	0	4
NMTAP	51	0	6
NMTAP	51	96	5
NMTAP	51	96	6
NMTAP	51	192	5
NMTAP	51	192	7
NMTAP	51	288	6
NMTAP	51	320	6
NMTAP	51	352	4
NMHLD	52	0	7	160
NMHLD	52	160	6	128
NMTAP	52	288	5
NMTAP	53	0	4
NMTAP	53	0	5
NMTAP	53	96	5
NMTAP	53	96	6
NMHLD	53	192	4	192
NMHLD	53	192	7	192
NMTAP	54	64	6
NMTAP	54	96	4
NMTAP	54	160	4
NMTAP	54	160	5
NMTAP	54	256	4
NMTAP	54	256	6
NMTAP	54	352	4
NMTAP	55	0	7
NMTAP	55	96	7
NMTAP	55	192	6
NMTAP	55	192	7
NMTAP	55	288	7
NMHLD	56	0	5	96
NMHLD	56	0	7	96
NMTAP	56	160	6
NMTAP	56	192	6
NMTAP	56	256	7
NMTAP	56	288	7
NMTAP	56	352	4
NMTAP	57	0	4
NMTAP	57	64	5
NMTAP	57	96	5
NMTAP	57	192	6
NMTAP	57	224	7
NMTAP	57	256	6
NMTAP	57	288	4
NMTAP	57	320	5
NMTAP	57	352	4
NMTAP	58	0	7
NMSTR	58	96	0
NMSUR	58	96	0	96	96	5
NMTAP	58	96	7
NMTAP	58	192	7
NMTAP	58	288	7
NMTAP	58	360	5
NMTAP	59	0	7
NMTAP	59	96	7
NMSTR	59	192	6
NMSI_	59	192	6	96	48	4
NMTAP	59	192	7
NMTAP	59	288	7
CNSCL	59	336	4	0	48	3
CNSV_	60	0	3	0	48	5
NMTAP	60	0	7
NMTAP	60	96	7
NMTAP	60	192	6
NMTAP	60	192	7
NMTAP	60	288	7
NMTAP	60	352	4
NMTAP	61	0	7
NMTAP	61	96	7
NMTAP	61	192	5
NMTAP	61	192	7
NMTAP	61	288	3
NMTAP	61	288	7
NMHLD	62	0	1	64
NMHLD	62	0	7	64
BRTAP	62	160	2
BRTAP	62	160	6
NMTAP	62	256	2
NMTAP	62	288	3
NMTAP	62	352	2
NMTAP	63	0	1
NMTAP	63	64	2
NMTAP	63	96	0
NMTAP	63	160	2
NMTAP	63	192	7
NMTAP	63	288	0
NMTAP	63	288	6
NMTAP	64	0	5
NMTAP	64	64	1
NMTAP	64	96	5
NMTAP	64	160	4
NMTAP	64	192	5
NMTAP	64	256	7
NMTAP	64	288	5
NMTAP	64	352	4
NMTAP	65	0	5
NMTAP	65	64	0
NMTAP	65	96	5
NMTAP	65	192	2
NMTAP	65	192	6
NMTAP	65	288	5
NMTAP	65	320	4
NMTAP	65	352	5
NMTAP	66	0	2
NMTAP	66	32	3
NMTAP	66	64	2
NMTAP	66	96	4
NMTAP	66	192	2
NMTAP	66	192	3
NMTAP	66	288	0
NMTAP	66	288	1
NMTAP	67	0	6
NMTAP	67	0	7
NMTAP	67	96	4
NMTAP	67	96	5
NMTAP	67	192	0
NMTAP	67	192	7
NMSTR	67	288	2
NMSI_	67	288	2	96	96	5
NMTAP	67	288	5
NMTAP	68	192	3
NMTAP	68	192	6
NMTAP	68	256	5
NMTAP	68	288	4
NMTAP	68	352	5
NMTAP	69	0	4
NMTAP	69	64	6
NMTAP	69	96	3
NMTAP	69	96	6
NMTAP	69	192	1
NMTAP	69	192	4
NMTAP	69	256	2
NMTAP	69	288	3
NMTAP	69	352	2
NMTAP	70	0	3
NMTAP	70	64	1
NMTAP	70	96	1
NMTAP	70	96	4
NMTAP	70	192	3
NMTAP	70	192	7
NMTAP	70	256	6
NMTAP	70	288	4
NMTAP	70	352	6
NMTAP	71	0	4
NMTAP	71	64	7
NMTAP	71	96	3
NMTAP	71	96	7
NMHLD	71	192	1	144
NMHLD	71	192	5	144
NMTAP	72	0	0
NMTAP	72	0	6
NMTAP	72	48	0
NMTAP	72	48	6
NMHLD	72	144	3	96
NMHLD	72	144	5	96
NMTAP	72	288	2
NMTAP	72	288	6
NMTAP	72	336	2
NMTAP	72	336	6
NMTAP	73	48	0
NMTAP	73	48	7
NMHLD	73	144	2	96
NMHLD	73	144	4	96
NMTAP	73	288	1
NMTAP	73	288	5
NMTAP	73	336	1
NMTAP	73	336	5
NMSTR	74	0	0
NMTTP	74	0	0	C	1	M1
NMSSR	74	0	0	96	1392	4
NMTAP	77	240	3
NMHLD	77	336	3	288
NMSTR	78	240	4
NMSI_	78	240	4	96	48	0
NMTAP	79	144	7
NMTAP	79	192	7
NMTAP	79	240	0
NMTAP	79	240	7
NMHLD	79	336	1	96
NMHLD	79	336	5	96
NMTAP	80	96	0
NMTAP	80	96	6
NMTAP	80	144	0
NMTAP	80	144	6
NMTAP	80	192	0
NMTAP	80	192	6
NMTAP	80	288	3
NMTAP	80	288	5
NMTAP	80	336	3
NMTAP	80	336	5
NMTAP	81	48	2
NMTAP	81	48	6
NMTAP	81	96	2
NMTAP	81	96	6
NMSTR	81	144	1
NMSI_	81	144	1	96	48	5
NMTAP	81	144	7
NMTAP	81	240	0
NMSTR	81	288	0
NMSCL	81	288	0	96	192	1
NMTTP	82	0	0	C	1	M1
NMTAP	82	192	0
NMSTR	82	240	0
NMSI_	82	240	0	96	48	4
NMTAP	82	336	5
NMTAP	83	48	6
NMSTR	83	48	7
NMSI_	83	48	7	96	48	3
NMTAP	83	96	0
NMTAP	83	144	1
NMSTR	83	240	0
NMSCL	83	240	0	96	192	1
NMTAP	83	240	2
NMTAP	83	288	7
NMTAP	83	336	6
NMTAP	84	144	7
NMSTR	84	192	6
NMSI_	84	192	6	96	48	3
NMTAP	84	288	0
NMSTR	84	336	1
NMSI_	84	336	1	96	48	5
NMSTR	85	48	7
NMSI_	85	48	7	96	48	2
NMSTR	85	144	4
NMSI_	85	144	4	96	48	1
NMSTR	85	240	0
NMSCL	85	240	0	96	48	7
BRTAP	85	336	0
NMHLD	85	336	6	384
CNSLL	86	0	7	0	48	3
CNSI_	86	48	3	0	96	1
NMTAP	86	288	0
NMTAP	86	336	0
NMSTR	87	48	1
NMSCR	87	48	1	96	48	4
NMSTR	87	48	5
NMSCR	87	48	5	96	48	0
NMTAP	87	144	1
NMTAP	87	144	5
NMSTR	87	240	2
NMSCL	87	240	2	96	48	7
NMSTR	87	240	6
NMSCL	87	240	6	96	48	3
BRTAP	87	336	2
BRTAP	87	336	6
NMTAP	88	48	0
NMTAP	88	72	1
NMTAP	88	96	2
NMTAP	88	120	3
NMTAP	88	144	4
NMTAP	88	192	0
NMTAP	88	216	1
NMTAP	88	240	2
NMTAP	88	264	3
NMTAP	88	288	4
NMTAP	88	336	0
NMTAP	88	360	1
NMTAP	89	0	2
NMTAP	89	48	6
NMTAP	89	72	5
NMTAP	89	96	4
NMTAP	89	144	1
NMTAP	89	168	2
NMTAP	89	192	3
NMTAP	89	240	0
NMTAP	89	240	7
BRTAP	89	288	1
BRTAP	89	288	6
NMTAP	90	0	0
NMTAP	90	0	5
NMTAP	90	48	0
NMTAP	90	48	5
NMTAP	90	96	0
NMTAP	90	96	5
NMTAP	90	144	0
NMTAP	90	144	5
NMTAP	90	192	1
NMTAP	90	192	4
NMTAP	90	336	3
NMTAP	90	336	7
NMTAP	91	0	3
NMTAP	91	0	7
NMTAP	91	48	3
NMTAP	91	48	7
NMTAP	91	96	3
NMTAP	91	96	7
NMTAP	91	144	2
NMTAP	91	144	6
NMSTR	91	240	1
NMSI_	91	240	1	96	48	7
NMSTR	91	240	5
NMSI_	91	240	5	96	48	3
BRTAP	91	336	1
BRTAP	91	336	5
NMTAP	92	48	0
NMTAP	92	48	4
NMTAP	92	96	0
NMTAP	92	96	4
NMTAP	92	144	0
NMTAP	92	144	4
NMTAP	92	192	1
NMTAP	92	192	5
NMTAP	92	336	2
NMTAP	92	336	6
NMTAP	93	0	2
NMTAP	93	0	6
NMTAP	93	48	2
NMTAP	93	48	6
NMTAP	93	96	2
NMTAP	93	96	6
NMTAP	93	144	3
NMTAP	93	144	7
NMSTR	93	240	2
NMSI_	93	240	2	96	48	4
NMSTR	93	240	6
NMSI_	93	240	6	96	48	0
BRTAP	93	336	2
BRTAP	93	336	6
NMTAP	94	48	3
NMTAP	94	48	7
NMTAP	94	96	3
NMTAP	94	96	7
NMTAP	94	144	3
NMTAP	94	144	7
NMTAP	94	192	2
NMTAP	94	192	6
NMTAP	94	336	1
NMTAP	94	336	5
NMTAP	95	0	1
NMTAP	95	0	5
NMTAP	95	48	1
NMTAP	95	48	5
NMTAP	95	96	1
NMTAP	95	96	5
NMTAP	95	144	2
NMTAP	95	144	4
NMSTR	95	240	1
NMSI_	95	240	1	96	48	7
NMSTR	95	240	5
NMSI_	95	240	5	96	48	3
BRTAP	95	336	1
BRTAP	95	336	5
NMTAP	96	48	1
NMTAP	96	48	5
NMTAP	96	96	1
NMTAP	96	96	5
NMTAP	96	192	3
NMTAP	96	192	7
NMTAP	96	240	3
NMTAP	96	240	7
NMTAP	96	336	0
NMSTR	96	336	6
NMSI_	96	336	6	96	48	2
NMSTR	97	48	2
NMSCR	97	48	2	96	48	5
NMSTR	97	48	6
NMSCR	97	48	6	96	48	1
NMTAP	97	144	2
NMTAP	97	144	6
BRTAP	97	240	3
BRTAP	97	240	7
NMTAP	98	0	1
NMTAP	98	24	0
NMTAP	98	48	1
NMTAP	98	72	0
NMTAP	98	96	1
NMTAP	98	144	6
NMTAP	98	168	7
NMTAP	98	192	6
NMTAP	98	216	7
NMTAP	98	240	6
NMSTR	98	288	1
NMSCL	98	288	1	96	96	5
NMTAP	98	312	0
NMTAP	98	336	1
NMSTR	99	0	5
NMSCL	99	0	5	96	96	1
NMTAP	99	96	1
NMSTR	99	192	0
NMSI_	99	192	0	96	48	3
NMSI_	99	192	0	96	48	5
BRTAP	99	288	0
NMTAP	100	0	6
NMTAP	100	24	2
NMTAP	100	48	6
NMTAP	100	72	2
NMTAP	100	96	6
NMTAP	100	144	0
NMTAP	100	168	4
NMTAP	100	192	0
NMTAP	100	216	4
NMTAP	100	240	0
NMSTR	100	288	6
NMSLR	100	288	6	96	96	2
NMTAP	100	312	3
NMTAP	100	336	6
NMSTR	101	0	2
NMSCR	101	0	2	96	96	6
NMTAP	101	96	6
NMSTR	101	192	3
NMSI_	101	192	3	96	48	0
NMSI_	101	192	3	96	48	6
BRTAP	101	288	3
NMTAP	102	0	1
NMTAP	102	24	5
NMTAP	102	48	1
NMTAP	102	72	5
NMTAP	102	96	1
NMTAP	102	144	7
NMTAP	102	168	3
NMTAP	102	192	7
NMTAP	102	216	3
NMTAP	102	240	7
NMSTR	102	288	1
NMSLL	102	288	1	96	96	5
NMTAP	102	312	4
NMTAP	102	336	1
NMSTR	103	0	5
NMSCL	103	0	5	96	96	1
NMTAP	103	96	1
NMTAP	103	192	7
NMTAP	103	216	6
NMTAP	103	240	5
NMTAP	103	264	4
BRTAP	103	288	0
NMTAP	103	288	3
NMTAP	104	0	1
NMTAP	104	24	2
NMTAP	104	48	1
NMTAP	104	72	2
NMTAP	104	96	1
NMTAP	104	120	2
NMTAP	104	144	1
NMTAP	104	192	0
NMTAP	104	192	3
NMTAP	104	240	0
NMTAP	104	240	3
NMTAP	104	336	6
NMTAP	104	360	5
NMTAP	105	0	6
NMTAP	105	24	5
NMTAP	105	48	6
NMTAP	105	72	5
NMTAP	105	96	6
NMTAP	105	120	5
NMTAP	105	144	6
BRTAP	105	240	1
BRTAP	105	240	7
NMTAP	106	0	6
NMTAP	106	24	5
NMTAP	106	48	4
NMTAP	106	72	3
NMTAP	106	96	1
NMTAP	106	120	2
NMTAP	106	144	3
NMTAP	106	168	4
NMHLD	106	192	0	72
NMTAP	106	264	1
NMTAP	106	288	0
BRTAP	106	360	3
BRTAP	106	360	6
NMTAP	107	72	5
NMTAP	107	96	4
NMTAP	107	120	3
NMTAP	107	144	2
NMTAP	107	192	0
NMTAP	107	192	7
NMTAP	107	264	0
NMTAP	107	264	7
BRTAP	107	336	1
BRTAP	107	336	6
EXTAP	107	348	2
EXTAP	107	348	5
EXTAP	107	360	3
EXTAP	107	360	4
BRTAP	108	120	5
BRTAP	108	120	7
EXTAP	108	132	0
EXTAP	108	132	4
EXTAP	108	144	1
EXTAP	108	144	3
BRTAP	108	288	0
BRTAP	108	288	2
EXTAP	108	300	3
EXTAP	108	300	7
EXTAP	108	312	4
EXTAP	108	312	6
BRTAP	109	72	0
BRTAP	109	72	7
EXTAP	109	84	1
EXTAP	109	84	6
EXTAP	109	96	2
EXTAP	109	96	5
EXTAP	109	108	3
EXTAP	109	108	4
BRSTR	109	192	1
NMSCL	109	192	1	96	576	4
BRSTR	109	192	6
NMSCR	109	192	6	96	576	3
NMTAP	111	192	5
NMTAP	111	216	4
NMTAP	111	240	3
NMTAP	111	264	2
NMTAP	111	288	3
NMTAP	111	312	4
NMTAP	111	336	5

T_REC_TAP	552
T_REC_BRK	53
T_REC_XTP	18
T_REC_BXX	0
T_REC_HLD	41
T_REC_XHO	0
T_REC_BHO	0
T_REC_BXH	0
T_REC_STR	75
T_REC_BST	2
T_REC_XST	0
T_REC_XBS	0
T_REC_TTP	12
T_REC_THO	0
T_REC_SLD	79
T_REC_BSL	0
T_REC_ALL	832
T_NUM_TAP	657
T_NUM_BRK	55
T_NUM_HLD	41
T_NUM_SLD	79
T_NUM_ALL	832
T_JUDGE_TAP	712
T_JUDGE_HLD	164
T_JUDGE_SLD	79
T_JUDGE_ALL	955
TTM_EACHPAIRS	168
TTM_SCR_TAP	328500
TTM_SCR_BRK	143000
TTM_SCR_HLD	41000
TTM_SCR_SLD	118500
TTM_SCR_ALL	631000
TTM_SCR_S	606750
TTM_SCR_SS	625500
TTM_RAT_ACV	10087

