VERSION	0.00.00	1.05.00
FES_MODE	0
BPM_DEF	200.000	200.000	220.000	200.000
MET_DEF	4	4
RESOLUTION	384
CLK_DEF	384
COMPATIBLE_CODE	MA2

BPM	0	0	200.000
BPM	46	0	220.000
BPM	71	192	200.000
MET	0	0	4	4
MET	46	0	4	3
MET	71	192	4	6
MET	73	0	4	4

NMHLD	2	0	2	96
NMHLD	2	96	3	96
NMTAP	2	192	2
NMHLD	2	336	4	96
NMHLD	3	48	3	96
NMTAP	3	144	4
EXTAP	3	240	4
EXTAP	3	240	5
EXHLD	3	336	4	96
EXHLD	3	336	5	96
NMTAP	4	144	4
NMTAP	4	144	5
NMTAP	4	240	4
NMTAP	4	240	5
NMHLD	4	336	6	96
NMHLD	5	48	4	96
NMTAP	5	144	5
EXTAP	5	240	3
EXTAP	5	240	4
EXHLD	5	336	2	96
EXHLD	5	336	3	96
NMTAP	6	144	2
NMTAP	6	144	3
NMTAP	6	240	2
NMTAP	6	240	3
NMHLD	6	336	1	96
NMHLD	7	48	3	96
NMTAP	7	144	2
EXTAP	7	240	3
EXTAP	7	240	4
EXHLD	7	336	4	96
EXHLD	7	336	5	96
NMTAP	8	144	4
NMTAP	8	144	5
NMTAP	8	240	4
NMTAP	8	240	5
NMHLD	8	336	6	96
NMHLD	9	48	4	96
NMTAP	9	144	5
NMTAP	9	240	2
NMTAP	9	240	3
NMTAP	9	336	1
NMTAP	10	0	1
NMTAP	10	48	3
NMTAP	10	144	2
NMTAP	10	144	3
NMTAP	10	240	2
NMTAP	10	240	3
NMTAP	10	336	1
NMTAP	11	0	1
NMTAP	11	48	0
NMTAP	11	96	0
NMTAP	11	144	1
EXTAP	11	240	0
EXTAP	11	240	7
EXTAP	11	336	0
EXTAP	11	336	7
NMTAP	12	48	6
NMTAP	12	96	6
NMTAP	12	144	4
NMTAP	12	240	4
NMTAP	12	240	5
NMTAP	12	336	6
NMTAP	13	0	6
NMTAP	13	48	7
NMTAP	13	96	7
NMTAP	13	144	6
EXTAP	13	240	0
EXTAP	13	240	7
EXTAP	13	336	0
EXTAP	13	336	7
NMTAP	14	48	1
NMTAP	14	96	1
NMTAP	14	144	3
NMTAP	14	240	2
NMTAP	14	240	3
NMTAP	14	336	1
NMTAP	15	0	1
NMTAP	15	48	0
NMTAP	15	96	0
NMTAP	15	144	1
EXTAP	15	240	0
EXTAP	15	240	6
EXTAP	15	336	1
EXTAP	15	336	7
NMTAP	16	48	6
NMTAP	16	96	6
NMTAP	16	144	4
NMTAP	16	240	3
NMTAP	16	240	4
NMTAP	16	336	2
NMTAP	17	0	2
NMTAP	17	48	3
NMTAP	17	96	3
NMTAP	17	144	1
EXSTR	17	240	0
NMSCR	17	240	0	96	336	7
NMHLD	17	240	4	432
NMTAP	19	0	0
NMTAP	19	96	0
NMTAP	19	192	1
NMTAP	19	192	3
NMTAP	19	288	1
NMTAP	19	288	3
NMTAP	20	0	7
NMTAP	20	96	7
NMTAP	20	192	4
NMTAP	20	192	6
NMTAP	20	288	4
NMTAP	20	288	6
NMTAP	21	0	2
NMTAP	21	96	2
NMTAP	21	96	3
NMTAP	21	192	5
NMTAP	21	288	4
NMTAP	21	288	5
NMSTR	22	0	6
NMSI_	22	0	6	96	96	3
NMTAP	22	192	2
NMTAP	22	288	1
NMSTR	23	0	0
NMSCR	23	0	0	96	96	3
NMTAP	23	192	4
NMTAP	23	288	5
NMSTR	24	0	6
NMSCR	24	0	6	96	96	1
NMHLD	24	192	2	96
NMTAP	24	288	4
EXTAP	24	336	4
EXTAP	25	48	1
EXTAP	25	48	5
EXTAP	25	144	2
EXTAP	25	144	6
BRTAP	25	240	2
BRTAP	25	240	6
NMTAP	26	0	4
NMTAP	26	0	5
NMTAP	26	96	6
NMTAP	26	192	0
NMTAP	26	192	7
NMTAP	26	288	1
NMTAP	27	0	2
NMTAP	27	0	3
NMTAP	27	96	1
NMTAP	27	192	0
NMTAP	27	192	7
NMTAP	27	288	6
NMHLD	28	0	5	192
NMTAP	28	192	3
NMTAP	28	288	2
NMTAP	29	0	1
NMTAP	29	0	3
NMTAP	29	96	5
NMTAP	29	192	4
NMTAP	29	192	6
NMTAP	29	288	2
NMHLD	30	0	1	192
NMTAP	30	192	7
NMTAP	30	288	6
NMTAP	31	0	5
NMTAP	31	0	7
NMTAP	31	96	1
NMTAP	31	192	0
NMTAP	31	192	2
NMTAP	31	288	1
EXHLD	31	336	1	96
NMTAP	32	48	3
EXTAP	32	96	3
NMTAP	32	192	6
EXHLD	32	240	6	96
NMTAP	32	336	4
EXTAP	33	0	4
EXSTR	33	96	3
NMSI_	33	96	3	96	96	1
EXSTR	33	96	4
NMSI_	33	96	4	96	96	6
NMHLD	34	96	2	1344
NMTTP	34	288	4	B	0	M1
NMTTP	35	96	2	B	0	M1
NMTTP	35	288	3	D	0	M1
NMTTP	36	96	3	B	0	M1
NMTTP	36	288	2	E	0	M1
NMTTP	37	96	1	E	0	M1
NMTTP	37	288	0	E	0	M1
EXSTR	38	0	7
NMSI_	38	0	7	96	96	3
NMTAP	38	192	2
NMTAP	38	288	1
NMSTR	39	0	1
NMSI_	39	0	1	96	96	5
NMTAP	39	192	6
NMTAP	39	288	7
NMSTR	40	0	7
NMSI_	40	0	7	96	96	3
NMTAP	40	192	2
NMTAP	40	288	1
NMTAP	41	0	0
NMTAP	41	96	7
NMTAP	41	192	6
NMTAP	41	288	4
NMTAP	41	288	5
NMTAP	42	0	4
NMTAP	42	0	5
NMTAP	42	96	2
NMTAP	42	96	3
NMTAP	42	192	2
NMTAP	42	192	3
NMTAP	42	288	1
NMHLD	42	336	1	96
NMTAP	43	48	3
NMTAP	43	96	3
NMTAP	43	144	2
EXTAP	43	240	4
EXTAP	43	240	5
NMHLD	43	336	4	96
NMHLD	43	336	6	96
NMHLD	44	144	1	96
NMHLD	44	144	3	96
EXTAP	44	288	2
EXTAP	44	288	3
NMTAP	45	0	0
NMTAP	45	0	1
NMTAP	45	96	6
NMTAP	45	96	7
NMTAP	45	192	4
NMTAP	45	192	5
BRTAP	45	288	2
BRTAP	45	288	3
NMTAP	46	0	1
NMTAP	46	0	3
NMTAP	46	96	0
NMTAP	46	192	7
NMTAP	46	288	4
NMTAP	46	288	6
NMTAP	47	0	7
NMTAP	47	96	0
NMHLD	47	192	1	96
NMHLD	47	288	3	96
NMHLD	48	0	4	96
NMTAP	48	96	6
NMSTR	48	192	6
NMSCL	48	192	6	96	96	3
NMTAP	49	0	2
NMTAP	49	96	1
NMSTR	49	192	1
NMSCR	49	192	1	96	96	4
NMTAP	50	0	5
NMTAP	50	96	6
BXHLD	50	192	6	96
BXHLD	50	192	7	96
NMTAP	51	0	6
NMTAP	51	0	7
NMTAP	51	96	4
NMTAP	51	96	5
NMTAP	51	192	2
NMTAP	51	192	3
NMTAP	51	288	0
NMTAP	51	288	1
NMTAP	52	0	0
NMTAP	52	0	1
NMTAP	52	96	2
NMTAP	52	192	3
NMTAP	52	288	4
NMTAP	52	288	5
NMTAP	53	0	6
EXSTR	53	96	7
NMSI_	53	96	7	96	192	3
NMSV_	53	96	7	96	192	1
NMTAP	54	96	2
NMTAP	54	192	2
NMTAP	54	288	1
NMTAP	54	288	3
NMTAP	55	0	4
NMTAP	55	96	5
NMTAP	55	192	0
NMTAP	55	192	6
NMTAP	55	288	3
NMTAP	56	0	2
NMTAP	56	96	1
NMTAP	56	96	7
NMTAP	56	192	6
NMTAP	56	288	5
NMTAP	57	0	2
NMTAP	57	0	4
EXTAP	57	96	1
EXTAP	57	96	5
EXTAP	57	192	1
EXTAP	57	192	5
NMTAP	58	0	4
NMTAP	58	0	6
NMTAP	58	96	7
NMTAP	58	192	0
NMTAP	58	288	1
NMTAP	58	288	3
NMTAP	59	0	0
NMTAP	59	96	7
NMHLD	59	192	6	96
NMHLD	59	288	4	96
NMHLD	60	0	3	96
NMTAP	60	96	1
NMSTR	60	192	1
NMSCR	60	192	1	96	96	4
NMTAP	61	0	5
NMTAP	61	96	6
NMSTR	61	192	6
NMSCL	61	192	6	96	96	3
NMTAP	62	0	2
NMTAP	62	96	1
NMTAP	62	192	1
NMTAP	62	192	3
NMTAP	62	288	3
NMTAP	62	288	4
NMTAP	63	0	4
NMTAP	63	0	6
NMTAP	63	96	0
NMTAP	63	96	7
NMTAP	63	192	0
NMTAP	63	192	7
NMTAP	64	0	6
NMTAP	64	0	7
NMTAP	64	96	4
NMTAP	64	96	5
NMTAP	64	192	2
NMTAP	64	192	3
NMTAP	64	288	0
NMTAP	64	288	1
NMTAP	65	0	2
NMTAP	65	0	7
NMTAP	65	192	0
NMTAP	65	192	1
NMTAP	65	288	2
NMTAP	65	288	3
NMTAP	66	0	4
NMTAP	66	0	5
NMTAP	66	96	6
NMTAP	66	96	7
NMTAP	66	192	0
NMTAP	66	192	5
NMHLD	67	0	2	96
NMHLD	67	96	0	96
NMHLD	67	192	7	96
NMTAP	67	288	5
NMTAP	68	0	4
NMTAP	68	96	3
NMTAP	68	96	5
NMTAP	68	192	2
NMTAP	68	192	6
NMTAP	68	288	1
NMTAP	68	288	5
NMHLD	69	0	2	64
NMHLD	69	0	4	64
NMTAP	69	96	2
NMTAP	69	96	4
NMTAP	69	192	1
NMTAP	69	192	5
NMTAP	69	288	2
NMTAP	69	288	6
NMHLD	70	0	3	64
NMHLD	70	0	5	64
NMTAP	70	96	3
NMTAP	70	96	5
NMTAP	70	192	2
NMTAP	70	192	6
NMTAP	70	288	1
NMTAP	70	288	5
BRTAP	71	0	2
BRTAP	71	0	4
BRTAP	71	96	2
BRTAP	71	96	4
NMTAP	71	192	6
NMTAP	71	240	6
NMTAP	71	288	4
NMTAP	71	336	4
NMTAP	72	0	7
NMHLD	72	48	7	96
NMTAP	72	144	1
NMTAP	72	192	1
NMTAP	72	240	3
NMTAP	72	288	3
NMTAP	72	336	0
NMTAP	73	48	1
NMTAP	73	48	4
NMTAP	73	144	3
NMTAP	73	144	6
BXTAP	73	240	2
BXTAP	73	240	5
BXTAP	73	288	2
BXTAP	73	288	5
EXSTR	74	0	1
NMSLR	74	0	1	96	384	5
EXHLD	74	0	4	576
CNSI_	75	96	5	0	96	7
EXSTR	75	336	6
NMSLL	75	336	6	96	432	2
EXHLD	75	336	7	624
CNSI_	77	96	2	0	96	0
EXSTR	77	336	0
NMSLR	77	336	0	96	192	4
EXHLD	77	336	1	288
EXHLD	78	336	6	288
EXSTR	78	336	7
NMSLL	78	336	7	96	192	3
EXTAP	79	336	1
EXTAP	79	336	5
NMTAP	80	48	2
NMTAP	80	48	4
NMTAP	80	96	2
NMTAP	80	96	4
NMTAP	80	192	0
NMTAP	80	192	6
NMTAP	80	288	3
NMTAP	80	288	5
NMTAP	80	336	3
NMTAP	80	336	5
NMTAP	81	48	1
NMTAP	81	48	4
NMTAP	81	144	3
NMTAP	81	144	6
BXTAP	81	240	0
BXTAP	81	240	7
BXTAP	81	288	0
BXTAP	81	288	7
NMTAP	82	0	0
NMTAP	82	0	2
NMTAP	82	96	1
NMTAP	82	192	5
NMTAP	82	192	7
NMTAP	82	288	6
NMTAP	83	0	4
NMTAP	83	0	5
NMTAP	83	96	6
NMTAP	83	96	7
NMTAP	83	192	0
NMTAP	83	192	1
NMSTR	83	288	2
NMSI_	83	288	2	96	48	4
NMSTR	84	96	5
NMSI_	84	96	5	96	48	1
NMTAP	84	288	0
NMHLD	84	336	0	96
NMTAP	85	48	3
NMTAP	85	144	5
NMTAP	85	240	3
NMTAP	85	240	6
NMTAP	85	336	5
NMTAP	86	0	5
NMTAP	86	48	4
NMTAP	86	96	4
NMTAP	86	144	7
NMTAP	86	192	7
NMTAP	86	240	0
NMTAP	86	288	0
NMSTR	86	336	6
NMSCL	86	336	6	96	96	2
NMTAP	87	144	1
NMTAP	87	240	1
NMSTR	87	336	0
NMSI_	87	336	0	96	48	4
NMSTR	87	336	1
NMSI_	87	336	1	96	48	5
EXTAP	88	192	3
EXTAP	88	192	6
NMTAP	88	288	1
NMTAP	88	288	4
EXTAP	88	336	1
EXTAP	88	336	4
EXTAP	89	48	3
EXTAP	89	48	6
EXTAP	89	144	0
EXTAP	89	144	7
BRTAP	89	240	0
BRTAP	89	240	7
NMHLD	90	0	6	96
NMTAP	90	96	4
NMTAP	90	144	4
NMTAP	90	192	5
NMHLD	90	336	1	96
NMTAP	91	48	3
NMTAP	91	96	3
NMTAP	91	144	2
EXTAP	91	240	0
EXTAP	91	240	1
EXTAP	91	336	6
EXTAP	91	336	7
NMTAP	92	48	5
NMTAP	92	96	5
NMTAP	92	144	4
NMTAP	92	144	5
NMHLD	92	192	4	96
NMHLD	92	192	5	96
NMHLD	92	336	6	96
NMTAP	93	48	4
NMTAP	93	96	4
NMTAP	93	144	5
EXTAP	93	240	6
EXTAP	93	240	7
EXTAP	93	336	0
EXTAP	93	336	1
NMTAP	94	48	2
NMTAP	94	96	2
NMTAP	94	144	2
NMTAP	94	144	3
NMHLD	94	192	2	96
NMHLD	94	192	3	96
NMHLD	94	336	1	96
NMTAP	95	48	3
NMTAP	95	96	3
NMTAP	95	144	2
EXTAP	95	240	0
EXTAP	95	240	7
EXTAP	95	336	6
EXTAP	95	336	7
NMTAP	96	48	5
NMTAP	96	96	5
NMTAP	96	144	4
NMTAP	96	144	5
NMTAP	96	192	4
NMTAP	96	192	5
NMTAP	96	288	6
NMTAP	96	288	7
NMSTR	96	336	6
NMSI_	96	336	6	96	48	3
NMSTR	96	336	7
NMSI_	96	336	7	96	48	2
NMSTR	97	144	0
NMSI_	97	144	0	96	48	5
NMSTR	97	144	1
NMSI_	97	144	1	96	48	4
NMSTR	98	0	6
NMSI_	98	0	6	96	48	3
NMTAP	98	96	2
NMSTR	98	192	2
NMSI_	98	192	2	96	48	5
NMTAP	98	288	7
NMSTR	99	0	7
NMSI_	99	0	7	96	48	3
NMTAP	99	96	2
NMTAP	99	192	2
NMTAP	99	288	2
NMTAP	99	288	3
NMSTR	100	0	1
NMSI_	100	0	1	96	48	4
NMTAP	100	96	5
NMSTR	100	192	5
NMSI_	100	192	5	96	48	2
NMTAP	100	288	0
NMSTR	101	0	0
NMSI_	101	0	0	96	48	4
NMTAP	101	96	5
NMTAP	101	192	5
NMTAP	101	288	4
NMTAP	101	288	5
NMTAP	102	0	6
NMTAP	102	48	6
NMTAP	102	96	4
NMTAP	102	144	4
NMTAP	102	192	3
NMTAP	102	240	3
NMTAP	102	288	1
NMTAP	102	336	1
NMTAP	103	0	5
NMTAP	103	48	5
NMSTR	103	96	0
NMSI_	103	96	0	96	48	4
EXTAP	104	0	4
EXTAP	104	0	6
NMTAP	104	48	4
NMTAP	104	48	6
NMTAP	104	96	4
NMTAP	104	96	6
BRTAP	104	192	3
BRTAP	104	192	7
EXTAP	104	336	1
EXTAP	104	336	3
NMTAP	105	0	1
NMTAP	105	0	3
NMTAP	105	48	1
NMTAP	105	48	3
BRTAP	105	144	0
BRTAP	105	144	4
BRTAP	105	240	2
BRTAP	105	240	6
NMTAP	106	0	3
NMTAP	106	0	5
NMTAP	106	96	2
NMTAP	106	96	4
NMTAP	106	192	1
NMTAP	106	192	6
NMTAP	106	264	1
NMTAP	106	264	6
BXSTR	106	360	0
NMSCR	106	360	0	96	56	3
BXSTR	106	360	7
NMSCL	106	360	7	96	56	4
EXTAP	107	192	2
EXTAP	107	192	5
NMTTP	107	336	0	E	1	M1
NMTTP	107	336	0	A	0	M1
NMTTP	107	336	0	D	0	M1
NMTTP	107	336	7	A	0	M1
NMTTP	108	120	5	B	1	M1
NMTTP	108	120	5	A	0	M1
NMTTP	108	120	5	D	0	M1
NMTTP	108	120	6	D	0	M1
NMTTP	108	288	2	B	1	M1
NMTTP	108	288	2	A	0	M1
NMTTP	108	288	2	D	0	M1
NMTTP	108	288	3	D	0	M1
NMTTP	109	72	3	A	0	M1
NMTTP	109	72	4	E	1	M1
NMTTP	109	72	4	A	0	M1
NMTTP	109	72	4	D	0	M1
NMTTP	109	192	0	B	0	M1
NMTTP	109	192	0	E	1	M1
NMTHO	109	192	0	768	C	1	M1
NMTTP	109	192	1	B	0	M1
NMTTP	109	192	6	B	0	M1
NMTTP	109	192	7	B	0	M1

T_REC_TAP	372
T_REC_BRK	16
T_REC_XTP	61
T_REC_BXX	8
T_REC_HLD	43
T_REC_XHO	12
T_REC_BHO	0
T_REC_BXH	2
T_REC_STR	25
T_REC_BST	0
T_REC_XST	9
T_REC_XBS	2
T_REC_TTP	28
T_REC_THO	1
T_REC_SLD	37
T_REC_BSL	0
T_REC_ALL	616
T_NUM_TAP	495
T_NUM_BRK	28
T_NUM_HLD	56
T_NUM_SLD	37
T_NUM_ALL	616
T_JUDGE_TAP	521
T_JUDGE_HLD	196
T_JUDGE_SLD	37
T_JUDGE_ALL	754
TTM_EACHPAIRS	163
TTM_SCR_TAP	247500
TTM_SCR_BRK	72800
TTM_SCR_HLD	56000
TTM_SCR_SLD	55500
TTM_SCR_ALL	431800
TTM_SCR_S	416150
TTM_SCR_SS	429000
TTM_RAT_ACV	10065

