VERSION	0.00.00	1.05.00
FES_MODE	0
BPM_DEF	200.000	200.000	220.000	200.000
MET_DEF	4	4
RESOLUTION	384
CLK_DEF	384
COMPATIBLE_CODE	MA2

BPM	0	0	200.000
BPM	46	0	220.000
BPM	71	192	200.000
MET	0	0	4	4
MET	46	0	4	3
MET	71	192	4	6
MET	73	0	4	4

EXTAP	2	0	3
EXTAP	2	0	4
EXTAP	2	336	3
EXTAP	3	48	3
EXTAP	3	144	3
EXTAP	3	336	4
EXTAP	4	48	4
EXTAP	4	144	4
NMTAP	4	336	3
NMTAP	5	48	3
NMTAP	5	144	3
NMTAP	5	336	2
NMTAP	6	48	2
NMTAP	6	144	2
NMTAP	6	336	1
NMTAP	7	48	1
NMTAP	7	144	1
NMTAP	7	336	0
NMTAP	7	336	7
NMTAP	8	48	0
NMTAP	8	48	7
NMTAP	8	144	0
NMTAP	8	144	7
NMTAP	8	336	6
NMTAP	9	48	6
NMTAP	9	144	6
NMTAP	9	336	5
NMTAP	10	48	5
NMTAP	10	144	5
NMTAP	10	336	4
NMTAP	11	48	4
NMTAP	11	144	4
NMTAP	11	336	5
NMTAP	12	48	5
NMTAP	12	144	5
NMTAP	12	336	6
NMTAP	13	48	6
NMTAP	13	144	6
NMTAP	13	336	0
NMTAP	13	336	7
NMTAP	14	48	0
NMTAP	14	48	7
NMTAP	14	144	0
NMTAP	14	144	7
NMTAP	14	336	1
NMTAP	15	48	1
NMTAP	15	144	1
NMTAP	15	336	2
NMTAP	16	48	2
NMTAP	16	144	2
EXTAP	16	336	3
EXTAP	16	336	4
NMTAP	18	0	3
NMTAP	18	96	3
NMTAP	18	192	2
NMTAP	19	0	1
NMTAP	19	96	1
NMTAP	19	192	0
NMTAP	20	0	7
NMTAP	20	96	7
NMTAP	20	192	6
NMTAP	21	0	5
NMTAP	21	96	5
NMTAP	21	192	4
NMTAP	21	192	5
NMTAP	22	0	4
NMTAP	22	96	4
NMTAP	22	192	5
NMTAP	23	0	6
NMTAP	23	96	6
NMTAP	23	192	7
NMTAP	24	0	0
NMTAP	24	96	0
NMTAP	24	192	1
NMTAP	25	0	2
NMTAP	25	96	2
NMTAP	25	192	2
NMTAP	25	192	3
NMTAP	26	0	2
NMTAP	26	96	2
NMTAP	26	192	1
NMTAP	26	288	1
NMTAP	27	0	0
NMTAP	27	96	0
NMTAP	27	192	6
NMTAP	27	192	7
NMTAP	28	0	5
NMTAP	28	96	5
NMTAP	28	192	6
NMTAP	28	288	6
NMTAP	29	0	7
NMTAP	29	96	7
NMTAP	29	192	0
NMTAP	29	192	1
NMTAP	30	0	1
NMTAP	30	96	1
NMTAP	30	192	2
NMTAP	30	288	2
NMTAP	31	0	3
NMTAP	31	96	3
NMTAP	31	192	4
NMTAP	31	192	5
NMTAP	32	0	6
NMTAP	32	96	6
NMTAP	32	192	5
NMTAP	32	288	5
NMTAP	33	0	4
NMTAP	33	96	4
NMTAP	33	192	2
NMTAP	33	192	3
EXSTR	34	0	1
NMSI_	34	0	1	96	288	4
NMTAP	35	192	5
NMSTR	36	0	6
NMSI_	36	0	6	96	288	3
NMTAP	37	192	2
NMSTR	38	0	1
NMSI_	38	0	1	96	288	5
NMTAP	39	192	6
NMSTR	40	0	7
NMSI_	40	0	7	96	288	3
NMTAP	41	192	2
NMSTR	42	0	2
NMSI_	42	0	2	96	288	7
NMTAP	43	192	6
EXSTR	44	0	6
NMSI_	44	0	6	96	288	2
EXTAP	46	0	1
EXTAP	46	96	1
EXTAP	46	192	1
EXTAP	46	288	1
NMTAP	47	192	2
NMTAP	47	192	3
NMTAP	47	288	2
NMTAP	47	288	3
NMTAP	48	0	2
NMTAP	48	0	3
NMTAP	48	96	2
NMTAP	48	96	3
NMTAP	49	0	4
NMTAP	49	96	4
NMTAP	49	192	4
NMTAP	49	288	4
NMTAP	50	192	4
NMTAP	50	192	5
NMTAP	50	288	4
NMTAP	50	288	5
NMTAP	51	0	4
NMTAP	51	0	5
NMTAP	51	96	4
NMTAP	51	96	5
NMTAP	52	0	6
NMTAP	52	96	6
NMTAP	52	192	6
NMTAP	52	288	6
NMTAP	53	192	4
NMTAP	53	192	5
NMTAP	53	288	4
NMTAP	53	288	5
NMTAP	54	0	4
NMTAP	54	0	5
NMTAP	54	96	4
NMTAP	54	96	5
NMTAP	55	0	3
NMTAP	55	96	3
NMTAP	55	192	3
NMTAP	55	288	3
NMTAP	56	192	2
NMTAP	56	192	3
NMTAP	56	288	2
NMTAP	56	288	3
NMTAP	57	0	2
NMTAP	57	0	3
NMTAP	57	96	2
NMTAP	57	96	3
NMTAP	58	0	1
NMTAP	58	96	1
NMTAP	58	192	1
NMTAP	58	288	1
NMTAP	59	192	2
NMTAP	59	192	3
NMTAP	59	288	2
NMTAP	59	288	3
NMTAP	60	0	2
NMTAP	60	0	3
NMTAP	60	96	2
NMTAP	60	96	3
NMTAP	61	0	4
NMTAP	61	96	4
NMTAP	61	192	4
NMTAP	61	288	4
NMTAP	62	192	4
NMTAP	62	192	5
NMTAP	62	288	4
NMTAP	62	288	5
NMTAP	63	0	4
NMTAP	63	0	5
BRTAP	63	96	4
BRTAP	63	96	5
NMTAP	64	0	6
NMTAP	64	96	6
NMTAP	64	192	6
NMTAP	64	192	7
NMTAP	64	288	6
NMTAP	64	288	7
NMTAP	65	192	5
NMTAP	65	288	5
NMTAP	66	0	4
NMTAP	66	0	5
NMTAP	66	96	4
NMTAP	66	96	5
NMTAP	67	0	3
NMTAP	67	96	3
NMTAP	67	192	2
NMTAP	67	192	3
NMTAP	67	288	2
NMTAP	67	288	3
NMTAP	68	192	1
NMTAP	68	288	1
NMTAP	69	0	0
NMTAP	69	0	1
NMTAP	69	96	0
NMTAP	69	96	1
NMTAP	70	0	7
NMTAP	70	96	7
NMTAP	70	192	0
NMTAP	70	192	7
NMTAP	70	288	0
NMTAP	70	288	7
NMSTR	71	192	1
NMSCR	71	192	1	96	480	6
NMTTP	74	0	6	B	0	L1
NMTTP	74	192	5	B	0	L1
NMTTP	75	0	4	B	0	L1
NMTTP	76	0	1	B	0	L1
NMTTP	76	192	2	B	0	L1
NMTTP	77	0	3	B	0	L1
NMTTP	78	0	6	B	0	L1
NMTTP	78	192	5	B	0	L1
NMTTP	79	0	4	B	0	L1
NMTTP	79	192	3	B	0	L1
NMTHO	80	0	0	384	C	1	L1
EXTAP	82	0	1
EXTAP	82	96	1
NMTAP	82	192	0
NMTAP	82	192	1
NMTAP	82	288	0
NMTAP	82	288	1
NMTAP	83	0	7
NMTAP	83	96	7
NMTAP	83	192	6
NMTAP	83	192	7
NMTAP	84	0	5
NMTAP	84	96	5
NMTAP	84	192	6
NMTAP	84	192	7
NMTAP	84	288	6
NMTAP	84	288	7
NMTAP	85	0	0
NMTAP	85	96	0
NMTAP	85	192	0
NMTAP	85	192	1
NMTAP	86	0	1
NMTAP	86	96	1
NMTAP	86	192	2
NMTAP	86	192	3
NMTAP	86	288	2
NMTAP	86	288	3
NMTAP	87	0	4
NMTAP	87	96	4
NMTAP	87	192	4
NMTAP	87	192	5
NMTAP	88	0	6
NMTAP	88	96	6
NMTAP	88	192	4
NMTAP	88	192	5
NMTAP	88	288	4
NMTAP	88	288	5
NMTAP	89	0	3
NMTAP	89	96	3
NMTAP	89	192	2
NMTAP	89	192	3
BRTAP	90	0	2
NMTAP	90	96	2
NMTAP	90	192	0
NMTAP	90	192	1
NMTAP	90	288	0
NMTAP	90	288	1
NMTAP	91	0	7
NMTAP	91	96	7
NMTAP	91	192	6
NMTAP	91	192	7
NMTAP	91	288	6
NMTAP	91	288	7
NMTAP	92	0	5
NMTAP	92	96	5
NMTAP	92	192	6
NMTAP	92	192	7
NMTAP	92	288	6
NMTAP	92	288	7
NMTAP	93	0	0
NMTAP	93	96	0
NMTAP	93	192	0
NMTAP	93	192	1
NMTAP	94	0	1
NMTAP	94	96	1
NMTAP	94	192	2
NMTAP	94	192	3
NMTAP	94	288	2
NMTAP	94	288	3
NMTAP	95	0	4
NMTAP	95	96	4
NMTAP	95	192	4
NMTAP	95	192	5
NMTAP	95	288	4
NMTAP	95	288	5
NMTAP	96	0	6
NMTAP	96	96	6
NMTAP	96	192	4
NMTAP	96	192	5
NMTAP	96	288	4
NMTAP	96	288	5
NMTAP	97	0	3
NMTAP	97	96	3
NMTAP	97	192	2
NMTAP	97	192	3
NMTAP	98	0	2
NMTAP	98	48	2
NMTAP	98	96	2
NMTAP	98	192	1
NMTAP	98	240	1
NMTAP	98	288	1
NMTAP	99	0	0
NMTAP	99	48	0
NMTAP	99	96	0
NMTAP	99	192	6
NMTAP	99	192	7
NMTAP	100	0	5
NMTAP	100	48	5
NMTAP	100	96	5
NMTAP	100	192	6
NMTAP	100	240	6
NMTAP	100	288	6
NMTAP	101	0	7
NMTAP	101	48	7
NMTAP	101	96	7
NMTAP	101	192	0
NMTAP	101	192	1
NMTAP	102	0	1
NMTAP	102	48	1
NMTAP	102	96	1
NMTAP	102	192	2
NMTAP	102	240	2
NMTAP	102	288	2
NMTAP	103	0	3
NMTAP	103	48	3
NMTAP	103	96	3
NMTAP	103	192	4
NMTAP	103	192	5
NMTAP	104	0	6
NMTAP	104	48	6
NMTAP	104	96	6
NMTAP	104	192	5
NMTAP	104	240	5
NMTAP	104	288	5
NMTAP	105	0	4
NMTAP	105	48	4
NMTAP	105	96	4
BXTAP	105	192	2
BXTAP	105	192	3
NMHLD	106	0	3	360
NMHLD	106	0	4	360
EXTAP	107	336	3
EXTAP	107	336	5
EXTAP	108	120	3
EXTAP	108	120	5
EXTAP	108	288	2
EXTAP	108	288	4
EXSTR	109	72	2
NMSXR	109	72	2	96	840	5
EXTAP	109	72	4

T_REC_TAP	324
T_REC_BRK	3
T_REC_XTP	23
T_REC_BXX	2
T_REC_HLD	2
T_REC_XHO	0
T_REC_BHO	0
T_REC_BXH	0
T_REC_STR	5
T_REC_BST	0
T_REC_XST	3
T_REC_XBS	0
T_REC_TTP	10
T_REC_THO	1
T_REC_SLD	8
T_REC_BSL	0
T_REC_ALL	381
T_NUM_TAP	365
T_NUM_BRK	5
T_NUM_HLD	3
T_NUM_SLD	8
T_NUM_ALL	381
T_JUDGE_TAP	370
T_JUDGE_HLD	24
T_JUDGE_SLD	8
T_JUDGE_ALL	402
TTM_EACHPAIRS	83
TTM_SCR_TAP	182500
TTM_SCR_BRK	13000
TTM_SCR_HLD	3000
TTM_SCR_SLD	12000
TTM_SCR_ALL	210500
TTM_SCR_S	203700
TTM_SCR_SS	210000
TTM_RAT_ACV	10023

