VERSION	0.00.00	1.05.00
FES_MODE	0
BPM_DEF	200.000	200.000	220.000	200.000
MET_DEF	4	4
RESOLUTION	384
CLK_DEF	384
COMPATIBLE_CODE	MA2

BPM	0	0	200.000
BPM	46	0	220.000
BPM	71	192	200.000
MET	0	0	4	4
MET	46	0	4	3
MET	71	192	4	6
MET	73	0	4	4

EXTAP	2	0	7
EXTAP	3	336	0
EXTAP	4	48	0
NMTAP	5	336	1
NMTAP	6	48	1
NMTAP	7	336	2
NMTAP	8	48	2
NMTAP	9	336	3
NMTAP	9	336	4
NMTAP	10	48	3
NMTAP	10	48	4
NMTAP	11	336	5
NMTAP	12	48	5
NMTAP	13	336	6
NMTAP	14	48	6
NMTAP	15	336	0
NMTAP	15	336	7
NMTAP	16	48	0
NMTAP	16	48	7
EXTAP	18	0	7
NMTAP	18	192	7
NMTAP	19	0	6
NMTAP	19	192	6
NMTAP	20	0	5
NMTAP	20	192	5
NMTAP	21	0	3
NMTAP	21	0	4
NMTAP	21	192	3
NMTAP	21	192	4
NMTAP	22	0	3
NMTAP	22	192	3
NMTAP	23	0	2
NMTAP	23	192	2
NMTAP	24	0	1
NMTAP	24	192	1
EXTAP	25	0	0
EXTAP	25	0	7
NMHLD	26	0	0	192
NMHLD	26	0	1	192
NMTAP	27	0	0
NMTAP	27	0	1
NMHLD	28	0	2	192
NMHLD	28	0	3	192
NMTAP	29	0	2
NMTAP	29	0	3
NMHLD	30	0	4	192
NMHLD	30	0	5	192
NMTAP	31	0	4
NMTAP	31	0	5
EXHLD	32	0	6	192
EXHLD	32	0	7	192
EXTAP	33	0	6
EXTAP	33	0	7
NMTAP	34	0	6
NMTAP	34	0	7
NMTAP	34	192	6
NMTAP	34	192	7
NMTAP	35	0	6
NMTAP	35	0	7
NMTAP	36	0	4
NMTAP	36	0	5
NMTAP	36	192	4
NMTAP	36	192	5
NMTAP	37	0	4
NMTAP	37	0	5
NMTAP	38	0	2
NMTAP	38	0	3
NMTAP	38	192	2
NMTAP	38	192	3
NMTAP	39	0	2
NMTAP	39	0	3
NMTAP	40	0	0
NMTAP	40	0	1
NMTAP	40	192	0
NMTAP	40	192	1
NMTAP	41	0	0
NMTAP	41	0	1
NMTAP	42	0	7
NMTAP	42	192	7
NMTAP	43	0	0
NMTAP	43	0	7
EXHLD	43	192	0	576
EXHLD	43	192	7	576
EXSTR	46	0	7
NMSI_	46	0	7	96	480	3
NMSTR	49	0	0
NMSI_	49	0	0	96	480	4
NMSTR	52	0	6
NMSI_	52	0	6	96	480	2
NMSTR	55	0	1
NMSI_	55	0	1	96	480	5
EXTAP	58	0	7
EXTAP	58	96	7
EXTAP	58	288	6
EXTAP	59	0	6
NMTAP	59	192	5
NMTAP	59	288	5
NMTAP	60	96	3
NMTAP	60	96	4
NMTAP	61	0	3
NMTAP	61	96	3
NMTAP	61	288	2
NMTAP	62	0	2
NMTAP	62	192	1
NMTAP	62	288	1
NMTAP	63	96	0
NMTAP	63	96	7
NMTAP	64	0	0
NMTAP	64	96	0
NMTAP	64	288	1
NMTAP	65	0	1
NMTAP	65	192	2
NMTAP	65	288	2
NMTAP	66	96	3
NMTAP	66	96	4
NMTAP	67	0	4
NMTAP	67	96	4
NMTAP	67	288	5
NMTAP	68	0	5
NMTAP	68	192	6
NMTAP	68	288	6
NMTAP	69	96	0
NMTAP	69	96	7
NMTAP	70	0	0
NMTAP	70	96	0
NMTAP	70	288	7
NMTAP	71	0	7
EXHLD	71	192	0	576
EXHLD	71	192	7	576
NMTTP	74	0	0	E	0	L1
NMTTP	75	0	0	B	0	L1
NMTTP	75	0	7	B	0	L1
NMTTP	76	0	1	B	0	L1
NMTTP	76	0	6	B	0	L1
NMTTP	77	0	2	B	0	L1
NMTTP	77	0	5	B	0	L1
NMTTP	78	0	3	B	0	L1
NMTTP	78	0	4	B	0	L1
NMTTP	79	0	2	B	0	L1
NMTTP	79	0	5	B	0	L1
NMTTP	80	0	1	B	0	L1
NMTTP	80	0	6	B	0	L1
NMTTP	81	0	0	C	1	L1
EXTAP	82	0	7
EXTAP	82	96	7
EXTAP	82	192	7
NMTAP	83	0	6
NMTAP	83	96	6
NMTAP	83	192	6
NMTAP	84	0	5
NMTAP	84	96	5
NMTAP	84	192	5
NMTAP	85	0	4
NMTAP	85	96	4
NMTAP	85	192	3
NMTAP	85	192	4
NMTAP	86	0	3
NMTAP	86	96	3
NMTAP	86	192	3
NMTAP	87	0	2
NMTAP	87	96	2
NMTAP	87	192	2
NMTAP	88	0	1
NMTAP	88	96	1
NMTAP	88	192	1
EXTAP	89	0	0
EXTAP	89	0	7
BRTAP	90	0	0
NMTAP	90	96	0
NMTAP	90	192	0
NMTAP	90	288	0
NMTAP	91	0	1
NMTAP	91	96	1
NMTAP	91	192	0
NMTAP	91	192	1
NMTAP	92	0	2
NMTAP	92	96	2
NMTAP	92	192	2
NMTAP	92	288	2
NMTAP	93	0	3
NMTAP	93	96	3
NMTAP	93	192	3
NMTAP	93	192	4
NMTAP	94	0	4
NMTAP	94	96	4
NMTAP	94	192	4
NMTAP	94	288	4
NMTAP	95	0	5
NMTAP	95	96	5
NMTAP	95	192	4
NMTAP	95	192	5
NMTAP	96	0	6
NMTAP	96	96	6
NMTAP	96	192	6
NMTAP	96	288	6
EXTAP	97	0	0
EXTAP	97	0	7
BRTAP	98	0	7
NMTAP	98	96	7
NMTAP	98	192	6
NMTAP	98	288	6
NMTAP	99	0	5
NMTAP	99	96	5
NMTAP	99	192	4
NMTAP	99	192	5
NMTAP	100	0	3
NMTAP	100	96	3
NMTAP	100	192	2
NMTAP	100	288	2
NMTAP	101	0	1
NMTAP	101	96	1
NMTAP	101	192	0
NMTAP	101	192	1
NMTAP	102	0	0
NMTAP	102	96	0
NMTAP	102	192	1
NMTAP	102	288	1
NMTAP	103	0	2
NMTAP	103	96	2
NMTAP	103	192	3
NMTAP	103	288	3
NMTAP	104	0	4
NMTAP	104	96	4
NMTAP	104	192	5
NMTAP	104	288	5
NMTAP	105	0	6
NMTAP	105	96	6
NMTAP	105	192	0
NMTAP	105	192	7
NMTTP	106	0	0	E	0	L1
NMTTP	107	0	0	B	0	L1
NMTTP	107	0	7	B	0	L1
NMTHO	108	0	0	1344	C	1	L1

T_REC_TAP	174
T_REC_BRK	2
T_REC_XTP	19
T_REC_BXX	0
T_REC_HLD	6
T_REC_XHO	6
T_REC_BHO	0
T_REC_BXH	0
T_REC_STR	3
T_REC_BST	0
T_REC_XST	1
T_REC_XBS	0
T_REC_TTP	17
T_REC_THO	1
T_REC_SLD	4
T_REC_BSL	0
T_REC_ALL	233
T_NUM_TAP	214
T_NUM_BRK	2
T_NUM_HLD	13
T_NUM_SLD	4
T_NUM_ALL	233
T_JUDGE_TAP	216
T_JUDGE_HLD	108
T_JUDGE_SLD	4
T_JUDGE_ALL	328
TTM_EACHPAIRS	43
TTM_SCR_TAP	107000
TTM_SCR_BRK	5200
TTM_SCR_HLD	13000
TTM_SCR_SLD	6000
TTM_SCR_ALL	131200
TTM_SCR_S	127100
TTM_SCR_SS	131000
TTM_RAT_ACV	10015

