VERSION	0.00.00	1.05.00
FES_MODE	0
BPM_DEF	200.000	200.000	200.000	200.000
MET_DEF	4	4
RESOLUTION	384
CLK_DEF	384
COMPATIBLE_CODE	MA2

BPM	0	0	200.000
MET	0	0	4	4

NMHLD	2	0	5	576
NMTTP	2	192	5	B	0	M1
NMTTP	2	204	5	E	0	M1
NMTTP	3	192	4	B	0	M1
NMTTP	3	204	4	E	0	M1
NMHLD	4	0	2	576
NMTTP	4	192	2	B	0	M1
NMTTP	4	204	3	E	0	M1
NMTTP	5	192	4	B	0	M1
NMTTP	5	204	4	E	0	M1
NMTAP	6	0	2
NMTAP	6	48	3
NMTAP	6	96	5
NMTAP	6	144	4
NMTAP	6	192	3
NMTAP	6	288	1
NMTAP	6	288	5
BRTAP	6	336	1
BRTAP	6	336	5
NMSTR	8	0	2
NMSUR	8	0	2	96	432	4
NMTAP	9	192	5
NMTAP	9	240	4
NMTAP	9	288	3
NMSTR	9	288	6
NMSI_	9	288	6	96	48	1
BRSTR	10	0	2
NMSI_	10	0	2	96	48	5
BRTAP	10	0	6
NMSTR	10	96	0
NMSI_	10	96	0	96	48	5
NMHLD	10	192	4	96
NMTAP	10	288	6
NMHLD	10	336	6	96
NMTAP	11	48	7
NMTAP	11	96	7
NMTAP	11	192	4
NMTAP	11	192	5
NMTAP	11	288	2
NMTAP	11	288	3
NMTAP	12	0	5
NMTAP	12	48	4
NMTAP	12	96	3
NMTAP	12	96	6
NMTAP	12	144	5
NMTAP	12	192	2
NMTAP	12	240	3
NMTAP	12	288	2
NMTAP	12	288	4
NMSTR	12	336	1
NMSCL	12	336	1	96	96	6
NMSTR	13	48	6
NMSI_	13	48	6	96	96	2
NMSTR	13	144	2
NMSCR	13	144	2	96	96	5
NMTAP	13	240	0
NMTAP	13	288	0
BRSTR	14	0	0
NMSI_	14	0	0	96	48	4
NMSTR	14	96	2
NMSCL	14	96	2	96	48	7
NMSTR	14	192	5
NMSI_	14	192	5	96	48	3
NMTAP	14	288	0
NMHLD	14	336	0	96
NMTAP	15	48	3
NMTAP	15	96	1
NMTAP	15	144	2
NMTAP	15	144	4
NMTAP	15	192	5
NMTAP	15	240	6
NMTAP	15	288	3
NMTAP	15	288	7
NMSTR	16	0	6
NMSI_	16	0	6	96	48	4
NMTAP	16	48	6
NMSTR	16	96	2
NMSI_	16	96	2	96	48	0
NMTAP	16	144	2
NMSTR	16	192	7
NMSI_	16	192	7	96	48	3
NMTAP	16	240	7
NMHLD	16	288	1	96
NMTAP	17	0	2
NMTAP	17	24	1
NMTAP	17	48	0
NMTAP	17	72	7
NMTAP	17	96	6
NMTAP	17	120	5
NMTAP	17	144	4
NMTAP	17	168	3
NMTHO	17	192	0	96	C	0	M1
NMSTR	18	0	0
NMSCR	18	0	0	96	240	3
NMTAP	18	0	7
NMTTP	18	192	2	B	0	M1
NMHLD	18	336	5	144
NMTAP	19	96	4
NMTTP	19	192	5	E	0	M1
NMTTP	19	192	6	E	0	M1
NMSTR	20	0	5
NMSCL	20	0	5	96	240	2
NMTTP	20	192	4	E	0	M1
NMHLD	20	336	1	144
NMTAP	21	96	3
NMTTP	21	192	2	E	0	M1
NMTTP	21	192	3	E	0	M1
NMSTR	22	0	1
NMSCR	22	0	1	96	240	5
NMTTP	22	192	3	B	0	M1
NMHLD	22	336	6	144
NMTAP	23	96	4
NMTTP	23	192	5	E	0	M1
NMTTP	23	192	6	E	0	M1
NMTAP	23	336	6
NMTAP	24	0	6
NMTAP	24	48	4
NMTAP	24	96	4
NMTAP	24	144	3
NMTAP	24	192	3
NMSTR	24	240	2
NMSCR	24	240	2	96	144	7
NMTTP	24	336	0	C	1	M1
NMTAP	25	96	0
NMTAP	25	192	1
NMTAP	25	192	6
NMSTR	25	288	2
NMSI_	25	288	2	96	48	4
NMHLD	26	0	7	192
NMTAP	26	96	5
NMTAP	26	192	4
NMTAP	26	240	6
NMTAP	26	288	3
NMTAP	26	288	5
NMHLD	27	0	1	192
NMTAP	27	96	2
NMTAP	27	192	3
NMTAP	27	240	2
NMTAP	27	288	1
NMTAP	27	288	4
NMTAP	28	0	0
NMSTR	28	48	0
NMSI_	28	48	0	96	48	6
NMSTR	28	144	3
NMSI_	28	144	3	96	48	5
NMHLD	28	240	7	96
NMTAP	28	336	6
NMTAP	29	48	4
NMTAP	29	48	5
NMTAP	29	144	2
NMTAP	29	144	3
NMTAP	29	192	2
NMTAP	29	192	3
NMTAP	29	288	4
NMTAP	29	288	6
NMHLD	30	0	7	192
NMTAP	30	96	5
NMTAP	30	192	4
NMTAP	30	240	6
NMTAP	30	288	3
NMTAP	30	288	5
NMHLD	31	0	0	192
NMTAP	31	96	2
NMTAP	31	192	3
NMTAP	31	240	1
NMTAP	31	288	2
NMTAP	31	288	4
NMHLD	32	0	4	48
NMHLD	32	0	5	48
NMHLD	32	96	4	48
NMHLD	32	96	6	48
NMHLD	32	192	2	48
NMHLD	32	192	3	48
NMHLD	32	288	1	48
NMHLD	32	288	3	48
NMTAP	33	0	0
NMTAP	33	24	1
NMTAP	33	48	2
NMTAP	33	72	3
NMTAP	33	96	4
NMTAP	33	120	5
NMTAP	33	144	6
NMTAP	33	168	7
NMTAP	33	192	0
NMTAP	33	192	4
NMSTR	33	288	1
NMSI_	33	288	1	96	48	4
NMSTR	33	288	6
NMSI_	33	288	6	96	48	3
BRSTR	34	0	1
NMSCL	34	0	1	96	96	5
BRTAP	34	0	6
NMSTR	34	96	5
NMSCL	34	96	5	96	96	1
NMTAP	34	192	1
NMTAP	34	288	0
NMSTR	34	336	0
NMSI_	34	336	0	96	48	4
NMSI_	34	336	0	96	48	5
NMTAP	35	48	0
NMSTR	35	144	6
NMSI_	35	144	6	96	48	2
NMSTR	35	144	7
NMSI_	35	144	7	96	48	3
NMTAP	35	240	6
NMTAP	35	240	7
NMTAP	35	336	1
NMTAP	36	0	1
NMTAP	36	0	3
NMTAP	36	48	2
NMTAP	36	96	4
NMTAP	36	96	6
NMTAP	36	144	5
NMTAP	36	192	1
NMTAP	36	192	3
NMSTR	36	240	2
NMSXR	36	240	2	96	144	4
BRHLD	36	336	3	144
NMTAP	37	192	2
NMTAP	37	192	5
NMSTR	37	288	4
NMSV_	37	288	4	96	48	7
NMTAP	37	336	4
NMSTR	38	0	2
NMSI_	38	0	2	96	48	0
NMTAP	38	48	2
NMSTR	38	96	6
NMSI_	38	96	6	96	48	2
NMTAP	38	144	6
NMTAP	38	192	7
NMSTR	38	240	7
NMSCR	38	240	7	96	120	5
NMTTP	38	336	2	E	0	M1
NMTTP	38	336	3	E	1	M1
NMTAP	39	96	0
NMTAP	39	192	4
NMTAP	39	192	7
NMTAP	39	240	6
NMTAP	39	288	3
NMTAP	39	288	5
NMTAP	39	336	2
NMTAP	40	0	1
NMSTR	40	0	3
NMSCR	40	0	3	96	48	6
NMSTR	40	96	1
NMSCL	40	96	1	96	48	6
NMSTR	40	192	2
NMSI_	40	192	2	96	48	6
NMTAP	40	288	7
NMSTR	40	336	7
NMSI_	40	336	7	96	48	2
NMSI_	40	336	7	96	48	4
NMTAP	41	48	7
NMTAP	41	144	1
NMTAP	41	144	5
BRTAP	41	192	1
BRTAP	41	192	5
NMSTR	41	288	1
NMSLR	41	288	1	96	96	5
NMSTR	42	0	5
NMSLR	42	0	5	96	96	1
NMTAP	42	96	7
NMTAP	42	192	5
NMTAP	42	288	2
NMSTR	42	336	2
NMSLL	42	336	2	96	96	4
NMSTR	43	48	3
NMSI_	43	48	3	96	48	7
NMTAP	43	240	5
NMTAP	43	240	6
NMTAP	43	336	7
NMSTR	44	0	7
NMSCL	44	0	7	96	48	4
NMSTR	44	48	4
NMSCL	44	48	4	96	48	1
NMTAP	44	96	7
NMTAP	44	192	0
NMSTR	44	240	0
NMSF_	44	240	0	96	48	4
BRTAP	44	336	0
NMTAP	45	96	2
NMTAP	45	96	6
NMTAP	45	192	0
NMTAP	45	192	4
NMTAP	45	216	1
NMTAP	45	240	2
NMTAP	45	264	3
NMTAP	45	288	5
NMTAP	45	312	6
NMTAP	45	336	7
NMTAP	45	360	0
NMSTR	46	0	1
NMSI_	46	0	1	96	48	6
NMSTR	46	0	5
NMSI_	46	0	5	96	48	2
EXTAP	46	96	1
EXTAP	46	96	5
NMSTR	46	192	3
NMSI_	46	192	3	96	48	0
NMSTR	46	192	7
NMSI_	46	192	7	96	48	4
EXSTR	46	288	3
NMSCL	46	288	3	96	288	4
EXTAP	46	288	7
EXTAP	47	288	3
NMTHO	48	0	0	576	C	1	M1
NMTHO	48	0	1	576	B	0	M1
NMTHO	48	0	5	576	B	0	M1
NMSTR	50	0	7
NMSI_	50	0	7	96	96	2
NMTAP	50	96	7
CNSI_	50	192	2	0	48	0
NMTAP	50	192	3
CNSV_	50	240	0	0	336	3
NMHLD	50	336	4	240
NMSTR	52	0	3
NMSI_	52	0	3	96	96	6
NMTAP	52	0	5
NMTAP	52	96	3
CNSI_	52	192	6	0	48	4
NMTAP	52	192	7
CNSV_	52	240	4	0	336	7
NMHLD	52	336	0	240
NMTAP	53	288	1
NMTAP	53	288	6
NMTAP	54	0	0
NMTAP	54	0	2
NMHLD	54	48	0	48
NMHLD	54	48	2	48
NMTAP	54	144	3
NMTAP	54	144	5
NMHLD	54	192	3	48
NMHLD	54	192	5	48
NMTAP	54	288	6
NMTAP	54	312	7
NMTAP	54	336	6
NMTAP	55	0	0
NMTAP	55	0	5
NMHLD	55	48	0	48
NMHLD	55	48	5	48
NMTAP	55	144	2
NMTAP	55	144	7
NMHLD	55	192	2	48
NMHLD	55	192	7	48
NMTAP	55	288	6
NMTAP	55	312	4
NMTAP	55	336	6
NMTAP	55	360	4
NMSTR	56	0	5
NMSCL	56	0	5	96	48	2
NMTAP	56	96	5
NMSTR	56	144	1
NMSUR	56	144	1	96	48	5
NMTAP	56	240	1
NMSTR	56	288	7
NMSUR	56	288	7	96	144	0
NMTAP	57	0	4
NMTAP	57	48	3
NMTAP	57	96	2
NMTAP	57	144	1
NMTAP	57	240	2
NMTAP	57	240	7
NMTAP	57	288	2
NMTAP	57	288	7
NMSTR	58	0	0
NMSCL	58	0	0	96	48	5
NMSTR	58	0	1
NMSCR	58	0	1	96	48	4
NMTAP	58	96	0
NMSTR	58	96	1
NMSV_	58	96	1	96	48	4
NMTAP	58	192	6
NMTAP	58	240	7
NMTAP	58	288	0
NMSTR	59	0	3
NMSCL	59	0	3	96	48	1
NMSTR	59	48	1
NMSCL	59	48	1	96	48	7
NMSTR	59	96	7
NMSCL	59	96	7	96	48	5
NMTAP	59	144	5
NMTAP	59	240	4
NMTAP	59	288	4
NMSTR	60	0	6
NMSCL	60	0	6	96	48	3
NMSTR	60	0	7
NMSCR	60	0	7	96	48	2
NMSTR	60	96	6
NMSV_	60	96	6	96	48	3
NMTAP	60	96	7
NMTAP	60	192	1
NMTAP	60	240	0
NMTAP	60	288	7
NMSTR	61	0	4
NMSI_	61	0	4	96	48	6
NMSTR	61	48	6
NMSI_	61	48	6	96	48	0
NMSTR	61	96	0
NMSI_	61	96	0	96	48	2
NMTAP	61	144	2
NMTAP	61	240	3
NMTAP	61	288	3
NMSTR	62	0	3
NMSCL	62	0	3	96	96	0
NMSTR	62	96	0
NMSUR	62	96	0	96	96	4
NMSTR	62	192	4
NMSCR	62	192	4	96	96	7
NMSTR	62	288	7
NMSUL	62	288	7	96	96	3
NMSTR	63	0	3
NMSCL	63	0	3	96	96	0
NMTAP	63	96	0
NMTAP	63	192	7
NMTAP	63	240	7
NMTAP	63	288	1
NMTAP	63	288	6
NMHLD	64	0	7	96
NMTAP	64	48	2
EXTAP	64	72	3
EXTAP	64	96	4
NMHLD	64	144	0	96
NMTAP	64	192	4
EXTAP	64	216	3
EXTAP	64	240	2
NMHLD	64	288	7	96
NMTAP	64	336	3
EXTAP	64	360	4
EXTAP	65	0	5
NMHLD	65	48	0	96
NMTAP	65	96	5
EXTAP	65	120	4
EXTAP	65	144	3
EXTAP	65	168	2
EXTAP	65	192	1
EXTAP	65	216	0
EXTAP	65	240	7
EXTAP	65	264	6
EXTAP	65	288	4
EXTAP	65	288	5
NMHLD	66	0	3	96
NMTAP	66	48	7
EXTAP	66	72	0
EXTAP	66	96	1
NMHLD	66	144	4	96
NMTAP	66	192	1
EXTAP	66	216	0
EXTAP	66	240	7
EXTAP	66	288	3
EXTAP	66	288	5
NMSTR	67	0	2
BRSI_	67	0	2	96	48	7
NMSTR	67	48	6
BRSI_	67	48	6	96	48	3
BRTAP	67	96	2
BRTAP	67	144	6
NMSTR	68	0	2
NMSCR	68	0	2	96	192	3
NMTTP	68	192	0	C	0	M1
CNSUR	68	288	3	0	192	4
CNSCR	69	96	4	0	96	5
NMTTP	69	192	0	C	0	M1
NMSTR	70	0	2
NMSCR	70	0	2	96	192	3
NMTTP	70	192	0	C	0	M1
CNSUR	70	288	3	0	192	4
CNSCR	71	96	4	0	96	5
NMTTP	71	192	0	C	0	M1
NMSTR	72	0	1
NMSCL	72	0	1	96	192	0
NMTTP	72	192	5	E	0	M1
CNSV_	72	288	0	0	192	7
CNSCL	73	96	7	0	96	6
NMTTP	73	192	4	E	0	M1
NMSTR	74	0	1
NMSCL	74	0	1	96	192	0
NMTTP	74	192	5	E	0	M1
CNSV_	74	288	0	0	192	7
CNSCL	75	96	7	0	96	6
NMTTP	75	192	4	E	0	M1
NMTAP	76	0	2
NMSTR	76	96	2
NMSXR	76	96	2	96	384	5
NMTAP	76	192	3
NMTAP	76	288	3
NMTAP	77	0	4
NMTAP	77	96	4
NMTAP	77	192	6
NMTAP	77	288	6
NMTAP	78	0	7
NMSTR	78	96	7
NMSXR	78	96	7	96	384	2
NMTAP	78	192	4
NMTAP	78	288	4
NMTAP	79	0	3
NMTAP	79	96	3
NMTAP	79	192	1
NMTAP	79	288	1
NMTAP	80	0	0
NMTAP	80	0	7
NMTAP	80	48	6
NMTAP	80	96	0
NMTAP	80	96	5
NMTAP	80	144	1
NMTAP	80	192	2
NMTAP	80	192	6
NMTAP	80	240	5
NMTAP	80	288	3
NMTAP	80	288	4
NMTAP	81	0	3
NMTAP	81	24	4
NMTAP	81	48	3
NMTAP	81	72	4
NMTAP	81	96	2
NMTAP	81	120	5
NMTAP	81	144	2
NMTAP	81	168	5
NMTAP	81	192	1
NMTAP	81	216	6
NMTAP	81	240	1
NMTAP	81	264	6
NMSTR	81	288	0
NMSI_	81	288	0	96	48	4
NMSTR	81	288	7
NMSI_	81	288	7	96	48	3
NMTAP	82	0	0
NMTAP	82	0	7
BRSTR	82	96	2
NMSI_	82	96	2	96	48	6
BRTAP	82	96	6
NMHLD	82	192	7	96
NMTAP	82	288	5
NMSTR	82	336	5
NMSI_	82	336	5	96	48	0
NMSI_	82	336	5	96	48	1
NMTAP	83	48	5
NMSTR	83	144	2
NMSI_	83	144	2	96	48	6
NMSTR	83	144	3
NMSI_	83	144	3	96	48	7
NMTAP	83	240	2
NMTAP	83	240	3
NMTAP	83	336	5
NMTAP	84	0	6
NMTAP	84	0	7
NMTAP	84	48	0
NMTAP	84	96	0
NMTAP	84	96	1
NMTAP	84	144	2
NMTAP	84	192	3
NMTAP	84	192	4
NMSTR	84	240	1
NMSXL	84	240	1	96	144	0
NMSTR	84	240	5
NMSXL	84	240	5	96	144	4
NMTAP	84	336	1
NMTAP	84	336	5
BRTAP	85	192	3
BRTAP	85	192	7
BRTAP	85	240	1
BRTAP	85	240	5
NMTAP	85	336	0
NMSTR	86	0	0
NMSV_	86	0	0	96	48	5
NMTAP	86	96	0
NMSTR	86	96	6
NMSI_	86	96	6	96	48	2
NMTAP	86	192	4
NMTAP	86	192	6
NMSTR	86	240	4
NMSCL	86	240	4	96	120	6
NMTTP	86	336	2	E	1	M1
NMTTP	86	336	3	E	0	M1
NMTAP	87	96	3
NMTAP	87	192	4
NMTAP	87	192	7
NMTAP	87	240	5
NMTAP	87	288	0
NMTAP	87	288	6
NMTAP	87	336	1
NMSTR	88	0	0
NMSV_	88	0	0	96	48	3
NMTAP	88	0	2
NMSTR	88	96	1
NMSI_	88	96	1	96	48	6
NMTAP	88	192	2
NMTAP	88	288	3
NMTAP	88	288	7
NMSTR	88	336	3
NMSI_	88	336	3	96	48	6
NMSTR	88	336	7
NMSI_	88	336	7	96	48	2
NMTAP	89	48	3
NMTAP	89	48	7
NMTAP	89	144	1
NMTAP	89	144	5
BRTAP	89	192	1
BRTAP	89	192	5
NMSTR	89	288	0
NMSCL	89	288	0	96	96	4
NMSTR	90	0	4
NMSCL	90	0	4	96	96	0
NMSTR	90	96	0
NMSCL	90	96	0	96	96	4
NMSTR	90	192	4
NMSLL	90	192	4	96	120	7
NMTAP	90	288	0
NMTAP	90	336	0
NMHLD	91	48	4	96
NMTAP	91	144	7
NMTAP	91	240	0
NMSTR	91	288	0
NMSI_	91	288	0	96	48	3
NMSTR	91	336	3
NMSI_	91	336	3	96	48	0
NMSTR	92	0	0
NMSI_	92	0	0	96	48	5
NMSTR	92	48	5
NMSCR	92	48	5	96	96	2
NMTAP	92	96	4
NMTAP	92	192	3
NMSTR	92	240	3
NMSF_	92	240	3	96	48	7
BRTAP	92	336	3
NMTAP	93	48	1
NMTAP	93	48	5
NMTAP	93	96	1
NMTAP	93	96	5
NMTAP	93	192	6
NMTAP	93	192	7
NMSTR	93	240	6
NMSCL	93	240	6	96	48	3
NMSTR	93	240	7
NMSUL	93	240	7	96	48	3
NMSTR	93	336	6
NMSUR	93	336	6	96	48	2
NMTAP	93	336	7
NMTAP	94	48	0
NMTAP	94	96	0
NMTAP	94	192	1
NMTAP	94	192	3
NMTAP	94	240	1
NMTAP	94	240	3
NMTAP	94	288	3
NMTAP	94	288	4
NMTAP	94	336	3
NMTAP	94	336	4
NMTAP	95	0	4
NMTAP	95	0	6
NMTAP	95	48	4
NMTAP	95	48	6
NMTAP	95	96	3
NMTAP	95	96	7
NMTAP	95	144	3
NMTAP	95	144	7
BRTAP	95	192	2
NMTAP	95	216	6
NMTAP	95	240	1
NMTAP	95	264	5
NMTAP	95	288	0
NMTAP	95	312	4
NMTAP	95	336	7
NMTAP	95	360	3
NMTTP	96	0	0	C	1	M1
NMTTP	96	0	1	B	0	M1
NMTTP	96	0	5	B	0	M1
NMTAP	97	0	4
NMTAP	97	0	5
NMTAP	97	96	0
NMTAP	97	96	7
NMTAP	97	192	2
NMTAP	97	192	3
NMTAP	97	288	2
NMTAP	97	336	2
NMSTR	98	0	0
NMSI_	98	0	0	96	48	5
NMTAP	98	0	1
NMSTR	98	96	2
NMSI_	98	96	2	96	48	6
NMSTR	98	192	4
NMSCR	98	192	4	96	144	2
NMTAP	98	288	7
NMTAP	98	336	7
NMHLD	99	48	4	192
NMTAP	99	144	2
NMTAP	99	240	3
NMSTR	99	288	3
NMSI_	99	288	3	96	48	6
NMSTR	100	0	1
NMSI_	100	0	1	96	48	4
NMTAP	100	96	0
NMTAP	100	192	0
NMTAP	100	192	3
NMTAP	100	240	2
NMTAP	100	240	7
NMTAP	100	288	1
NMTAP	100	288	6
NMSTR	100	336	0
NMSLR	100	336	0	96	48	4
NMHLD	100	336	5	144
NMTAP	101	192	4
NMTAP	101	192	6
NMTAP	101	240	4
NMTAP	101	240	6
NMSTR	101	288	3
NMSXL	101	288	3	96	96	3
NMSXR	101	288	3	96	96	3
NMTAP	101	336	3
NMTAP	102	192	2
NMTAP	102	192	3
NMTAP	102	240	1
NMTAP	102	240	4
NMTAP	102	288	0
NMTAP	102	288	5
NMSTR	102	336	6
NMSI_	102	336	6	96	48	3
NMSTR	102	336	7
NMSI_	102	336	7	96	48	3
NMTAP	103	48	6
NMTAP	103	48	7
NMTAP	103	144	2
NMTAP	103	144	4
NMTAP	103	192	2
NMTAP	103	192	4
NMTAP	103	288	1
NMTAP	103	312	3
NMTAP	103	336	1
NMTAP	103	360	3
NMSTR	104	0	2
NMSI_	104	0	2	96	48	6
NMSTR	104	96	4
NMSUR	104	96	4	96	192	7
NMTAP	104	192	7
NMTAP	104	240	0
NMTAP	104	288	1
NMHLD	104	336	2	96
NMTAP	105	48	0
NMSTR	105	96	0
NMSI_	105	96	0	96	48	3
NMSI_	105	96	0	96	48	5
NMTAP	105	192	0
NMTAP	105	288	2
NMTAP	105	288	6
NMHLD	106	0	7	48
NMHLD	106	48	6	48
NMHLD	106	96	5	48
NMHLD	106	144	4	48
NMHLD	106	192	3	48
NMHLD	106	240	2	48
NMHLD	106	288	1	48
NMSTR	106	336	0
NMSV_	106	336	0	96	96	5
NMSTR	107	48	5
NMSCL	107	48	5	96	120	7
NMHLD	107	144	6	144
NMTAP	108	0	5
NMTAP	108	0	6
NMTAP	108	96	1
NMTAP	108	96	2
NMTAP	108	192	0
NMTAP	108	240	1
NMTAP	108	288	2
NMTAP	108	336	4
NMTAP	109	0	5
NMTAP	109	48	6
NMTAP	109	96	3
NMTAP	109	144	2
NMTAP	109	192	0
NMTAP	109	192	1
NMTAP	109	240	2
NMTAP	109	240	7
NMTAP	109	288	3
NMTAP	109	288	6
EXTAP	110	0	1
EXTAP	110	0	4
NMTAP	110	48	2
NMTAP	110	72	3
NMTAP	110	96	2
EXTAP	110	144	3
EXTAP	110	144	6
NMTAP	110	192	5
NMTAP	110	216	4
NMTAP	110	240	5
EXTAP	110	288	2
EXTAP	110	288	7
NMTAP	110	336	1
NMTAP	110	360	0
NMTAP	111	0	1
EXTAP	111	48	0
EXTAP	111	48	5
NMTAP	111	96	6
NMTAP	111	120	7
NMTAP	111	144	6
NMTAP	111	192	0
NMTAP	111	192	5
NMTAP	111	240	2
NMTAP	111	240	7
NMTAP	111	288	1
NMTAP	111	288	4
NMTAP	111	336	3
NMHLD	111	336	6	240
NMTAP	112	144	2
NMTAP	112	160	3
NMTAP	112	176	4
BRTAP	112	192	5

T_REC_TAP	408
T_REC_BRK	19
T_REC_XTP	33
T_REC_BXX	0
T_REC_HLD	52
T_REC_XHO	0
T_REC_BHO	1
T_REC_BXH	0
T_REC_STR	114
T_REC_BST	4
T_REC_XST	1
T_REC_XBS	0
T_REC_TTP	33
T_REC_THO	4
T_REC_SLD	122
T_REC_BSL	2
T_REC_ALL	793
T_NUM_TAP	589
T_NUM_BRK	26
T_NUM_HLD	56
T_NUM_SLD	122
T_NUM_ALL	793
T_JUDGE_TAP	612
T_JUDGE_HLD	166
T_JUDGE_SLD	124
T_JUDGE_ALL	902
TTM_EACHPAIRS	134
TTM_SCR_TAP	294500
TTM_SCR_BRK	67600
TTM_SCR_HLD	56000
TTM_SCR_SLD	183000
TTM_SCR_ALL	601100
TTM_SCR_S	580550
TTM_SCR_SS	598500
TTM_RAT_ACV	10043

