VERSION	0.00.00	1.05.00
FES_MODE	0
BPM_DEF	200.000	200.000	200.000	200.000
MET_DEF	4	4
RESOLUTION	384
CLK_DEF	384
COMPATIBLE_CODE	MA2

BPM	0	0	200.000
MET	0	0	4	4

NMHLD	2	0	3	768
NMTAP	2	192	4
NMTTP	3	192	5	E	0	M1
NMHLD	4	0	5	864
NMTTP	4	192	4	E	0	M1
NMTAP	5	192	4
NMTAP	5	288	3
NMHLD	6	0	3	96
NMTAP	6	192	2
NMTAP	6	192	6
NMTAP	6	240	2
NMTAP	6	240	6
BXHLD	6	336	1	432
BXTAP	6	336	7
NMSTR	8	0	0
NMSI_	8	0	0	96	96	6
CNSI_	8	192	6	0	96	1
CNSCR	8	288	1	0	144	5
EXTAP	9	192	6
EXTAP	9	240	6
EXTAP	9	288	4
EXTAP	9	336	4
EXHLD	10	0	5	96
NMTAP	10	96	7
NMTAP	10	192	0
NMTAP	10	192	6
NMTAP	10	288	1
NMTAP	10	288	7
NMHLD	11	0	2	96
NMTAP	11	96	0
NMTAP	11	192	1
NMTAP	11	192	7
NMTAP	11	288	0
NMTAP	11	288	6
NMHLD	12	0	5	96
NMTAP	12	96	7
NMTAP	12	192	0
NMTAP	12	192	6
NMSTR	12	288	1
NMSI_	12	288	1	96	96	4
NMTAP	12	288	7
CNSV_	13	96	4	0	144	7
NMTAP	14	0	6
NMTAP	14	0	7
NMTAP	14	96	4
NMTAP	14	96	6
NMTAP	14	192	2
NMTAP	14	240	2
NMTAP	14	288	3
NMTAP	15	0	0
NMTAP	15	0	1
NMTAP	15	96	1
NMTAP	15	96	3
NMTAP	15	192	5
NMTAP	15	240	5
NMTAP	15	288	4
NMTAP	16	0	6
NMTAP	16	0	7
NMTAP	16	96	4
NMTAP	16	96	5
NMTAP	16	192	3
NMTAP	16	240	3
NMTAP	16	336	2
NMTAP	16	336	4
NMTAP	17	48	1
NMSTR	17	96	1
NMSI_	17	96	1	96	96	5
NMHLD	18	0	6	336
EXHLD	18	192	4	144
NMSTR	19	96	5
NMSI_	19	96	5	96	96	3
NMHLD	20	0	1	336
EXHLD	20	192	3	144
NMSTR	21	96	2
NMSI_	21	96	2	96	96	4
NMHLD	22	0	5	336
NMHLD	22	192	4	144
NMSTR	23	96	5
NMSCL	23	96	5	96	96	2
NMTAP	23	96	6
NMTHO	24	0	0	336	C	1	M1
EXTAP	25	144	0
EXTAP	25	144	7
EXTAP	25	192	0
EXTAP	25	192	7
NMTAP	25	288	1
NMTAP	25	288	6
BRTAP	26	0	2
BRTAP	26	0	5
NMTAP	26	96	1
NMTAP	26	144	1
NMTAP	26	192	0
NMTAP	26	288	2
NMTAP	26	288	7
BRTAP	27	0	4
BRTAP	27	0	5
NMTAP	27	96	6
NMTAP	27	144	6
NMTAP	27	192	7
NMTAP	27	288	0
NMTAP	27	288	5
NMTAP	28	0	1
NMTAP	28	0	4
NMTAP	28	96	1
NMTAP	28	96	4
NMTAP	28	192	2
NMHLD	28	240	2	96
NMTAP	28	336	1
NMTAP	29	48	0
NMTAP	29	48	1
NMTAP	29	144	0
NMTAP	29	144	7
NMTAP	29	192	0
NMTAP	29	192	7
NMTAP	29	288	1
NMTAP	29	288	6
BRTAP	30	0	2
BRTAP	30	0	5
NMTAP	30	96	6
NMTAP	30	144	6
NMTAP	30	192	7
NMTAP	30	288	0
NMTAP	30	288	5
NMTAP	31	0	2
NMTAP	31	0	3
NMTAP	31	96	1
NMTAP	31	144	1
NMTAP	31	192	0
NMTAP	31	288	2
NMTAP	31	288	7
NMHLD	32	0	6	96
NMHLD	32	96	4	96
NMHLD	32	192	3	96
NMSTR	32	288	1
NMSCL	32	288	1	96	192	4
BRTAP	34	0	0
BRTAP	34	0	7
NMTAP	34	96	0
NMTAP	34	96	1
NMTAP	34	192	4
NMHLD	34	192	6	96
NMTAP	34	288	5
NMTAP	34	336	5
NMSTR	35	48	7
NMSCL	35	48	7	96	96	3
NMSUL	35	48	7	96	96	2
NMTAP	35	336	1
NMHLD	36	0	1	96
NMHLD	36	96	3	96
NMTAP	36	192	4
NMTAP	36	240	4
NMTAP	36	336	3
NMTAP	36	336	5
NMTAP	37	48	2
NMTAP	37	48	6
NMTAP	37	96	2
NMTAP	37	96	6
NMTAP	37	192	1
NMTAP	37	192	5
NMTAP	37	288	2
NMTAP	37	288	4
NMHLD	38	0	5	96
NMTAP	38	96	4
NMTAP	38	192	2
NMTAP	38	240	2
NMTAP	38	288	3
NMHLD	38	336	1	96
NMTAP	39	48	7
NMTAP	39	96	7
NMTAP	39	192	6
NMTAP	39	240	6
NMTAP	39	288	5
NMSTR	39	288	7
NMSF_	39	288	7	96	96	3
EXTAP	40	192	1
EXTAP	40	192	5
NMTAP	40	288	0
NMTAP	40	288	6
NMTAP	40	336	0
NMTAP	40	336	6
NMTAP	41	48	1
NMTAP	41	48	7
NMTAP	41	96	1
NMTAP	41	96	7
NMTAP	41	192	3
NMTAP	41	192	5
NMTAP	41	288	2
NMTAP	41	288	6
BRTAP	42	0	1
BRTAP	42	0	5
NMTAP	42	96	0
NMTAP	42	96	6
NMHLD	42	192	1	96
NMTAP	42	192	7
NMTAP	42	288	3
NMTAP	42	336	3
NMTAP	43	48	3
NMTAP	43	48	4
NMTAP	43	144	4
NMTAP	43	144	6
NMTAP	43	240	0
NMTAP	43	240	7
NMTAP	43	336	2
NMHLD	44	0	2	96
NMHLD	44	96	0	96
NMTAP	44	192	7
NMSTR	44	240	7
NMSI_	44	240	7	96	96	2
NMSI_	44	240	7	96	96	4
NMTAP	45	192	2
NMTAP	45	192	3
NMTAP	45	240	2
NMTAP	45	240	3
NMTAP	45	336	1
NMTAP	45	336	4
NMTAP	46	48	5
NMTAP	46	96	5
NMTAP	46	144	3
NMTAP	46	192	3
NMSTR	46	240	6
BRSI_	46	240	6	96	48	2
NMTHO	48	0	0	384	C	0	M1
NMTTP	48	0	1	B	0	M1
NMTTP	48	0	2	B	0	M1
NMTTP	48	0	2	E	0	M1
EXTAP	49	0	0
EXSTR	49	96	0
NMSF_	49	96	0	96	96	4
BXHLD	50	0	6	192
NMHLD	50	192	4	144
NMTAP	50	336	5
NMSTR	51	48	5
NMSI_	51	48	5	96	96	0
NMSTR	51	48	6
NMSI_	51	48	6	96	96	3
NMTAP	52	0	1
NMHLD	52	96	1	96
NMHLD	52	192	3	144
NMHLD	52	336	2	144
NMSTR	53	96	1
NMSCL	53	96	1	96	96	6
BRTAP	54	0	4
BRTAP	54	0	5
NMTAP	54	96	3
NMTAP	54	96	6
NMTAP	54	144	3
NMTAP	54	144	6
NMTAP	54	240	0
NMTAP	54	240	1
NMTAP	54	288	0
NMTAP	54	288	1
BRTAP	55	0	2
BRTAP	55	0	3
NMTAP	55	96	1
NMTAP	55	96	4
NMTAP	55	144	1
NMTAP	55	144	4
NMTAP	55	240	6
NMHLD	55	288	6	96
BRTAP	56	0	7
NMTAP	56	96	0
NMTAP	56	96	5
NMTAP	56	144	0
NMTAP	56	144	5
NMTAP	56	240	2
NMTAP	56	240	3
NMTAP	56	288	2
NMTAP	56	288	3
NMTAP	57	0	1
NMTAP	57	48	0
NMTAP	57	96	7
NMHLD	57	144	6	96
NMTAP	57	240	4
NMTAP	57	288	4
BRTAP	58	0	2
BRTAP	58	0	3
NMTAP	58	96	0
NMTAP	58	96	6
NMTAP	58	192	1
NMTAP	58	240	1
NMTAP	58	288	0
NMHLD	58	336	2	96
NMTAP	59	48	3
NMTAP	59	96	3
NMTAP	59	192	0
NMTAP	59	192	1
NMTAP	59	288	6
NMTAP	59	288	7
BRTAP	60	0	4
BRTAP	60	0	5
NMTAP	60	96	1
NMTAP	60	96	7
NMTAP	60	192	6
NMTAP	60	240	6
NMTAP	60	288	7
NMHLD	60	336	5	96
NMTAP	61	48	4
NMSTR	61	96	4
NMSCL	61	96	4	96	96	1
EXHLD	62	0	0	96
NMHLD	62	96	7	96
NMHLD	62	192	6	96
NMHLD	62	288	5	96
NMHLD	63	0	4	96
NMHLD	63	96	3	96
NMHLD	63	192	2	96
NMTAP	63	288	1
NMHLD	64	0	0	96
NMHLD	64	0	1	96
NMHLD	64	144	0	96
NMHLD	64	144	1	96
EXTAP	64	288	2
EXTAP	64	288	7
NMHLD	65	0	6	96
NMHLD	65	0	7	96
NMHLD	65	144	6	96
NMHLD	65	144	7	96
EXTAP	65	288	0
EXTAP	65	288	5
NMHLD	66	0	2	96
NMHLD	66	0	4	96
NMHLD	66	144	2	96
NMHLD	66	144	4	96
EXTAP	66	288	1
EXTAP	66	288	5
NMTAP	67	0	6
NMTAP	67	48	7
NMTAP	67	96	0
NMHLD	67	144	1	240
BXSTR	68	0	0
NMSI_	68	0	0	96	288	5
CNSI_	69	0	5	0	384	2
CNSI_	70	0	2	0	384	7
CNSI_	71	0	7	0	192	4
NMTTP	72	0	3	E	0	M1
NMTTP	72	192	0	C	0	M1
NMTTP	72	192	2	E	0	M1
NMTTP	73	0	1	E	0	M1
NMTTP	74	0	7	E	0	M1
NMTTP	74	192	0	C	0	M1
NMTTP	74	192	6	E	0	M1
NMTTP	75	0	5	E	0	M1
EXSTR	76	0	2
NMSCL	76	0	2	96	96	7
NMTAP	76	192	6
NMSTR	77	0	6
NMSCL	77	0	6	96	96	3
NMTAP	77	192	2
NMSTR	78	0	1
NMSI_	78	0	1	96	96	5
NMTAP	78	192	7
NMSTR	79	0	6
NMSI_	79	0	6	96	96	2
NMTAP	79	192	0
NMTAP	79	288	0
NMTAP	80	0	1
NMTAP	80	0	3
NMTAP	80	96	1
NMTAP	80	96	3
NMTAP	80	192	2
NMTAP	80	192	4
NMTAP	80	288	2
NMTAP	80	288	4
NMTAP	81	0	3
NMTAP	81	48	3
NMTAP	81	96	5
NMTAP	81	144	5
NMTAP	81	192	2
NMHLD	81	240	2	144
NMHLD	81	288	4	96
BRTAP	82	96	0
BRTAP	82	96	7
NMTAP	82	192	3
NMTAP	82	192	5
NMTAP	82	288	4
NMTAP	82	288	6
NMTAP	82	336	4
NMHLD	82	336	6	96
NMSTR	83	48	7
NMSCL	83	48	7	96	96	3
NMSUL	83	48	7	96	96	2
NMTAP	83	336	1
NMHLD	84	0	1	96
NMHLD	84	96	7	96
NMTAP	84	192	5
NMTAP	84	288	3
NMTAP	84	288	4
NMTAP	84	336	3
NMTAP	84	336	4
NMTAP	85	48	2
NMTAP	85	96	2
BXTAP	85	192	0
BXTAP	85	192	1
BXTAP	85	240	0
BXTAP	85	240	1
NMTAP	85	336	3
NMTAP	85	336	6
NMTAP	86	0	3
NMTAP	86	0	6
NMTAP	86	96	1
NMTAP	86	96	4
NMTAP	86	192	6
NMTAP	86	192	7
NMSTR	86	240	6
NMSCL	86	240	6	96	96	3
NMSTR	86	240	7
NMSUL	86	240	7	96	96	2
NMTAP	87	192	1
NMTAP	87	240	0
NMTAP	87	288	7
BXHLD	87	336	6	96
NMTAP	88	48	4
NMTAP	88	96	4
NMTAP	88	192	1
NMTAP	88	192	3
NMTAP	88	288	0
NMTAP	88	288	4
NMSTR	88	336	0
NMSCR	88	336	0	96	144	3
NMSTR	88	336	4
NMSUR	88	336	4	96	144	0
NMTAP	89	288	2
NMTAP	89	288	7
BRTAP	90	0	3
BRTAP	90	0	6
NMTAP	90	96	4
NMTAP	90	96	5
NMTAP	90	192	1
NMTAP	90	192	2
NMTAP	90	288	6
NMTAP	90	288	7
NMHLD	90	336	6	96
NMTAP	90	336	7
NMHLD	91	48	4	96
NMHLD	91	144	2	96
NMTAP	91	240	0
NMTAP	91	336	1
NMTAP	91	336	7
NMTAP	92	0	1
NMTAP	92	0	7
NMTAP	92	96	4
NMTAP	92	96	5
NMTAP	92	192	6
NMTAP	92	192	7
NMSTR	92	240	6
NMSCL	92	240	6	96	144	1
NMSTR	92	240	7
NMSUL	92	240	7	96	144	0
EXTAP	93	192	7
EXTAP	93	240	7
NMHLD	93	336	0	96
EXTAP	93	336	6
NMTAP	94	48	3
NMTAP	94	96	3
NMTAP	94	192	1
NMHLD	94	192	7	96
NMTAP	94	288	4
NMTAP	94	336	4
NMTAP	95	48	5
NMTAP	95	48	6
NMTAP	95	96	5
NMTAP	95	96	6
BRTAP	95	192	0
BRTAP	95	192	7
BRSTR	95	288	0
NMSCR	95	288	0	96	96	3
BRSTR	95	288	7
NMSCL	95	288	7	96	96	4
NMTAP	96	192	3
NMTAP	96	240	2
NMTAP	96	288	1
NMTAP	96	288	5
NMTAP	97	0	3
NMTAP	97	0	4
NMTAP	97	96	0
NMTAP	97	96	1
NMTAP	97	192	4
NMTAP	97	240	5
NMTAP	97	288	2
NMTAP	97	288	6
NMTAP	98	0	7
NMTAP	98	48	7
NMTAP	98	96	1
NMTAP	98	144	1
NMTAP	98	192	3
NMTAP	98	240	3
NMTAP	98	288	2
NMTAP	98	336	2
NMSTR	99	0	5
NMSI_	99	0	5	96	48	0
NMSTR	99	96	1
NMSCR	99	96	1	96	96	6
BRTAP	100	0	7
NMTAP	100	96	0
NMHLD	100	192	1	96
NMTAP	100	288	3
NMTAP	101	0	5
NMTAP	101	48	5
NMTAP	101	96	4
NMTAP	101	144	4
NMTAP	101	192	6
NMTAP	101	240	6
NMTAP	101	288	0
BRHLD	101	336	0	96
NMTAP	102	48	4
NMTAP	102	96	4
NMTAP	102	192	6
NMTAP	102	240	6
NMTAP	102	288	4
NMTAP	102	336	5
NMTAP	103	48	2
NMTAP	103	48	3
NMTAP	103	96	2
NMHLD	103	96	3	96
NMSTR	103	192	1
NMSCL	103	192	1	96	96	6
NMTAP	104	0	5
NMTAP	104	96	4
NMTAP	104	96	6
NMTAP	104	192	1
NMTAP	104	240	1
NMTAP	104	288	0
NMTAP	104	336	0
NMTAP	105	0	2
NMTAP	105	96	1
NMTAP	105	96	3
NMTAP	105	192	6
NMTAP	105	240	6
NMTAP	105	288	7
NMTAP	105	336	7
NMHLD	106	0	5	96
NMHLD	106	96	7	96
NMHLD	106	192	1	96
NMHLD	106	288	7	96
NMHLD	107	0	5	96
NMHLD	107	96	3	96
NMHLD	107	192	1	96
NMTAP	107	288	7
BRTAP	108	0	0
BRTAP	108	0	6
NMTAP	108	96	5
NMTAP	108	144	4
NMTAP	108	144	5
NMTAP	108	240	2
NMTAP	108	288	2
NMTAP	108	288	3
NMTAP	109	0	6
NMTAP	109	48	6
NMTAP	109	48	7
NMTAP	109	144	1
NMTAP	109	192	0
NMTAP	109	192	1
NMTAP	109	288	3
NMTAP	109	288	4
BRTAP	110	0	0
BRTAP	110	0	7
NMTAP	110	96	6
NMTAP	110	96	7
BXTAP	110	144	0
BXTAP	110	144	5
NMTAP	110	240	0
NMTAP	110	240	1
BXTAP	110	288	2
BXTAP	110	288	7
NMTAP	111	0	3
NMTAP	111	0	4
BXTAP	111	48	2
BXTAP	111	48	5
NMTAP	111	144	7
EXTAP	111	192	0
EXTAP	111	192	6
EXTAP	111	240	0
EXTAP	111	240	6
EXTAP	111	288	0
EXTAP	111	288	6
BXSTR	111	336	1
BRSV_	111	336	1	96	144	4
BXTAP	111	336	5

T_REC_TAP	343
T_REC_BRK	30
T_REC_XTP	26
T_REC_BXX	12
T_REC_HLD	67
T_REC_XHO	4
T_REC_BHO	1
T_REC_BXH	3
T_REC_STR	28
T_REC_BST	2
T_REC_XST	2
T_REC_XBS	2
T_REC_TTP	13
T_REC_THO	2
T_REC_SLD	35
T_REC_BSL	2
T_REC_ALL	572
T_NUM_TAP	412
T_NUM_BRK	52
T_NUM_HLD	73
T_NUM_SLD	35
T_NUM_ALL	572
T_JUDGE_TAP	458
T_JUDGE_HLD	229
T_JUDGE_SLD	37
T_JUDGE_ALL	724
TTM_EACHPAIRS	149
TTM_SCR_TAP	206000
TTM_SCR_BRK	135200
TTM_SCR_HLD	73000
TTM_SCR_SLD	52500
TTM_SCR_ALL	466700
TTM_SCR_S	447700
TTM_SCR_SS	461500
TTM_RAT_ACV	10112

