VERSION	0.00.00	1.05.00
FES_MODE	0
BPM_DEF	200.000	200.000	200.000	200.000
MET_DEF	4	4
RESOLUTION	384
CLK_DEF	384
COMPATIBLE_CODE	MA2

BPM	0	0	200.000
MET	0	0	4	4

EXSTR	2	0	1
NMSI_	2	0	1	96	288	4
NMSTR	4	0	6
NMSI_	4	0	6	96	288	3
NMSTR	6	0	1
NMSI_	6	0	1	96	288	5
NMSTR	8	0	7
NMSI_	8	0	7	96	288	3
NMTAP	10	0	4
NMTAP	10	96	4
NMTAP	10	192	5
NMTAP	11	0	6
NMTAP	11	96	6
NMTAP	11	192	7
NMTAP	12	0	0
NMTAP	12	96	0
NMTAP	12	192	1
NMTAP	13	0	2
NMTAP	13	96	2
NMTAP	13	192	2
NMTAP	13	192	3
NMTAP	14	0	3
NMTAP	14	96	3
NMTAP	14	192	2
NMTAP	15	0	1
NMTAP	15	96	1
NMTAP	15	192	0
NMTAP	16	0	7
NMTAP	16	96	7
NMTAP	16	192	6
NMTAP	17	0	5
NMTAP	17	96	5
NMTAP	17	192	4
NMTAP	17	192	5
NMHLD	18	0	5	192
NMTAP	18	192	4
NMTAP	19	0	4
NMTAP	19	0	5
NMTAP	19	192	4
NMTAP	19	192	5
NMHLD	20	0	6	192
NMTAP	20	192	7
NMTAP	21	0	6
NMTAP	21	0	7
NMTAP	21	192	6
NMTAP	21	192	7
NMHLD	22	0	1	192
NMTAP	22	192	0
NMTAP	23	0	0
NMTAP	23	0	1
NMTAP	23	192	0
NMTAP	23	192	1
NMHLD	24	0	2	192
NMTAP	24	192	3
NMTAP	25	0	2
NMTAP	25	0	3
NMTTP	26	0	1	B	0	L1
NMTTP	26	96	2	B	0	L1
NMTTP	26	192	3	B	0	L1
NMTTP	27	0	6	B	0	L1
NMTTP	27	96	5	B	0	L1
NMTTP	27	192	4	B	0	L1
NMTTP	28	0	1	B	0	L1
NMTTP	28	96	2	B	0	L1
NMTTP	28	192	3	B	0	L1
NMTTP	28	288	4	B	0	L1
NMTTP	29	0	0	C	0	L1
NMTTP	30	0	7	B	0	L1
NMTTP	30	96	6	B	0	L1
NMTTP	30	192	4	B	0	L1
NMTTP	30	192	5	B	0	L1
NMTTP	31	0	0	B	0	L1
NMTTP	31	96	1	B	0	L1
NMTTP	31	192	2	B	0	L1
NMTTP	31	192	3	B	0	L1
NMTTP	32	0	6	B	0	L1
NMTTP	32	96	5	B	0	L1
NMTTP	32	192	4	B	0	L1
NMTTP	32	288	3	B	0	L1
NMTTP	33	0	0	C	1	L1
EXTAP	34	0	1
EXTAP	34	96	1
EXTAP	34	192	0
EXTAP	34	288	0
EXTAP	35	0	7
EXTAP	35	96	7
EXTAP	35	192	6
EXTAP	35	192	7
NMTAP	36	0	5
NMTAP	36	96	5
NMTAP	36	192	6
NMTAP	36	288	6
NMTAP	37	0	7
NMTAP	37	96	7
NMTAP	37	192	0
NMTAP	37	192	1
NMTAP	38	0	1
NMTAP	38	96	1
NMTAP	38	192	2
NMTAP	38	288	2
NMTAP	39	0	3
NMTAP	39	96	3
NMTAP	39	192	4
NMTAP	39	192	5
NMTAP	40	0	6
NMTAP	40	96	6
NMTAP	40	192	5
NMTAP	40	288	5
NMTAP	41	0	4
NMTAP	41	96	4
NMTAP	41	192	2
NMTAP	41	192	3
NMTAP	42	0	2
NMTAP	42	96	2
NMTAP	42	192	1
NMTAP	42	288	1
NMTAP	43	0	0
NMTAP	43	96	0
NMTAP	43	192	6
NMTAP	43	192	7
NMTAP	43	288	6
NMTAP	43	288	7
NMTAP	44	0	5
NMTAP	44	96	5
NMTAP	44	192	6
NMTAP	44	288	6
NMTAP	45	0	7
NMTAP	45	96	7
NMTAP	45	192	0
NMTAP	45	192	1
NMTAP	46	0	7
NMTAP	46	96	7
NMTAP	46	192	0
NMTAP	46	192	7
NMSTR	46	288	0
NMSI_	46	288	0	96	288	3
NMSTR	46	288	7
NMSI_	46	288	7	96	288	4
NMTAP	49	0	3
NMTAP	49	0	4
NMHLD	50	0	5	192
NMHLD	50	192	4	192
NMHLD	51	0	3	192
NMTAP	51	192	2
NMHLD	52	0	2	192
NMHLD	52	192	3	192
NMHLD	53	0	4	192
NMTAP	53	192	5
NMHLD	54	0	6	192
NMHLD	54	192	5	192
NMHLD	55	0	4	192
NMTAP	55	192	3
NMHLD	56	0	1	192
NMHLD	56	192	2	192
NMHLD	57	0	3	192
NMTAP	57	192	4
NMTAP	58	0	5
NMTAP	58	96	5
NMTAP	58	192	5
NMTAP	58	288	5
NMTAP	59	0	6
NMTAP	59	96	6
NMTAP	59	192	6
NMTAP	59	288	6
NMTAP	60	0	7
NMTAP	60	96	7
NMTAP	60	192	7
NMTAP	60	288	7
NMTAP	61	0	0
NMTAP	61	0	1
NMTAP	61	192	0
NMTAP	61	192	1
NMTAP	62	0	2
NMTAP	62	96	2
NMTAP	62	192	2
NMTAP	62	288	2
NMTAP	63	0	1
NMTAP	63	96	1
NMTAP	63	192	1
NMTAP	63	288	1
NMTAP	64	0	0
NMTAP	64	96	0
NMTAP	64	192	0
NMTAP	64	288	0
NMTAP	65	0	6
NMTAP	65	0	7
NMTAP	65	192	6
NMTAP	65	192	7
NMTAP	66	0	0
NMTAP	66	0	1
NMTAP	66	192	0
NMTAP	66	192	1
BRTAP	67	0	0
BRTAP	67	0	7
NMSTR	68	0	1
NMSI_	68	0	1	96	288	4
NMTAP	69	192	5
NMSTR	70	0	6
NMSI_	70	0	6	96	288	2
NMTAP	71	192	1
NMSTR	72	0	0
NMSI_	72	0	0	96	288	4
NMTAP	73	192	5
NMSTR	74	0	6
NMSUL	74	0	6	96	288	2
NMTAP	75	192	1
NMHLD	76	0	1	192
NMTAP	76	192	0
NMHLD	77	0	2	192
NMTAP	77	192	3
NMHLD	78	0	5	192
NMTAP	78	192	4
NMHLD	79	0	6	192
NMTAP	79	192	7
NMSTR	80	0	0
NMSI_	80	0	0	96	288	3
NMSTR	80	0	7
NMSI_	80	0	7	96	288	4
NMTAP	82	0	2
BXTAP	82	96	2
NMTAP	82	192	0
NMTAP	82	192	1
NMTAP	82	288	0
NMTAP	82	288	1
NMTAP	83	0	7
NMTAP	83	96	7
NMTAP	83	192	6
NMTAP	83	192	7
NMTAP	84	0	5
NMTAP	84	96	5
NMTAP	84	192	6
NMTAP	84	192	7
NMTAP	84	288	6
NMTAP	84	288	7
NMTAP	85	0	0
NMTAP	85	96	0
NMTAP	85	192	0
NMTAP	85	192	1
NMTAP	86	0	1
NMTAP	86	96	1
NMTAP	86	192	2
NMTAP	86	192	3
NMTAP	86	288	2
NMTAP	86	288	3
NMTAP	87	0	4
NMTAP	87	96	4
NMTAP	87	192	4
NMTAP	87	192	5
NMTAP	88	0	6
NMTAP	88	96	6
NMTAP	88	192	4
NMTAP	88	192	5
NMTAP	88	288	4
NMTAP	88	288	5
NMTAP	89	0	3
NMTAP	89	96	3
NMTAP	89	192	2
NMTAP	89	192	3
NMTAP	90	0	0
NMTAP	90	0	1
NMTAP	90	96	0
NMTAP	90	96	1
NMTAP	90	192	2
NMTAP	90	288	2
NMTAP	91	0	3
NMTAP	91	0	4
NMTAP	91	96	3
NMTAP	91	96	4
NMTAP	91	192	5
NMTAP	91	288	5
NMTAP	92	0	6
NMTAP	92	0	7
NMTAP	92	96	6
NMTAP	92	96	7
NMTAP	92	192	5
NMTAP	92	288	5
NMTAP	93	0	3
NMTAP	93	0	4
NMTAP	93	96	3
NMTAP	93	96	4
NMTAP	93	192	2
NMTAP	93	192	5
NMTAP	94	0	4
NMTAP	94	96	5
NMTAP	94	192	6
NMTAP	94	288	7
NMTAP	95	0	0
NMTAP	95	96	1
NMTAP	95	192	2
NMSTR	95	288	3
NMSXR	95	288	3	96	768	0
NMSTR	95	288	4
NMSXL	95	288	4	96	768	7
NMTAP	99	0	0
NMTAP	99	0	7
NMTAP	99	96	0
NMTAP	99	96	7
NMTAP	99	192	1
NMTAP	99	192	6
NMTAP	100	0	7
NMTAP	100	96	6
NMTAP	100	192	5
NMTAP	100	288	4
NMTAP	101	0	3
NMTAP	101	96	2
NMTAP	101	192	0
NMTAP	101	192	1
NMTAP	102	0	0
NMTAP	102	96	1
NMTAP	102	192	2
NMTAP	102	288	3
NMTAP	103	0	4
NMTAP	103	96	5
NMTAP	103	192	6
NMTAP	103	192	7
NMTAP	104	0	6
NMTAP	104	96	6
NMTAP	104	192	6
NMTAP	104	288	6
NMTAP	104	288	7
NMTAP	105	0	5
NMTAP	105	96	5
NMTAP	105	192	5
NMTAP	105	288	4
NMTAP	105	288	5
NMTAP	106	0	3
NMTAP	106	96	3
NMTAP	106	192	3
NMTAP	106	288	2
NMTAP	106	288	3
NMTAP	107	0	1
NMTAP	107	96	1
NMTAP	107	192	0
NMTAP	107	192	7
NMTAP	108	0	1
NMTAP	108	96	1
NMTAP	108	192	1
NMTAP	108	288	0
NMTAP	108	288	1
NMTAP	109	0	2
NMTAP	109	96	2
NMTAP	109	192	2
NMTAP	109	288	2
NMTAP	109	288	3
NMTAP	110	0	4
NMTAP	110	96	4
NMTAP	110	192	4
NMTAP	110	288	4
NMTAP	110	288	5
NMTAP	111	0	6
NMTAP	111	96	6
EXTAP	111	192	0
EXTAP	111	192	7
EXHLD	111	288	0	288
EXHLD	111	288	7	288

T_REC_TAP	268
T_REC_BRK	2
T_REC_XTP	10
T_REC_BXX	1
T_REC_HLD	20
T_REC_XHO	2
T_REC_BHO	0
T_REC_BXH	0
T_REC_STR	13
T_REC_BST	0
T_REC_XST	1
T_REC_XBS	0
T_REC_TTP	24
T_REC_THO	0
T_REC_SLD	14
T_REC_BSL	0
T_REC_ALL	355
T_NUM_TAP	316
T_NUM_BRK	3
T_NUM_HLD	22
T_NUM_SLD	14
T_NUM_ALL	355
T_JUDGE_TAP	319
T_JUDGE_HLD	92
T_JUDGE_SLD	14
T_JUDGE_ALL	425
TTM_EACHPAIRS	63
TTM_SCR_TAP	158000
TTM_SCR_BRK	7800
TTM_SCR_HLD	22000
TTM_SCR_SLD	21000
TTM_SCR_ALL	208800
TTM_SCR_S	202250
TTM_SCR_SS	208500
TTM_RAT_ACV	10014

