VERSION	0.00.00	1.05.00
FES_MODE	0
BPM_DEF	200.000	200.000	200.000	200.000
MET_DEF	4	4
RESOLUTION	384
CLK_DEF	384
COMPATIBLE_CODE	MA2

BPM	0	0	200.000
MET	0	0	4	4

EXTAP	2	0	0
NMTAP	3	0	0
NMTAP	4	0	7
NMTAP	5	0	7
NMTAP	6	0	0
NMTAP	6	0	7
EXHLD	7	0	0	768
EXHLD	7	0	7	768
NMTAP	10	0	0
NMTAP	10	192	0
NMTAP	11	0	1
NMTAP	12	0	2
NMTAP	12	192	2
NMTAP	13	0	3
NMTAP	13	0	4
NMTAP	14	0	4
NMTAP	14	192	4
NMTAP	15	0	5
NMTAP	16	0	6
NMTAP	16	192	6
NMTAP	17	0	0
NMTAP	17	0	7
NMTAP	18	0	7
NMTAP	18	192	7
NMTAP	19	0	7
NMTAP	20	0	6
NMTAP	20	0	7
NMTAP	21	0	6
NMTAP	21	0	7
NMTAP	22	0	0
NMTAP	22	192	0
NMTAP	23	0	0
NMTAP	24	0	0
NMTAP	24	0	1
EXTAP	25	0	0
EXTAP	25	0	1
NMSTR	26	0	0
NMSI_	26	0	0	96	288	4
NMSTR	28	0	7
NMSI_	28	0	7	96	288	3
NMSTR	30	0	1
NMSI_	30	0	1	96	288	5
NMSTR	32	0	6
NMSI_	32	0	6	96	288	2
BXTAP	34	0	0
NMTAP	34	192	0
NMTAP	35	0	1
NMTAP	35	192	1
NMTAP	36	0	2
NMTAP	36	192	2
NMTAP	37	0	3
NMTAP	37	0	4
NMTAP	38	0	4
NMTAP	38	192	4
NMTAP	39	0	5
NMTAP	39	192	5
NMTAP	40	0	6
NMTAP	40	192	6
EXTAP	41	0	0
EXTAP	41	0	7
NMTAP	42	0	0
NMTAP	42	192	0
NMTAP	43	0	0
NMTAP	43	0	1
NMTAP	44	0	7
NMTAP	44	192	7
NMTAP	45	0	6
NMTAP	45	0	7
NMTAP	46	0	0
NMTAP	46	0	7
NMTAP	46	192	0
NMTAP	46	192	7
EXHLD	47	0	0	768
EXHLD	47	0	7	768
NMTTP	50	0	0	E	0	L1
NMTTP	51	0	7	E	0	L1
NMTTP	52	0	6	E	0	L1
NMTTP	53	0	5	E	0	L1
NMTTP	54	0	4	E	0	L1
NMTTP	55	0	3	E	0	L1
NMTTP	56	0	2	E	0	L1
NMTTP	57	0	0	C	1	L1
EXTAP	58	0	0
NMTAP	58	192	0
NMTAP	59	0	1
NMTAP	59	192	1
NMTAP	60	0	2
NMTAP	60	0	3
NMTAP	60	192	2
NMTAP	60	192	3
NMTAP	61	0	2
NMTAP	61	0	3
NMTAP	62	0	4
NMTAP	62	192	4
NMTAP	63	0	5
NMTAP	63	192	5
NMTAP	64	0	6
NMTAP	64	0	7
NMTAP	64	192	6
NMTAP	64	192	7
NMTAP	65	0	6
NMTAP	65	0	7
NMTAP	66	0	0
NMTAP	66	192	0
BRTAP	67	0	0
BRTAP	67	0	7
NMHLD	68	0	6	384
NMHLD	68	0	7	384
NMHLD	70	0	4	384
NMHLD	70	0	5	384
NMHLD	72	0	2	384
NMHLD	72	0	3	384
NMHLD	74	0	0	384
NMHLD	74	0	1	384
NMTAP	76	0	1
NMTAP	76	192	1
NMTAP	77	0	2
NMTAP	77	192	2
NMTAP	78	0	3
NMTAP	78	192	3
NMTAP	79	0	4
NMTAP	79	192	4
NMTAP	80	0	5
NMTAP	80	192	5
NMTAP	81	0	6
NMTAP	81	0	7
NMTAP	82	0	7
EXTAP	82	96	7
NMTAP	82	192	7
NMTAP	83	0	6
NMTAP	83	192	6
NMTAP	84	0	5
NMTAP	84	96	5
NMTAP	84	192	5
NMTAP	85	0	3
NMTAP	85	0	4
NMTAP	85	192	3
NMTAP	85	192	4
NMTAP	86	0	3
NMTAP	86	96	3
NMTAP	86	192	3
NMTAP	87	0	2
NMTAP	87	192	2
NMTAP	88	0	1
NMTAP	88	96	1
NMTAP	88	192	1
EXTAP	89	0	0
EXTAP	89	0	7
NMTAP	90	0	0
NMTAP	90	96	0
NMTAP	90	192	0
NMTAP	91	0	1
NMTAP	91	192	2
NMTAP	92	0	3
NMTAP	92	96	3
NMTAP	92	192	3
NMTAP	93	0	4
NMTAP	93	192	5
NMTAP	94	0	6
NMTAP	94	96	6
NMTAP	94	192	6
NMTAP	95	0	0
NMTAP	95	0	7
NMTAP	95	192	0
NMTAP	95	192	7
BRTAP	96	0	7
NMTAP	96	96	7
NMTAP	96	192	7
NMTAP	97	0	6
NMTAP	97	96	6
NMTAP	97	192	6
NMTAP	98	0	5
NMTAP	98	96	5
NMTAP	98	192	5
NMTAP	99	0	3
NMTAP	99	0	4
NMTAP	99	192	3
NMTAP	99	192	4
NMTAP	100	0	3
NMTAP	100	96	3
NMTAP	100	192	3
NMTAP	101	0	2
NMTAP	101	96	2
NMTAP	101	192	2
NMTAP	102	0	1
NMTAP	102	96	1
NMTAP	102	192	1
BXTAP	103	0	0
BXTAP	103	0	7
NMTAP	104	0	0
NMTAP	104	96	0
NMTAP	104	192	0
NMTAP	105	0	1
NMTAP	105	96	1
NMTAP	105	192	1
NMTAP	106	0	2
NMTAP	106	96	2
NMTAP	106	192	2
NMTAP	107	0	3
NMTAP	107	96	3
NMTAP	107	192	3
NMTAP	107	192	4
NMTAP	108	0	4
NMTAP	108	96	4
NMTAP	108	192	4
NMTAP	109	0	5
NMTAP	109	96	5
NMTAP	109	192	5
EXTAP	110	0	6
EXTAP	110	96	6
EXTAP	110	192	6
EXTAP	111	0	0
EXTAP	111	0	7
EXTAP	111	96	0
EXTAP	111	96	7
EXHLD	111	192	0	384
EXHLD	111	192	7	384

T_REC_TAP	165
T_REC_BRK	3
T_REC_XTP	16
T_REC_BXX	3
T_REC_HLD	8
T_REC_XHO	6
T_REC_BHO	0
T_REC_BXH	0
T_REC_STR	4
T_REC_BST	0
T_REC_XST	0
T_REC_XBS	0
T_REC_TTP	8
T_REC_THO	0
T_REC_SLD	4
T_REC_BSL	0
T_REC_ALL	217
T_NUM_TAP	193
T_NUM_BRK	6
T_NUM_HLD	14
T_NUM_SLD	4
T_NUM_ALL	217
T_JUDGE_TAP	199
T_JUDGE_HLD	144
T_JUDGE_SLD	4
T_JUDGE_ALL	347
TTM_EACHPAIRS	39
TTM_SCR_TAP	96500
TTM_SCR_BRK	15600
TTM_SCR_HLD	14000
TTM_SCR_SLD	6000
TTM_SCR_ALL	132100
TTM_SCR_S	127600
TTM_SCR_SS	131500
TTM_RAT_ACV	10045

