VERSION	0.00.00	1.05.00
FES_MODE	0
BPM_DEF	128.000	200.000	200.000	116.000
MET_DEF	4	4
RESOLUTION	384
CLK_DEF	384
COMPATIBLE_CODE	MA2

BPM	0	0	128.000
BPM	2	0	124.000
BPM	3	0	120.000
BPM	4	0	116.000
BPM	5	0	200.000
MET	0	0	4	4

NMHLD	1	0	2	192
NMHLD	1	192	3	192
NMHLD	2	0	4	192
NMHLD	2	192	5	192
NMTAP	3	0	4
NMTAP	3	48	3
NMTAP	3	96	2
NMTAP	3	144	4
NMTAP	3	192	2
NMTAP	3	240	3
NMTAP	3	288	4
NMTAP	3	336	2
NMTTP	4	0	4	E	0	M1
NMTTP	4	48	5	E	0	M1
NMTTP	4	96	2	E	0	M1
NMTTP	4	144	3	E	0	M1
NMTTP	4	192	0	C	0	M1
EXTAP	4	240	0
EXTAP	4	240	7
BXSTR	4	288	0
NMSI_	4	288	0	96	48	4
BXTAP	4	288	7
BXTAP	5	0	0
NMHLD	6	0	5	144
NMTAP	6	144	4
NMTAP	6	240	3
NMTAP	6	240	6
NMTAP	6	288	3
NMTAP	6	288	6
NMTAP	7	0	1
NMTAP	7	0	4
NMSTR	7	48	1
NMSI_	7	48	1	96	96	3
NMTAP	7	48	4
CNSCR	7	240	3	0	48	4
CNSI_	7	288	4	0	96	6
NMHLD	8	0	7	96
NMTAP	8	144	6
NMTAP	8	144	7
NMTAP	8	240	4
NMTAP	8	240	5
NMTAP	8	288	4
NMSTR	8	288	5
BRSCR	8	288	5	96	48	0
BRSTR	9	0	3
NMSUL	9	0	3	96	48	7
NMSTR	9	96	4
NMSUR	9	96	4	96	48	0
NMSTR	9	192	2
NMSCL	9	192	2	96	48	7
NMSTR	9	288	5
NMSCR	9	288	5	96	48	0
NMSTR	10	0	3
NMSUL	10	0	3	96	48	6
NMSTR	10	96	4
NMSUR	10	96	4	96	48	1
NMSTR	10	192	2
NMSCL	10	192	2	96	48	7
NMTAP	10	288	5
NMSTR	11	0	5
NMSI_	11	0	5	96	48	1
NMSTR	11	0	6
NMSI_	11	0	6	96	48	3
NMSTR	11	192	0
NMSI_	11	192	0	96	48	4
NMSTR	11	288	6
NMSI_	11	288	6	96	48	2
NMTAP	12	0	1
NMTAP	12	48	1
NMTAP	12	96	7
NMTAP	12	144	7
NMTAP	12	192	0
NMTAP	12	240	2
NMTAP	12	288	4
NMTAP	12	336	4
BRTAP	13	0	3
BRTAP	13	0	5
NMTAP	13	96	5
NMTAP	13	120	4
NMTAP	13	144	5
NMTAP	13	168	4
NMSTR	13	192	5
NMSCR	13	192	5	96	48	0
NMSTR	13	288	3
NMSUL	13	288	3	96	48	7
NMSTR	14	0	4
NMSUR	14	0	4	96	48	0
NMSTR	14	96	2
NMSCL	14	96	2	96	48	7
NMSTR	14	192	5
BRSI_	14	192	5	96	48	0
NMTAP	14	288	3
NMHLD	15	0	1	96
NMHLD	15	96	3	96
NMHLD	15	192	4	96
NMTAP	15	288	6
NMTAP	16	0	3
NMTAP	16	0	6
NMTAP	16	48	5
NMTAP	16	72	4
NMTAP	16	120	2
NMTAP	16	144	3
NMTAP	16	192	0
NMTAP	16	192	1
NMTAP	16	240	0
NMTAP	16	240	1
BRTAP	16	288	2
BRTAP	16	288	7
NMHLD	17	0	4	192
NMTAP	17	0	6
NMTAP	17	96	6
NMTAP	17	192	5
NMTAP	17	240	5
NMSTR	17	288	5
NMSLR	17	288	5	96	96	1
NMTAP	18	0	3
NMSTR	18	96	2
NMSI_	18	96	2	96	96	7
NMTAP	18	192	3
NMHLD	18	288	4	96
NMTAP	19	0	3
NMTAP	19	96	2
NMTAP	19	96	4
NMTAP	19	192	2
NMTAP	19	240	3
NMSTR	19	288	1
NMSCL	19	288	1	96	96	5
NMSTR	20	0	5
NMSCR	20	0	5	96	96	1
NMTAP	20	96	3
NMSTR	20	192	4
NMSI_	20	192	4	96	96	7
NMTAP	20	288	0
NMTAP	21	0	1
NMTAP	21	96	3
NMTAP	21	96	5
NMTAP	21	192	6
NMTAP	21	240	6
NMTAP	21	288	4
NMTHO	22	0	3	192	B	0	M1
NMTHO	22	96	5	96	B	0	M1
NMTTP	22	192	4	B	0	M1
NMHLD	22	288	1	96
NMTAP	22	288	7
BRSTR	23	0	0
NMSI_	23	0	0	96	48	5
NMTAP	23	96	2
NMSTR	23	144	2
NMSI_	23	144	2	96	48	7
NMTAP	23	240	6
NMSTR	23	288	6
NMSI_	23	288	6	96	48	3
NMTAP	24	0	7
NMSTR	24	48	7
NMSCR	24	48	7	96	48	2
NMTAP	24	144	6
EXTAP	24	192	6
BRTAP	24	288	3
BRTAP	24	288	5
NMTAP	25	0	6
NMTAP	25	24	4
NMTAP	25	48	6
NMTAP	25	72	4
NMSTR	25	96	5
NMSI_	25	96	5	96	48	7
NMTAP	25	120	4
NMTAP	25	144	5
NMTAP	25	168	4
BRTAP	25	192	5
NMTAP	25	288	1
NMTAP	25	312	3
NMTAP	25	336	1
NMTAP	25	360	3
NMSTR	26	0	2
NMSI_	26	0	2	96	48	0
NMTAP	26	24	3
NMTAP	26	48	2
NMTAP	26	72	3
BRTAP	26	96	2
NMHLD	26	192	6	72
NMTAP	26	264	7
NMTAP	26	336	0
NMTAP	26	336	5
NMTAP	27	0	1
NMTAP	27	24	4
NMTAP	27	48	1
NMTAP	27	72	4
NMSTR	27	96	2
NMSI_	27	96	2	96	48	4
NMTAP	27	120	4
NMTAP	27	144	2
NMTAP	27	168	4
BRSTR	27	192	2
NMSI_	27	192	2	96	48	7
NMTAP	27	288	5
NMTAP	28	0	0
NMTAP	28	0	6
NMTAP	28	48	0
NMTAP	28	48	6
NMSTR	28	96	0
NMSUL	28	96	0	96	96	3
NMSTR	28	96	6
NMSCL	28	96	6	96	96	3
NMTAP	29	0	2
NMHLD	29	0	4	96
NMTAP	29	96	1
NMTAP	29	128	3
NMTAP	29	160	1
NMHLD	29	192	3	96
NMTAP	29	288	2
NMTAP	30	0	3
NMHLD	30	0	6	96
NMTAP	30	96	4
NMTAP	30	128	5
NMTAP	30	160	4
NMHLD	30	192	5	96
NMSTR	30	288	3
NMSCL	30	288	3	96	192	5
NMHLD	31	0	4	192
NMTAP	31	288	3
NMTAP	31	288	4
NMTAP	32	0	1
NMTAP	32	32	3
NMTAP	32	64	2
NMTAP	32	96	6
NMTAP	32	128	4
NMTAP	32	160	5
NMSTR	32	192	3
NMSCL	32	192	3	96	48	0
NMTTP	32	288	0	E	1	M1
BXTAP	32	288	3
EXSTR	33	0	6
NMSCL	33	0	6	96	48	3
EXSTR	33	0	7
NMSUL	33	0	7	96	48	3
NMTAP	33	96	6
NMTAP	33	96	7
NMTAP	33	192	0
NMTAP	33	192	7
NMTAP	33	240	0
NMTAP	33	240	7
NMTAP	33	336	0
NMSTR	33	336	1
NMSUR	33	336	1	96	144	7
NMTAP	34	48	7
NMSTR	34	96	7
NMSCL	34	96	7	96	144	1
NMTTP	34	192	0	C	1	M1
EXSTR	34	336	0
NMSI_	34	336	0	96	48	5
NMSI_	34	336	0	96	48	6
NMTTP	35	48	0	A	0	M1
NMTTP	35	48	0	D	0	M1
NMTTP	35	48	1	D	0	M1
NMSTR	35	144	3
NMSI_	35	144	3	96	48	0
NMSI_	35	144	3	96	48	1
NMTTP	35	240	3	A	0	M1
NMTTP	35	240	3	D	0	M1
NMTTP	35	240	4	D	0	M1
NMTAP	35	336	6
NMTAP	35	336	7
NMTAP	36	0	6
NMTAP	36	0	7
NMTAP	36	48	0
NMTAP	36	48	5
NMTAP	36	96	1
NMTAP	36	96	4
NMHLD	36	144	2	96
NMSTR	36	144	3
NMSCL	36	144	3	96	96	5
BRTAP	36	240	3
EXTAP	36	336	4
EXSTR	37	0	4
NMSI_	37	0	4	96	48	0
NMTAP	37	96	6
NMSTR	37	144	6
NMSCL	37	144	6	96	48	3
NMTAP	37	240	0
NMTAP	37	288	0
NMTTP	38	0	1	B	0	M1
NMTTP	38	0	2	B	0	M1
NMTTP	38	0	3	B	0	M1
NMTTP	38	0	3	E	1	M1
NMTTP	38	0	4	B	0	M1
NMTAP	38	96	6
NMTAP	38	96	7
NMTAP	38	144	0
NMTAP	38	144	5
NMTAP	38	240	0
NMTAP	38	240	1
NMTAP	38	288	2
NMSTR	38	288	7
NMSF_	38	288	7	96	48	3
BXTAP	39	0	7
NMTAP	39	96	1
NMTAP	39	96	5
NMTAP	39	144	1
NMTAP	39	144	5
NMTAP	39	192	2
NMTAP	39	192	4
NMTAP	39	240	3
NMTAP	39	240	5
NMTAP	39	288	4
NMTAP	39	288	6
NMTAP	39	336	3
NMSTR	39	336	7
NMSCR	39	336	7	96	48	2
NMSTR	40	48	7
BRSCL	40	48	7	96	48	4
BXTAP	40	144	7
NMTAP	40	240	2
NMTAP	40	240	3
NMTAP	40	288	1
NMTAP	40	312	4
NMTAP	40	336	1
NMTAP	40	360	4
BRSTR	41	0	1
NMSI_	41	0	1	96	48	4
NMSTR	41	96	5
NMSI_	41	96	5	96	48	0
NMTAP	41	192	3
NMSTR	41	240	1
NMSCL	41	240	1	96	48	6
NMSTR	41	336	5
NMSCL	41	336	5	96	48	2
NMTAP	42	48	2
NMSTR	42	96	0
NMSCL	42	96	0	96	48	5
NMSUL	42	96	0	96	48	4
BRTAP	42	192	0
NMTAP	42	336	3
NMTAP	42	336	4
NMTAP	43	0	2
NMSTR	43	48	1
NMSI_	43	48	1	96	48	4
NMTAP	43	144	7
NMTAP	43	192	6
NMSTR	43	240	5
NMSI_	43	240	5	96	48	0
NMTAP	43	336	3
NMSTR	44	0	1
NMSCR	44	0	1	96	48	4
NMTAP	44	96	0
NMSTR	44	144	6
NMSF_	44	144	6	96	48	2
NMTTP	44	240	6	A	1	M1
NMTTP	44	240	6	D	0	M1
NMTTP	44	240	7	D	0	M1
BRTAP	45	0	1
BRTAP	45	0	3
NMTAP	45	96	2
NMTAP	45	96	3
NMTAP	45	144	4
NMTAP	45	192	3
NMTAP	45	192	5
EXTAP	45	264	5
EXSTR	45	288	4
NMSI_	45	288	4	96	48	0
NMSTR	46	0	7
NMSCL	46	0	7	96	48	4
NMTAP	46	96	1
NMSTR	46	144	2
NMSCL	46	144	2	96	48	7
NMTAP	46	240	4
NMHLD	46	288	5	96
BRTAP	47	0	0
NMTAP	47	96	6
NMTAP	47	96	7
NMTAP	47	144	0
NMTAP	47	144	7
NMTAP	47	192	0
NMSTR	47	192	1
NMSI_	47	192	1	96	48	5
NMSTR	47	288	5
NMSI_	47	288	5	96	48	1
BRTAP	48	0	7
NMTAP	48	48	7
NMTAP	48	96	7
NMTAP	48	144	1
NMTAP	48	168	0
NMTAP	48	192	2
NMTAP	48	240	3
NMTAP	48	240	7
NMTAP	48	288	4
NMSTR	48	288	6
NMSF_	48	288	6	96	48	2
BRTAP	49	0	6
EXTAP	50	144	2
EXTAP	50	144	4
EXTAP	50	240	1
EXHLD	50	240	3	96
NMTAP	50	336	0
NMSTR	51	0	0
NMSSL	51	0	0	96	288	4
NMHLD	52	0	5	96
NMTAP	52	96	4
NMHLD	52	144	3	96
NMSTR	52	144	6
NMSI_	52	144	6	96	48	1
CNSI_	52	288	1	0	48	3
BXTAP	53	0	0
NMTAP	53	48	1
NMSTR	53	96	2
NMSI_	53	96	2	96	48	6
NMTAP	53	144	3
BRTAP	53	192	2
NMTAP	53	192	4
NMTTP	53	288	0	B	0	M1
NMTTP	53	288	0	E	0	M1
NMTTP	53	288	1	E	0	M1
BXTAP	54	0	7
NMTAP	54	48	6
NMSTR	54	96	5
NMSI_	54	96	5	96	48	1
NMTAP	54	144	4
NMTAP	54	192	3
BRTAP	54	192	5
NMTTP	54	288	0	E	0	M1
NMTTP	54	288	7	B	0	M1
NMTTP	54	288	7	E	0	M1
NMTAP	55	0	6
NMTAP	55	24	4
NMTAP	55	48	6
NMTAP	55	72	4
BRHLD	55	96	5	96
NMTAP	55	192	2
NMTAP	55	216	3
NMTAP	55	240	2
NMTAP	55	264	3
BRHLD	55	288	1	96
NMTAP	56	0	0
NMTAP	56	72	0
NMTAP	56	72	7
NMTAP	56	144	6
NMTAP	56	144	7
BXTAP	56	192	6
BXTAP	56	192	7
EXTAP	56	216	5
EXTAP	56	240	4
EXTAP	56	264	3
EXTAP	56	288	2
EXTAP	56	312	1
EXTAP	56	336	0
EXTAP	56	360	7
BXTAP	57	0	6
NMTAP	57	48	2
NMTAP	57	72	3
NMTAP	57	96	2
BRTAP	57	144	5
NMTAP	57	192	1
NMTAP	57	216	0
NMTAP	57	240	1
NMTAP	57	288	2
NMTAP	57	288	7
NMSTR	58	0	4
NMSCL	58	0	4	96	48	1
NMTAP	58	0	5
NMSTR	58	96	0
NMSI_	58	96	0	96	48	4
NMSCL	58	96	0	96	48	5
EXTAP	58	288	2
EXTAP	58	288	3
EXTAP	58	336	1
EXTAP	58	336	4
BRTAP	59	0	0
BRTAP	59	0	5
NMTAP	59	48	6
NMTAP	59	72	7
NMTAP	59	96	6
BRTAP	59	144	2
NMTAP	59	192	5
NMTAP	59	216	4
NMTAP	59	240	5
NMTAP	59	288	1
NMHLD	59	288	7	96
EXTAP	60	0	1
NMTAP	60	24	2
NMTAP	60	48	3
NMTAP	60	72	4
EXTAP	60	96	7
NMTAP	60	120	6
NMTAP	60	144	5
NMTAP	60	168	4
EXTAP	60	192	0
NMTAP	60	216	1
NMTAP	60	240	2
NMTAP	60	264	3
EXTAP	60	288	0
NMTAP	60	312	7
NMTAP	60	336	6
NMTAP	60	360	5
EXTAP	61	0	1
EXTAP	61	0	4
NMSTR	61	96	2
NMSI_	61	96	2	96	48	7
NMTAP	61	120	3
NMTAP	61	144	2
NMTAP	61	168	3
BRTAP	61	192	2
EXTAP	61	288	0
EXTAP	61	288	6
NMTTP	62	0	7	E	0	M1
NMTTP	62	0	7	D	0	M1
NMTTP	62	48	6	E	0	M1
NMTTP	62	48	6	D	0	M1
NMTTP	62	96	5	E	0	M1
NMTTP	62	96	5	D	0	M1
NMTTP	62	144	4	E	0	M1
NMTTP	62	144	4	D	0	M1
NMTTP	62	192	0	E	0	M1
NMTTP	62	192	0	D	0	M1
NMTTP	62	240	1	E	0	M1
NMTTP	62	240	1	D	0	M1
NMTTP	62	288	2	E	0	M1
NMTTP	62	288	2	D	0	M1
NMTTP	62	336	3	E	0	M1
NMTTP	62	336	3	D	0	M1
NMSTR	63	0	7
NMSLR	63	0	7	96	96	3
NMSTR	63	96	3
NMSLR	63	96	3	96	96	7
NMSTR	63	192	7
NMSCR	63	192	7	96	96	3
NMTAP	63	288	3
NMTTP	64	0	4	E	0	M1
NMTTP	64	24	5	E	0	M1
NMTTP	64	48	6	E	0	M1
NMTTP	64	72	7	E	0	M1
NMTTP	64	96	0	E	0	M1
NMTTP	64	120	1	E	0	M1
NMTTP	64	144	2	E	0	M1
NMTTP	64	168	3	E	0	M1
NMTTP	64	192	4	E	0	M1
EXTAP	64	192	7
BRTAP	64	288	1
BRTAP	64	288	5
BRTAP	65	0	3
EXTAP	65	0	7
NMTAP	65	48	5
NMTAP	65	72	4
NMTAP	65	96	5
BRTAP	65	144	3
BRTAP	65	144	4
NMTAP	65	192	2
NMTAP	65	216	3
NMTAP	65	240	2
NMTAP	65	288	0
NMTAP	65	288	4
NMSTR	66	0	1
NMSI_	66	0	1	96	48	3
NMTAP	66	48	1
NMSTR	66	96	0
NMSI_	66	96	0	96	48	5
NMTAP	66	144	0
NMSTR	66	192	4
NMSI_	66	192	4	96	48	1
NMTAP	66	240	4
EXTAP	66	288	6
BXTAP	67	0	0
BRTAP	67	0	5
NMTAP	67	48	6
NMTAP	67	72	7
NMTAP	67	96	6
BRTAP	67	144	2
BXTAP	67	144	7
NMTAP	67	192	1
NMTAP	67	216	0
NMTAP	67	240	1
NMTAP	67	288	2
NMHLD	67	288	7	96
EXTAP	68	0	0
NMTAP	68	24	1
NMTAP	68	48	2
NMTAP	68	72	3
EXTAP	68	96	6
NMTAP	68	120	5
NMTAP	68	144	4
NMTAP	68	168	3
NMTTP	68	192	1	E	0	M1
NMTTP	68	204	2	E	0	M1
NMTTP	68	216	3	E	0	M1
NMTTP	68	228	4	E	0	M1
NMTTP	68	240	5	E	0	M1
NMTTP	68	252	6	E	0	M1
NMTTP	68	264	7	E	0	M1
NMTTP	68	276	0	E	0	M1
NMTTP	68	288	1	E	0	M1
NMTTP	68	300	2	E	0	M1
NMTTP	68	312	3	E	0	M1
NMTTP	68	324	4	E	0	M1
NMTTP	68	336	5	E	0	M1
NMTTP	68	348	6	E	0	M1
NMTTP	68	360	7	E	0	M1
NMTTP	68	372	0	E	0	M1
NMTTP	69	0	0	C	1	M1
NMTTP	69	0	1	E	0	M1
NMTTP	69	0	3	B	0	M1
NMTTP	69	0	4	B	0	M1
BRSTR	69	192	7
NMSI_	69	192	7	96	48	2
NMTAP	69	240	6
NMTAP	69	288	5
NMTAP	69	336	4
NMSTR	70	0	3
NMSCR	70	0	3	96	48	6
NMTAP	70	48	2
NMTAP	70	96	1
NMTAP	70	144	0
NMSTR	70	192	7
NMSCR	70	192	7	96	48	2
NMTAP	70	240	6
EXTAP	70	288	5
NMTAP	71	0	3
NMTAP	71	48	3
NMTAP	71	96	2
NMTAP	71	96	4
NMTAP	71	144	2
NMTAP	71	144	4
NMTAP	71	192	1
NMTAP	71	216	5
NMTAP	71	240	1
NMTAP	71	264	5
NMSTR	71	288	0
NMSSL	71	288	0	96	288	4
NMTAP	71	312	6
NMTAP	71	336	0
NMTAP	71	360	6
NMTAP	73	0	5
NMTAP	73	96	4
NMHLD	73	96	5	144
NMTTP	73	240	6	E	0	M1
NMTTP	73	288	5	E	0	M1
NMTAP	74	0	2
NMHLD	74	96	2	144
NMTAP	74	96	3
NMTTP	74	240	2	E	0	M1
NMTTP	74	288	3	E	0	M1
NMTAP	75	0	5
NMTAP	75	96	4
NMHLD	75	96	6	144
NMTTP	75	240	6	E	0	M1
NMTTP	75	288	5	E	0	M1
NMTAP	76	0	2
NMHLD	76	96	1	144
NMTAP	76	96	3
NMTTP	76	240	2	E	0	M1
NMTTP	76	288	3	E	0	M1
NMHLD	77	0	4	192
NMTHO	77	192	3	528	E	0	M1
NMTHO	78	0	5	336	E	0	M1
NMTHO	78	192	4	144	E	0	M1
NMTTP	79	0	0	C	0	M1
NMTTP	79	0	1	B	0	M1
NMTTP	79	0	6	B	0	M1
NMTAP	80	0	1
NMHLD	80	0	7	288
EXTAP	80	288	0
EXTAP	80	300	1
EXTAP	80	312	2
EXTAP	80	324	3
EXTAP	80	336	4
EXTAP	80	348	5
EXTAP	80	360	6
EXTAP	80	372	7
BXSTR	81	0	0
BRSF_	81	0	0	96	48	4
NMTAP	81	96	0
NMTAP	81	192	2
NMTAP	81	192	6
NMSTR	81	240	1
NMSI_	81	240	1	96	48	3
NMSTR	81	240	5
NMSI_	81	240	5	96	48	7
NMTAP	81	336	1
NMTAP	81	336	5
NMTAP	82	48	0
NMTAP	82	48	4
NMSTR	82	96	2
NMSCL	82	96	2	96	24	1
NMSTR	82	96	6
NMSCL	82	96	6	96	24	5
BRTAP	82	192	2
BRTAP	82	192	6
CNSI_	82	216	1	0	24	7
CNSI_	82	216	5	0	24	3
EXTAP	82	288	0
NMSTR	82	336	1
NMSCR	82	336	1	96	48	4
NMTAP	83	0	7
NMSTR	83	48	1
NMSI_	83	48	1	96	48	7
NMTAP	83	96	5
NMSTR	83	144	1
NMSI_	83	144	1	96	48	5
NMTAP	83	192	4
NMTAP	83	240	1
NMTAP	83	288	6
NMTAP	83	336	7
NMTAP	84	0	0
NMTAP	84	0	6
NMTAP	84	48	1
NMSTR	84	48	5
NMSI_	84	48	5	96	48	1
NMTAP	84	96	2
NMTAP	84	96	4
EXSTR	84	144	3
NMSF_	84	144	3	96	48	7
BRTAP	84	144	5
BRTAP	84	240	3
EXTAP	84	336	1
EXTAP	84	336	5
EXSTR	85	0	1
NMSCR	85	0	1	96	48	4
EXTAP	85	0	5
NMTAP	85	96	0
NMTAP	85	144	7
NMTAP	85	192	2
NMSTR	85	192	6
NMSCL	85	192	6	96	48	3
NMSTR	85	288	7
NMSI_	85	288	7	96	48	3
NMSTR	86	0	6
BRSCR	86	0	6	96	48	1
NMTAP	86	96	2
NMSTR	86	144	2
BRSCR	86	144	2	96	48	5
NMTAP	86	240	7
NMSTR	86	288	7
NMSUL	86	288	7	96	48	3
NMSV_	86	288	7	96	48	2
NMTTP	87	0	7	A	1	M1
NMTAP	87	144	1
NMSTR	87	192	1
NMSI_	87	192	1	96	48	5
NMTAP	87	288	1
NMSTR	87	288	3
NMSI_	87	288	3	96	48	7
NMTAP	88	0	2
NMTAP	88	0	3
NMSTR	88	96	4
NMSI_	88	96	4	96	48	0
NMSTR	88	96	6
NMSI_	88	96	6	96	48	4
BRTAP	88	192	4
BRTAP	88	192	6
EXTAP	88	288	1
EXTAP	88	288	7
NMTAP	89	0	5
NMTAP	89	48	4
NMTAP	89	96	3
NMTAP	89	96	5
NMTAP	89	144	6
NMTAP	89	192	2
NMTAP	89	240	3
NMTAP	89	288	2
NMTAP	89	288	4
NMTAP	89	336	1
NMSTR	90	0	0
NMSCL	90	0	0	96	96	5
NMSTR	90	96	5
NMSCR	90	96	5	96	96	0
NMTAP	90	192	3
NMTAP	90	288	5
NMTAP	90	336	6
NMTAP	91	0	1
NMSTR	91	0	7
NMSI_	91	0	7	96	48	3
NMSTR	91	96	2
NMSI_	91	96	2	96	48	7
NMTAP	91	96	7
NMTAP	91	192	2
NMSTR	91	192	5
NMSI_	91	192	5	96	48	0
NMTAP	91	288	1
NMTAP	91	288	5
BRTAP	92	0	2
BRTAP	92	0	7
NMTAP	92	96	1
NMTAP	92	120	0
NMTAP	92	144	1
NMTAP	92	168	0
NMTTP	92	192	2	D	0	M1
NMTTP	92	204	2	A	0	M1
NMTTP	92	216	3	D	0	M1
NMTTP	92	228	3	A	0	M1
EXTAP	92	240	5
EXTAP	92	264	4
EXSTR	92	288	5
BRSCR	92	288	5	96	120	2
EXTAP	92	312	4
EXTAP	92	336	5
EXTAP	92	360	4
BRTAP	93	192	3
BRTAP	93	192	5
NMTAP	93	240	6
NMTAP	93	288	3
NMTAP	93	288	5
NMTAP	93	336	7
NMTAP	94	0	2
NMTAP	94	0	4
NMTAP	94	48	0
NMTAP	94	96	2
NMTAP	94	96	4
NMTAP	94	144	1
NMTAP	94	192	2
NMTAP	94	192	3
NMTAP	94	240	4
NMTAP	94	288	3
NMTAP	94	288	5
NMTAP	94	336	6
NMSTR	95	0	0
NMSI_	95	0	0	96	48	2
NMSTR	95	48	7
NMSI_	95	48	7	96	48	3
NMTAP	95	96	0
NMTAP	95	144	7
NMSTR	95	192	0
NMSI_	95	192	0	96	48	4
NMSTR	95	240	7
NMSI_	95	240	7	96	48	5
NMTAP	95	288	0
NMTAP	95	336	7
NMTAP	96	0	0
NMTAP	96	24	1
NMTAP	96	48	2
NMTAP	96	72	3
NMTAP	96	96	7
NMTAP	96	120	6
NMTAP	96	144	5
NMTAP	96	168	4
BXTAP	96	192	1
NMTAP	96	204	2
NMTAP	96	216	3
NMTAP	96	228	4
NMTAP	96	240	5
NMTAP	96	252	6
NMTAP	96	264	7
NMTAP	96	276	0
EXTAP	96	288	1
NMTAP	96	300	2
NMTAP	96	312	3
NMTAP	96	324	4
NMTAP	96	336	5
NMTAP	96	348	6
NMTAP	96	360	7
NMTAP	96	372	0
BXTAP	97	0	1
NMTHO	97	0	3	192	B	0	M1
NMTHO	97	0	4	384	B	0	M1
NMTHO	97	0	4	576	E	0	M1
NMTTP	98	288	1	E	0	M1
NMTTP	98	312	6	E	0	M1
NMTTP	98	336	2	E	0	M1
NMTTP	98	360	5	E	0	M1
NMTTP	99	0	2	B	0	M1
NMTTP	99	0	3	E	0	M1
NMTTP	99	96	6	B	0	M1
NMTTP	99	96	6	E	0	M1
NMTTP	99	192	4	B	0	M1
NMTTP	99	192	4	E	0	M1
NMTAP	99	288	0
NMTAP	99	288	7
NMTAP	99	336	0
NMTAP	99	336	7
EXTAP	100	0	0
EXTAP	100	0	7
NMSTR	100	48	1
NMSI_	100	48	1	96	48	7
NMTAP	100	72	3
NMTAP	100	96	2
BRTAP	100	144	1
BRTAP	100	144	4
BRSTR	100	240	4
BRSV_	100	240	4	96	48	1
BRSTR	100	240	5
BRSI_	100	240	5	96	48	0
BRTAP	100	336	4
BRTAP	100	336	5

T_REC_TAP	391
T_REC_BRK	43
T_REC_XTP	55
T_REC_BXX	14
T_REC_HLD	30
T_REC_XHO	1
T_REC_BHO	2
T_REC_BXH	0
T_REC_STR	96
T_REC_BST	7
T_REC_XST	8
T_REC_XBS	2
T_REC_TTP	99
T_REC_THO	8
T_REC_SLD	109
T_REC_BSL	9
T_REC_ALL	874
T_NUM_TAP	649
T_NUM_BRK	77
T_NUM_HLD	39
T_NUM_SLD	109
T_NUM_ALL	874
T_JUDGE_TAP	715
T_JUDGE_HLD	140
T_JUDGE_SLD	118
T_JUDGE_ALL	973
TTM_EACHPAIRS	124
TTM_SCR_TAP	324500
TTM_SCR_BRK	200200
TTM_SCR_HLD	39000
TTM_SCR_SLD	163500
TTM_SCR_ALL	727200
TTM_SCR_S	697950
TTM_SCR_SS	719500
TTM_RAT_ACV	10107

