VERSION	0.00.00	1.05.00
FES_MODE	0
BPM_DEF	128.000	200.000	200.000	116.000
MET_DEF	4	4
RESOLUTION	384
CLK_DEF	384
COMPATIBLE_CODE	MA2

BPM	0	0	128.000
BPM	2	0	124.000
BPM	3	0	120.000
BPM	4	0	116.000
BPM	5	0	200.000
MET	0	0	4	4

NMHLD	1	0	2	192
NMHLD	1	192	3	192
NMHLD	2	0	4	192
NMHLD	2	192	5	192
NMSTR	3	0	6
NMSUR	3	0	6	96	192	3
NMTHO	4	0	4	288	E	1	M1
EXSTR	5	0	2
NMSXR	5	0	2	96	432	4
NMTAP	6	240	6
NMTAP	6	288	6
NMSTR	7	0	5
NMSXL	7	0	5	96	432	3
NMTAP	8	240	1
NMTAP	8	288	1
NMTAP	9	0	2
NMTAP	9	96	2
NMTAP	9	96	3
NMTAP	9	192	5
NMTAP	9	240	5
NMTAP	9	288	4
NMTAP	10	0	4
NMTAP	10	0	5
NMTAP	10	96	6
NMTAP	10	96	7
NMTAP	10	192	0
NMTAP	10	192	1
NMTAP	10	288	2
NMTAP	10	288	3
NMTAP	11	0	5
NMTAP	11	96	4
NMTAP	11	96	5
NMTAP	11	192	2
NMTAP	11	240	2
NMTAP	11	288	3
NMTAP	12	0	0
NMTAP	12	0	1
NMTAP	12	96	6
NMTAP	12	96	7
NMTAP	12	192	4
NMTAP	12	192	5
NMSTR	12	288	4
NMSI_	12	288	4	96	96	1
NMSTR	12	288	5
NMSI_	12	288	5	96	96	0
NMTAP	13	192	2
NMTAP	13	192	7
NMTAP	13	288	2
NMTAP	13	288	7
NMTAP	14	0	0
NMTAP	14	0	1
NMTAP	14	96	2
NMTAP	14	96	3
NMTAP	14	192	4
NMTAP	14	192	5
NMTAP	14	288	6
NMTAP	14	288	7
NMHLD	15	0	1	96
NMTAP	15	96	0
NMHLD	15	192	6	96
NMTAP	15	288	7
NMTAP	16	0	6
NMTAP	16	0	7
NMTAP	16	96	0
NMTAP	16	96	5
NMTAP	16	192	0
NMTAP	16	192	5
NMTAP	17	0	6
NMHLD	17	96	6	480
NMTAP	17	192	4
NMTTP	18	0	6	E	0	M1
NMTTP	18	96	5	E	0	M1
NMTTP	18	192	4	E	0	M1
NMTAP	19	0	1
NMHLD	19	96	1	480
NMTAP	19	192	3
NMTTP	20	0	2	E	0	M1
NMTTP	20	96	3	E	0	M1
NMTTP	20	192	4	E	0	M1
NMTAP	21	0	5
NMHLD	21	96	5	480
NMTAP	21	192	4
NMTTP	22	0	5	E	0	M1
NMTTP	22	96	4	E	0	M1
NMTTP	22	192	3	E	0	M1
NMTAP	23	0	2
NMTAP	23	96	1
NMTAP	23	96	3
NMTAP	23	144	1
NMTAP	23	144	3
NMTAP	23	240	0
NMTAP	23	240	7
NMTAP	23	288	0
NMTAP	23	288	7
NMTAP	24	0	4
NMTAP	24	0	6
NMTAP	24	48	4
NMTAP	24	48	6
NMTAP	24	144	0
NMTAP	24	144	7
NMHLD	24	192	0	96
NMHLD	24	192	7	96
NMTAP	25	0	6
NMTAP	25	48	6
NMTAP	25	96	7
NMTAP	25	144	7
NMTAP	25	192	5
NMTAP	25	288	1
NMTAP	25	336	1
NMTAP	26	0	0
NMTAP	26	48	0
NMSTR	26	96	2
NMSCR	26	96	2	96	96	5
NMTAP	27	0	6
NMTAP	27	48	6
NMTAP	27	96	4
NMTAP	27	144	4
NMTAP	27	192	5
NMTAP	27	288	2
NMTAP	27	288	3
NMTAP	28	0	1
NMTAP	28	0	4
NMTAP	28	48	1
NMTAP	28	48	4
NMSTR	28	96	1
NMSI_	28	96	1	96	96	4
NMTAP	28	96	4
NMHLD	29	0	5	768
NMTTP	29	192	5	E	0	M1
NMTTP	30	0	3	E	0	M1
NMTTP	30	192	4	E	0	M1
NMTHO	31	0	0	384	C	1	M1
BXTAP	32	288	0
BXTAP	32	288	7
NMTAP	33	0	0
NMTAP	33	0	1
NMTAP	33	96	1
NMTAP	33	96	3
NMTAP	33	192	4
NMTAP	33	192	6
NMTAP	33	240	4
NMTAP	33	240	6
NMTAP	33	336	6
NMTAP	33	336	7
NMTAP	34	48	0
NMTAP	34	48	1
NMTAP	34	96	0
NMTAP	34	96	1
BRTAP	34	192	2
BRTAP	34	192	7
NMTAP	34	336	6
NMTAP	35	0	6
NMTAP	35	48	4
NMTAP	35	144	1
NMTAP	35	192	1
NMTAP	35	240	3
NMTAP	35	336	2
NMTAP	35	336	4
NMTAP	36	0	2
NMSTR	36	0	4
NMSCL	36	0	4	96	192	6
NMHLD	37	0	1	96
NMTAP	37	96	3
NMTAP	37	144	3
NMTAP	37	192	2
NMTAP	37	288	3
NMTAP	37	288	4
NMHLD	38	0	6	96
NMTAP	38	96	4
NMTAP	38	144	4
NMTAP	38	192	5
NMTAP	38	288	3
NMTAP	38	288	4
NMSTR	39	0	1
NMSI_	39	0	1	96	96	5
NMSTR	39	192	7
NMSI_	39	192	7	96	96	3
NMTAP	40	0	2
NMTAP	40	96	1
NMTAP	40	96	4
NMTAP	40	192	1
NMTAP	40	192	4
BRTAP	41	0	6
BRTAP	41	0	7
NMTAP	41	96	4
NMTAP	41	96	6
NMTAP	41	192	1
NMTAP	41	192	3
NMTAP	41	240	1
NMTAP	41	240	3
NMTAP	41	336	0
NMTAP	41	336	1
NMTAP	42	48	6
NMTAP	42	48	7
NMTAP	42	96	6
NMTAP	42	96	7
BRTAP	42	192	0
BRTAP	42	192	5
NMTAP	42	336	2
NMTAP	43	0	2
NMTAP	43	48	1
NMTAP	43	48	3
NMTAP	43	144	5
NMTAP	43	192	5
NMTAP	43	240	4
NMTAP	43	240	6
NMTAP	43	336	5
NMTAP	43	336	7
NMSTR	44	0	5
BRSCR	44	0	5	96	192	2
NMHLD	44	0	7	288
EXTAP	45	0	0
EXTAP	45	0	1
NMTAP	45	96	2
NMTAP	45	144	2
NMTAP	45	192	3
NMTAP	45	240	3
NMTAP	45	288	1
NMTAP	46	0	0
NMTAP	46	0	7
NMTAP	46	96	6
NMTAP	46	144	6
NMTAP	46	192	4
NMTAP	46	240	4
NMTAP	46	288	5
NMTAP	47	0	4
NMTAP	47	0	6
NMTAP	47	96	0
NMTAP	47	96	7
NMTAP	47	192	1
NMTAP	47	192	3
NMSTR	47	288	3
NMSI_	47	288	3	96	96	7
NMSTR	47	288	4
NMSI_	47	288	4	96	96	0
NMTAP	48	192	0
NMTAP	48	192	7
NMTAP	48	288	0
NMTAP	48	288	7
BRHLD	49	0	1	384
BRHLD	49	0	6	384
EXTAP	50	144	6
EXTAP	50	144	7
EXTAP	50	240	0
EXTAP	50	240	7
EXTAP	50	336	0
EXTAP	50	336	1
EXTAP	51	0	0
EXSTR	51	0	1
NMSCR	51	0	1	96	192	5
NMHLD	52	0	6	144
NMHLD	52	144	4	144
NMTAP	52	288	3
NMTAP	53	0	2
NMTAP	53	48	2
NMTAP	53	96	2
NMTAP	53	144	2
NMTAP	53	192	1
NMTAP	53	192	3
NMTAP	53	240	1
NMTAP	53	240	3
NMTAP	54	0	5
NMTAP	54	48	5
NMTAP	54	96	5
NMTAP	54	144	5
NMTAP	54	192	4
NMTAP	54	192	6
NMTAP	54	240	4
NMTAP	54	240	6
NMTAP	55	0	5
NMTAP	55	24	4
NMTAP	55	48	5
NMTAP	55	192	2
NMTAP	55	216	3
NMTAP	55	240	2
NMHLD	56	0	1	72
NMHLD	56	72	2	72
NMTAP	56	144	3
NMTAP	56	192	3
NMTAP	56	288	0
NMTAP	56	288	4
NMTAP	57	0	5
NMTAP	57	48	6
NMTAP	57	96	6
NMTAP	57	96	7
NMTAP	57	192	2
NMTAP	57	240	1
NMTAP	57	288	0
NMTAP	57	288	1
NMTAP	58	0	2
NMTAP	58	24	3
NMTAP	58	48	2
NMTAP	58	72	3
NMTAP	58	96	2
NMTAP	58	192	5
NMTAP	58	216	4
NMTAP	58	240	5
NMTAP	58	264	4
NMTAP	58	288	5
NMTAP	59	0	2
NMTAP	59	48	1
NMTAP	59	96	0
NMTAP	59	96	1
NMTAP	59	192	5
NMTAP	59	240	6
NMTAP	59	288	6
NMTAP	59	288	7
NMTAP	60	0	5
NMTAP	60	24	4
NMTAP	60	48	5
NMTAP	60	72	4
NMTAP	60	96	5
NMTAP	60	192	2
NMTAP	60	216	3
NMTAP	60	240	2
NMTAP	60	264	3
NMTAP	60	288	2
NMTAP	61	0	1
NMTAP	61	96	0
NMTAP	61	120	7
NMTAP	61	144	0
NMTAP	61	168	7
BRTAP	61	192	0
NMTAP	61	288	1
NMTAP	61	288	6
NMTAP	62	0	5
NMTAP	62	24	4
NMTAP	62	48	5
NMTAP	62	72	4
NMTAP	62	96	5
NMTAP	62	192	2
NMTAP	62	216	3
NMTAP	62	240	2
NMTAP	62	264	3
NMTAP	62	288	2
NMTAP	63	0	1
NMTAP	63	48	1
NMTAP	63	96	7
NMTAP	63	144	7
NMTAP	63	192	0
NMTAP	63	240	0
NMTAP	63	288	6
NMTAP	64	0	4
NMTAP	64	0	6
NMTAP	64	96	3
NMTAP	64	96	4
BRHLD	64	192	1	96
BRHLD	64	192	3	96
NMTAP	65	0	0
NMTAP	65	48	0
NMTAP	65	96	3
NMTAP	65	144	2
NMTAP	65	192	6
NMTAP	65	240	6
NMTAP	65	288	4
NMTAP	65	336	4
NMSTR	66	0	5
NMSI_	66	0	5	96	96	0
NMSTR	66	192	1
NMSI_	66	192	1	96	96	4
NMTAP	67	0	7
NMTAP	67	48	7
NMTAP	67	96	4
NMTAP	67	144	5
NMTAP	67	192	1
NMTAP	67	240	1
NMTAP	67	288	3
NMTAP	67	336	3
NMSTR	68	0	2
NMSI_	68	0	2	96	96	0
NMTAP	68	192	7
NMTTP	68	288	3	B	0	M1
NMTTP	68	288	4	B	1	M1
NMTTP	68	288	5	B	0	M1
NMTTP	68	288	6	B	0	M1
NMTAP	69	192	1
NMTAP	69	240	1
NMTAP	69	288	3
NMTAP	69	336	2
NMSTR	70	0	4
NMSI_	70	0	4	96	96	7
NMSTR	70	192	0
NMSI_	70	192	0	96	96	3
NMTAP	71	0	5
NMTAP	71	48	5
NMTAP	71	96	4
NMTAP	71	144	6
NMTAP	71	192	2
NMTAP	71	240	2
NMTAP	71	288	3
NMTAP	71	336	1
BRHLD	72	0	0	192
BRHLD	72	0	7	192
NMHLD	73	0	5	192
NMTAP	73	192	4
NMTAP	73	288	4
NMTTP	74	0	3	B	0	M1
NMTTP	74	0	4	E	0	M1
NMTTP	74	96	1	B	0	M1
NMTTP	74	96	2	E	0	M1
NMTTP	74	192	0	E	0	M1
NMTTP	74	192	7	B	0	M1
NMHLD	75	0	2	192
NMTAP	75	192	3
NMTAP	75	288	3
NMTTP	76	0	4	B	0	M1
NMTTP	76	0	4	E	0	M1
NMTTP	76	96	6	B	0	M1
NMTTP	76	96	6	E	0	M1
NMTTP	76	192	0	B	0	M1
NMTTP	76	192	0	E	0	M1
NMHLD	77	0	5	384
NMTAP	77	192	4
NMTAP	77	288	3
NMHLD	78	0	2	288
NMTAP	78	192	3
NMSTR	78	288	4
NMSUL	78	288	4	96	384	3
BRTAP	80	288	3
BRTAP	80	288	4
EXTAP	81	0	2
EXTAP	81	0	3
NMTAP	81	96	0
NMTAP	81	96	1
NMTAP	81	192	6
NMTAP	81	192	7
NMTAP	81	240	6
NMTAP	81	240	7
NMTAP	81	336	4
NMTAP	81	336	5
NMTAP	82	48	2
NMTAP	82	48	3
NMTAP	82	96	2
NMTAP	82	96	3
BRTAP	82	192	0
BRTAP	82	192	5
NMTAP	82	336	6
NMTAP	83	0	6
NMTAP	83	48	5
NMTAP	83	48	7
NMTAP	83	144	2
NMTAP	83	192	2
NMTAP	83	240	1
NMTAP	83	240	3
NMTAP	83	336	0
NMTAP	83	336	1
NMSTR	84	0	0
NMSCR	84	0	0	96	192	7
NMHLD	84	0	1	288
NMTAP	85	0	2
NMTAP	85	48	2
NMTAP	85	96	3
NMTAP	85	144	3
NMTAP	85	192	1
NMTAP	85	288	0
NMTAP	85	288	7
NMTAP	86	0	6
NMTAP	86	48	6
NMTAP	86	96	7
NMTAP	86	144	7
NMTAP	86	192	5
NMTAP	86	288	4
NMTAP	86	288	6
NMSTR	87	0	5
NMSLR	87	0	5	96	96	1
NMSTR	87	192	2
NMSCL	87	192	2	96	96	6
NMTAP	88	0	4
NMTAP	88	96	4
NMHLD	88	192	1	96
NMHLD	88	192	6	96
NMTTP	89	0	2	B	0	M1
NMTTP	89	0	3	B	0	M1
NMTTP	89	0	4	B	0	M1
NMTTP	89	0	4	E	1	M1
NMTTP	89	0	5	B	0	M1
NMTAP	89	192	1
NMTAP	89	192	7
NMTAP	89	288	1
NMTAP	89	288	7
NMTAP	90	0	0
NMTAP	90	0	6
NMTAP	90	96	0
NMTAP	90	96	6
NMTAP	90	192	1
NMTAP	90	192	7
NMTAP	90	288	1
NMTAP	90	288	7
NMSTR	91	0	0
NMSI_	91	0	0	96	48	4
NMSTR	91	0	1
NMSI_	91	0	1	96	48	4
NMSTR	91	192	6
NMSI_	91	192	6	96	48	3
NMSTR	91	192	7
NMSI_	91	192	7	96	48	3
NMSTR	92	0	0
NMSI_	92	0	0	96	48	4
NMSTR	92	0	1
NMSI_	92	0	1	96	48	4
NMTAP	92	192	6
NMTAP	92	192	7
NMTAP	92	288	6
NMTAP	92	288	7
BRTAP	93	0	0
BRTAP	93	0	5
NMTAP	93	192	0
NMTAP	93	192	7
NMTAP	93	288	0
NMTAP	93	288	7
NMTAP	94	0	1
NMTAP	94	48	1
NMTAP	94	96	3
NMTAP	94	144	3
NMTAP	94	192	2
NMTAP	94	240	2
NMTAP	94	288	3
NMSTR	95	0	2
NMSI_	95	0	2	96	48	7
NMSTR	95	0	3
NMSI_	95	0	3	96	48	7
NMSTR	95	192	4
NMSI_	95	192	4	96	48	0
NMSTR	95	192	5
NMSI_	95	192	5	96	48	0
NMSTR	96	0	2
NMSI_	96	0	2	96	48	7
NMSTR	96	0	3
NMSI_	96	0	3	96	48	7
NMHLD	96	192	4	96
NMHLD	96	192	5	96
NMTTP	97	0	0	B	1	M1
NMTTP	97	0	1	B	0	M1
NMTTP	97	0	2	E	0	M1
NMTTP	97	0	7	B	0	M1
NMTTP	97	0	7	E	0	M1
NMTAP	99	0	2
NMTAP	99	48	2
NMTAP	99	96	3
NMTAP	99	144	1
NMTAP	99	192	7
NMTAP	99	240	7
NMTAP	99	288	0
NMTAP	99	288	6
NMTAP	100	0	5
NMTAP	100	0	7
NMTAP	100	48	5
NMTAP	100	48	7
BRSTR	100	144	0
NMSI_	100	144	0	96	48	3
BRSTR	100	144	4
NMSI_	100	144	4	96	48	7
BRTAP	100	336	2
BRTAP	100	336	6

T_REC_TAP	378
T_REC_BRK	15
T_REC_XTP	11
T_REC_BXX	2
T_REC_HLD	28
T_REC_XHO	0
T_REC_BHO	6
T_REC_BXH	0
T_REC_STR	33
T_REC_BST	2
T_REC_XST	2
T_REC_XBS	0
T_REC_TTP	38
T_REC_THO	2
T_REC_SLD	36
T_REC_BSL	1
T_REC_ALL	554
T_NUM_TAP	462
T_NUM_BRK	26
T_NUM_HLD	30
T_NUM_SLD	36
T_NUM_ALL	554
T_JUDGE_TAP	481
T_JUDGE_HLD	174
T_JUDGE_SLD	37
T_JUDGE_ALL	692
TTM_EACHPAIRS	124
TTM_SCR_TAP	231000
TTM_SCR_BRK	67600
TTM_SCR_HLD	30000
TTM_SCR_SLD	54000
TTM_SCR_ALL	382600
TTM_SCR_S	368600
TTM_SCR_SS	380000
TTM_RAT_ACV	10068

