VERSION	0.00.00	1.05.00
FES_MODE	0
BPM_DEF	128.000	200.000	200.000	116.000
MET_DEF	4	4
RESOLUTION	384
CLK_DEF	384
COMPATIBLE_CODE	MA2

BPM	0	0	128.000
BPM	2	0	124.000
BPM	3	0	120.000
BPM	4	0	116.000
BPM	5	0	200.000
MET	0	0	4	4

NMTAP	5	0	2
NMTAP	5	96	2
NMTAP	5	192	2
NMTAP	6	0	1
NMTAP	6	96	1
NMTAP	6	192	1
NMTAP	7	0	0
NMTAP	7	96	0
NMTAP	7	192	0
NMTAP	8	0	6
NMTAP	8	0	7
NMTAP	9	0	5
NMTAP	9	96	5
NMTAP	9	192	5
NMTAP	10	0	6
NMTAP	10	96	6
NMTAP	10	192	6
NMTAP	11	0	7
NMTAP	11	96	7
NMTAP	11	192	7
NMTAP	12	0	0
NMTAP	12	0	1
NMTAP	13	0	7
NMTAP	13	96	7
NMTAP	13	192	6
NMTAP	14	0	5
NMTAP	14	96	5
NMTAP	14	192	4
NMTAP	15	0	3
NMTAP	15	96	3
NMTAP	15	192	2
NMTAP	16	0	1
NMTAP	16	96	1
NMTAP	16	192	0
NMTAP	16	192	7
NMHLD	17	0	1	192
NMTAP	17	192	0
NMTAP	18	0	1
NMTAP	18	96	1
NMTAP	18	192	0
NMTAP	18	192	1
NMHLD	19	0	2	192
NMTAP	19	192	3
NMTAP	20	0	2
NMTAP	20	96	2
NMTAP	20	192	2
NMTAP	20	192	3
NMHLD	21	0	5	192
NMTAP	21	192	4
NMTAP	22	0	5
NMTAP	22	96	5
NMTAP	22	192	4
NMTAP	22	192	5
NMHLD	23	0	6	192
NMTAP	23	192	7
EXTAP	24	0	6
EXTAP	24	96	6
EXTAP	24	192	6
EXTAP	24	192	7
NMTAP	25	0	6
NMTAP	25	0	7
NMTAP	25	96	6
NMTAP	25	96	7
NMTAP	25	192	6
NMTAP	25	192	7
NMTAP	26	0	4
NMTAP	26	0	5
NMTAP	26	96	4
NMTAP	26	96	5
NMTAP	26	192	4
NMTAP	26	192	5
NMTAP	27	0	2
NMTAP	27	0	3
NMTAP	27	96	2
NMTAP	27	96	3
NMTAP	27	192	2
NMTAP	27	192	3
NMTAP	28	0	0
NMTAP	28	0	1
NMTAP	28	96	0
NMTAP	28	96	1
NMTAP	28	192	0
NMTAP	28	192	1
NMHLD	29	0	2	192
NMHLD	29	192	3	192
NMHLD	30	0	4	192
NMTAP	30	192	5
NMHLD	31	0	5	192
NMHLD	31	192	4	192
NMHLD	32	0	3	192
NMTAP	32	192	2
NMTAP	33	0	2
NMTAP	33	96	2
NMTAP	33	192	1
NMTAP	33	288	1
NMTAP	34	0	0
NMTAP	34	96	0
BRTAP	34	192	6
BRTAP	34	192	7
NMTAP	35	0	5
NMTAP	35	96	5
NMTAP	35	192	6
NMTAP	35	288	6
NMTAP	36	0	7
NMTAP	36	96	7
NMTAP	36	192	0
NMTAP	36	192	1
NMTAP	37	0	1
NMTAP	37	96	1
NMTAP	37	192	2
NMTAP	37	288	2
NMTAP	38	0	3
NMTAP	38	96	3
NMTAP	38	192	4
NMTAP	38	192	5
NMTAP	39	0	6
NMTAP	39	96	6
NMTAP	39	192	5
NMTAP	39	288	5
NMTAP	40	0	4
NMTAP	40	96	4
NMTAP	40	192	2
NMTAP	40	192	3
NMTAP	41	0	2
NMTAP	41	96	2
NMTAP	41	192	1
NMTAP	41	288	1
NMTAP	42	0	0
NMTAP	42	96	0
NMTAP	42	192	6
NMTAP	42	192	7
NMTAP	42	288	6
NMTAP	42	288	7
NMTAP	43	0	5
NMTAP	43	96	5
NMTAP	43	192	6
NMTAP	43	288	6
NMTAP	44	0	7
NMTAP	44	96	7
NMTAP	44	192	0
NMTAP	44	192	1
NMTAP	45	0	1
NMTAP	45	96	1
NMTAP	45	192	2
NMTAP	45	288	2
NMTAP	46	0	3
NMTAP	46	96	3
NMTAP	46	192	4
NMTAP	46	192	5
NMTAP	46	288	4
NMTAP	46	288	5
NMTAP	47	0	6
NMTAP	47	96	6
NMTAP	47	192	5
NMTAP	47	288	5
NMTAP	48	0	4
NMTAP	48	96	4
NMTAP	48	192	2
NMTAP	48	192	3
NMSTR	49	0	2
NMSI_	49	0	2	96	288	5
EXTAP	50	192	6
NMSTR	51	0	6
NMSI_	51	0	6	96	288	3
NMTAP	52	192	2
NMSTR	53	0	1
NMSI_	53	0	1	96	288	5
NMTAP	54	192	6
NMSTR	55	0	7
NMSI_	55	0	7	96	288	3
NMTAP	56	192	3
NMTAP	56	192	4
NMTAP	57	0	5
NMTAP	57	96	5
NMTAP	57	192	5
NMTAP	57	288	5
NMTAP	58	0	6
NMTAP	58	96	6
NMTAP	58	192	6
NMTAP	58	288	6
NMTAP	59	0	7
NMTAP	59	96	7
NMTAP	59	192	7
NMTAP	59	288	7
NMTAP	60	0	0
NMTAP	60	0	1
NMTAP	60	192	0
NMTAP	60	192	1
NMTAP	61	0	2
NMTAP	61	96	2
NMTAP	61	192	2
NMTAP	61	288	2
NMTAP	62	0	1
NMTAP	62	96	1
NMTAP	62	192	1
NMTAP	62	288	1
NMTAP	63	0	0
NMTAP	63	96	0
NMTAP	63	192	0
NMTAP	63	288	0
NMTAP	64	0	6
NMTAP	64	0	7
NMTAP	64	192	6
NMTAP	64	192	7
NMTAP	65	0	6
NMTAP	65	96	6
NMTAP	65	192	6
NMTAP	65	288	6
NMTAP	66	0	5
NMTAP	66	96	5
NMTAP	66	192	5
NMTAP	66	288	5
NMTAP	67	0	4
NMTAP	67	96	4
NMTAP	67	192	4
NMTAP	67	288	4
NMTAP	68	0	2
NMTAP	68	0	3
NMTAP	68	192	2
NMTAP	68	192	3
NMTAP	69	0	1
NMTAP	69	96	1
NMTAP	69	192	1
NMTAP	69	288	1
NMTAP	70	0	2
NMTAP	70	96	2
NMTAP	70	192	2
NMTAP	70	288	2
NMTAP	71	0	3
NMTAP	71	96	3
NMTAP	71	192	3
NMTAP	71	288	3
NMTAP	72	0	4
NMTAP	72	0	5
NMTTP	73	0	6	B	0	L1
NMTTP	73	192	5	B	0	L1
NMTTP	74	0	4	B	0	L1
NMTTP	75	0	1	B	0	L1
NMTTP	75	192	2	B	0	L1
NMTTP	76	0	3	B	0	L1
NMTTP	77	0	5	B	0	L1
NMTTP	77	192	4	B	0	L1
NMTTP	78	0	3	B	0	L1
NMTTP	78	192	2	B	0	L1
NMTHO	79	0	0	384	C	1	L1
EXTAP	81	0	1
EXTAP	81	96	1
EXTAP	81	192	0
EXTAP	81	192	1
EXTAP	81	288	0
EXTAP	81	288	1
EXTAP	82	0	7
EXTAP	82	96	7
BXTAP	82	192	6
BXTAP	82	192	7
NMTAP	83	0	5
NMTAP	83	96	5
NMTAP	83	192	6
NMTAP	83	192	7
NMTAP	83	288	6
NMTAP	83	288	7
NMTAP	84	0	0
NMTAP	84	96	0
NMTAP	84	192	0
NMTAP	84	192	1
NMTAP	85	0	1
NMTAP	85	96	1
NMTAP	85	192	2
NMTAP	85	192	3
NMTAP	85	288	2
NMTAP	85	288	3
NMTAP	86	0	4
NMTAP	86	96	4
NMTAP	86	192	4
NMTAP	86	192	5
NMTAP	87	0	6
NMTAP	87	96	6
NMTAP	87	192	4
NMTAP	87	192	5
NMTAP	87	288	4
NMTAP	87	288	5
NMTAP	88	0	3
NMTAP	88	96	3
NMTAP	88	192	2
NMTAP	88	192	3
NMTAP	89	0	1
NMTAP	89	96	1
NMTAP	89	192	1
NMTAP	89	288	0
NMTAP	89	288	1
NMTAP	90	0	2
NMTAP	90	96	2
NMTAP	90	192	2
NMTAP	90	288	2
NMTAP	90	288	3
NMTAP	91	0	4
NMTAP	91	96	4
NMTAP	91	192	4
NMTAP	91	288	4
NMTAP	91	288	5
NMTAP	92	0	6
NMTAP	92	96	6
NMTAP	92	192	6
NMTAP	92	192	7
NMTAP	93	0	6
NMTAP	93	96	6
NMTAP	93	192	6
NMTAP	93	288	6
NMTAP	93	288	7
NMTAP	94	0	5
NMTAP	94	96	5
NMTAP	94	192	5
NMTAP	94	288	4
NMTAP	94	288	5
NMTAP	95	0	3
NMTAP	95	96	3
NMTAP	95	192	3
NMTAP	95	288	2
NMTAP	95	288	3
NMTAP	96	0	1
NMTAP	96	96	1
NMTAP	96	192	0
NMTAP	96	192	1
NMSTR	97	0	0
NMSXL	97	0	0	96	672	3
NMSTR	97	0	7
NMSXR	97	0	7	96	672	4
NMHLD	100	0	3	336
NMHLD	100	0	4	336

T_REC_TAP	277
T_REC_BRK	2
T_REC_XTP	13
T_REC_BXX	2
T_REC_HLD	12
T_REC_XHO	0
T_REC_BHO	0
T_REC_BXH	0
T_REC_STR	6
T_REC_BST	0
T_REC_XST	0
T_REC_XBS	0
T_REC_TTP	10
T_REC_THO	1
T_REC_SLD	6
T_REC_BSL	0
T_REC_ALL	329
T_NUM_TAP	306
T_NUM_BRK	4
T_NUM_HLD	13
T_NUM_SLD	6
T_NUM_ALL	329
T_JUDGE_TAP	310
T_JUDGE_HLD	62
T_JUDGE_SLD	6
T_JUDGE_ALL	378
TTM_EACHPAIRS	59
TTM_SCR_TAP	153000
TTM_SCR_BRK	10400
TTM_SCR_HLD	13000
TTM_SCR_SLD	9000
TTM_SCR_ALL	185400
TTM_SCR_S	179450
TTM_SCR_SS	185000
TTM_RAT_ACV	10021

