VERSION	0.00.00	1.05.00
FES_MODE	0
BPM_DEF	128.000	200.000	200.000	116.000
MET_DEF	4	4
RESOLUTION	384
CLK_DEF	384
COMPATIBLE_CODE	MA2

BPM	0	0	128.000
BPM	2	0	124.000
BPM	3	0	120.000
BPM	4	0	116.000
BPM	5	0	200.000
MET	0	0	4	4

NMTAP	5	0	0
NMTAP	6	0	0
NMTAP	7	0	7
NMTAP	8	0	7
BXTAP	9	0	0
NMTAP	9	192	0
NMTAP	10	0	1
NMTAP	11	0	2
NMTAP	11	192	2
NMTAP	12	0	3
NMTAP	12	0	4
NMTAP	13	0	4
NMTAP	13	192	4
NMTAP	14	0	5
NMTAP	15	0	6
NMTAP	15	192	6
NMTAP	16	0	0
NMTAP	16	0	7
NMTAP	17	0	6
NMTAP	17	192	6
NMTAP	18	0	6
NMTAP	18	0	7
NMTAP	19	0	5
NMTAP	19	192	5
NMTAP	20	0	3
NMTAP	20	0	4
NMTAP	21	0	2
NMTAP	21	192	2
NMTAP	22	0	2
NMTAP	22	0	3
NMTAP	23	0	1
NMTAP	23	192	1
NMTAP	24	0	0
NMTAP	24	0	7
NMSTR	25	0	0
NMSI_	25	0	0	96	288	4
NMSTR	27	0	7
NMSI_	27	0	7	96	288	3
NMSTR	29	0	1
NMSI_	29	0	1	96	288	5
NMSTR	31	0	6
NMSI_	31	0	6	96	288	2
BRTAP	33	0	0
NMTAP	33	96	0
NMTAP	33	192	0
NMTAP	34	0	1
NMTAP	34	192	1
NMTAP	35	0	2
NMTAP	35	96	2
NMTAP	35	192	2
NMTAP	36	0	3
NMTAP	36	0	4
NMTAP	36	192	3
NMTAP	36	192	4
NMTAP	37	0	4
NMTAP	37	96	4
NMTAP	37	192	4
NMTAP	38	0	5
NMTAP	38	192	5
NMTAP	39	0	6
NMTAP	39	96	6
NMTAP	39	192	6
NMTAP	40	0	0
NMTAP	40	0	7
NMTAP	41	0	7
NMTAP	41	96	7
NMTAP	41	192	7
NMTAP	42	0	6
NMTAP	42	192	6
NMTAP	43	0	5
NMTAP	43	96	5
NMTAP	43	192	5
NMTAP	44	0	3
NMTAP	44	0	4
NMTAP	44	192	3
NMTAP	44	192	4
NMTAP	45	0	3
NMTAP	45	96	3
NMTAP	45	192	3
NMTAP	46	0	2
NMTAP	46	192	2
NMTAP	47	0	1
NMTAP	47	96	1
NMTAP	47	192	1
NMTAP	48	0	0
NMTAP	48	0	7
NMTAP	48	192	0
NMTAP	48	192	7
BRTAP	49	0	0
BRTAP	49	0	7
NMTTP	51	0	0	B	0	L1
NMTTP	51	0	7	B	0	L1
NMTTP	52	0	1	B	0	L1
NMTTP	52	0	6	B	0	L1
NMTTP	53	0	2	B	0	L1
NMTTP	53	0	5	B	0	L1
NMTTP	54	0	3	B	0	L1
NMTTP	54	0	4	B	0	L1
NMTHO	55	0	0	384	C	1	L1
NMTAP	57	0	0
NMTAP	57	96	0
NMTAP	57	192	0
NMTAP	58	0	0
NMTAP	58	0	1
NMTAP	58	192	0
NMTAP	58	192	1
NMTAP	59	0	2
NMTAP	59	96	2
NMTAP	59	192	2
NMTAP	60	0	3
NMTAP	60	0	4
NMTAP	60	192	3
NMTAP	60	192	4
NMTAP	61	0	4
NMTAP	61	96	4
NMTAP	61	192	4
NMTAP	62	0	4
NMTAP	62	0	5
NMTAP	62	192	4
NMTAP	62	192	5
NMTAP	63	0	6
NMTAP	63	96	6
NMTAP	63	192	6
NMTAP	64	0	0
NMTAP	64	0	7
NMTAP	65	0	7
NMTAP	65	96	7
NMTAP	65	192	7
NMTAP	66	0	6
NMTAP	66	0	7
NMTAP	66	192	6
NMTAP	66	192	7
NMTAP	67	0	5
NMTAP	67	96	5
NMTAP	67	192	5
NMTAP	68	0	3
NMTAP	68	0	4
NMTAP	68	192	3
NMTAP	68	192	4
NMTAP	69	0	3
NMTAP	69	96	3
NMTAP	69	192	3
NMTAP	70	0	2
NMTAP	70	0	3
NMTAP	70	192	2
NMTAP	70	192	3
NMTAP	71	0	1
NMTAP	71	96	1
NMTAP	71	192	1
BRTAP	72	0	0
BRTAP	72	0	7
NMHLD	73	0	0	384
NMHLD	73	0	1	384
NMHLD	75	0	2	384
NMHLD	75	0	3	384
NMHLD	77	0	4	384
NMHLD	77	0	5	384
NMHLD	79	0	6	384
NMHLD	79	0	7	384
BXTAP	81	0	7
NMTAP	81	96	7
NMTAP	81	192	7
NMTAP	82	0	6
NMTAP	82	96	6
NMTAP	82	192	6
NMTAP	83	0	5
NMTAP	83	96	5
NMTAP	83	192	5
NMTAP	84	0	3
NMTAP	84	0	4
NMTAP	84	192	3
NMTAP	84	192	4
NMTAP	85	0	3
NMTAP	85	96	3
NMTAP	85	192	3
NMTAP	86	0	2
NMTAP	86	96	2
NMTAP	86	192	2
NMTAP	87	0	1
NMTAP	87	96	1
NMTAP	87	192	1
NMTAP	88	0	0
NMTAP	88	0	7
NMTAP	88	192	0
NMTAP	88	192	7
NMTAP	89	0	0
NMTAP	89	96	0
NMTAP	89	192	0
NMTAP	90	0	1
NMTAP	90	96	1
NMTAP	90	192	1
NMTAP	91	0	2
NMTAP	91	96	2
NMTAP	91	192	2
NMTAP	92	0	3
NMTAP	92	96	3
NMTAP	92	192	3
NMTAP	93	0	4
NMTAP	93	96	4
NMTAP	93	192	4
NMTAP	94	0	5
NMTAP	94	96	5
NMTAP	94	192	5
NMTAP	95	0	6
NMTAP	95	96	6
NMTAP	95	192	6
NMTAP	96	0	7
NMTAP	96	96	7
NMTAP	96	192	7
NMSTR	97	0	0
NMSI_	97	0	0	96	288	3
NMTHO	99	0	0	720	C	1	L1

T_REC_TAP	177
T_REC_BRK	5
T_REC_XTP	0
T_REC_BXX	2
T_REC_HLD	8
T_REC_XHO	0
T_REC_BHO	0
T_REC_BXH	0
T_REC_STR	5
T_REC_BST	0
T_REC_XST	0
T_REC_XBS	0
T_REC_TTP	8
T_REC_THO	2
T_REC_SLD	5
T_REC_BSL	0
T_REC_ALL	212
T_NUM_TAP	190
T_NUM_BRK	7
T_NUM_HLD	10
T_NUM_SLD	5
T_NUM_ALL	212
T_JUDGE_TAP	197
T_JUDGE_HLD	87
T_JUDGE_SLD	5
T_JUDGE_ALL	289
TTM_EACHPAIRS	36
TTM_SCR_TAP	95000
TTM_SCR_BRK	18200
TTM_SCR_HLD	10000
TTM_SCR_SLD	7500
TTM_SCR_ALL	130700
TTM_SCR_S	126100
TTM_SCR_SS	130000
TTM_RAT_ACV	10053

