VERSION	0.00.00	1.05.00
FES_MODE	0
BPM_DEF	188.000	188.000	188.000	188.000
MET_DEF	4	4
RESOLUTION	384
CLK_DEF	384
COMPATIBLE_CODE	MA2

BPM	0	0	188.000
MET	0	0	4	4

NMHLD	2	0	2	768
NMTAP	2	288	3
NMTAP	3	0	3
NMTAP	3	288	4
NMHLD	4	0	5	1728
NMSTR	4	288	3
NMSCR	4	288	3	96	96	4
CNSI_	5	96	4	0	144	7
NMTTP	6	0	0	E	0	M1
NMTTP	6	288	5	E	0	M1
NMTTP	7	0	4	E	0	M1
NMTAP	7	288	4
NMHLD	8	0	4	192
NMTAP	8	288	3
NMTAP	8	288	4
NMHLD	9	0	2	192
NMTAP	9	0	3
NMTAP	9	192	4
NMTAP	9	240	5
NMTAP	9	288	3
NMTAP	9	288	5
NMHLD	10	0	6	96
NMTAP	10	96	4
NMHLD	10	144	4	96
NMTAP	10	240	5
NMTAP	10	288	4
NMTAP	10	288	5
NMHLD	11	0	1	96
NMTAP	11	96	3
NMHLD	11	144	3	96
NMTAP	11	240	2
NMTAP	11	288	2
NMTAP	11	288	3
NMHLD	12	0	6	96
NMTAP	12	96	4
NMHLD	12	144	4	96
NMTAP	12	240	5
NMTAP	12	288	4
NMTAP	12	288	5
NMTAP	13	0	3
NMTAP	13	0	4
NMHLD	13	96	2	96
NMSTR	13	96	3
NMSI_	13	96	3	96	96	0
NMHLD	14	0	1	96
NMTAP	14	96	0
NMHLD	14	144	0	96
NMTAP	14	240	1
NMTAP	14	288	0
NMTAP	14	288	2
NMHLD	15	0	6	96
NMTAP	15	96	7
NMHLD	15	144	7	96
NMTAP	15	240	6
NMSTR	15	288	5
NMSI_	15	288	5	96	96	1
NMTAP	15	288	7
NMHLD	16	0	1	384
CNSCR	16	96	1	0	96	4
CNSI_	16	192	4	0	96	0
NMTAP	17	0	0
NMTAP	17	96	0
NMTAP	17	96	7
NMSTR	17	192	6
NMSI_	17	192	6	96	48	2
NMSTR	17	192	7
NMSI_	17	192	7	96	48	3
NMTAP	17	288	6
NMTAP	17	288	7
BRTAP	18	0	1
BRTAP	18	0	4
NMTAP	18	144	5
NMTAP	18	192	4
NMTAP	18	240	3
NMTAP	18	288	2
NMSTR	18	336	2
NMSCL	18	336	2	96	96	7
NMTAP	19	48	3
NMTAP	19	144	4
CNSCR	19	144	7	0	96	2
NMTAP	19	240	3
NMHLD	19	288	3	96
NMTAP	20	0	2
NMTAP	20	48	2
NMTAP	20	96	4
NMTAP	20	144	4
NMTAP	20	192	1
NMTAP	20	240	3
NMTAP	20	288	0
NMHLD	20	336	0	96
NMTAP	21	48	2
NMTAP	21	96	3
NMHLD	21	144	1	96
NMHLD	21	144	4	96
NMTAP	21	288	1
NMTAP	21	288	4
NMTTP	22	0	2	E	0	M1
NMTTP	22	48	3	E	0	M1
NMTTP	22	96	4	E	0	M1
NMTTP	22	144	5	E	0	M1
NMTTP	22	192	1	A	0	M1
NMTTP	22	240	2	A	0	M1
NMTTP	22	288	3	A	0	M1
NMTTP	22	336	4	A	0	M1
NMTTP	23	0	3	E	0	M1
NMTTP	23	48	4	E	0	M1
NMTTP	23	96	5	E	0	M1
NMTTP	23	144	6	E	0	M1
NMTTP	23	192	0	C	0	M1
NMTAP	23	288	0
NMHLD	23	288	7	192
NMTTP	24	0	2	B	0	M1
NMTTP	24	0	3	B	0	M1
NMTTP	24	96	4	B	0	M1
NMTTP	24	96	5	B	0	M1
NMTAP	24	192	6
NMTAP	24	192	7
NMTAP	24	240	6
NMTAP	24	240	7
NMTAP	24	288	6
NMTAP	24	288	7
NMTAP	24	336	6
NMTAP	24	336	7
NMTAP	25	48	0
NMTAP	25	48	1
NMTAP	25	144	3
NMTAP	25	144	4
NMTAP	25	192	3
NMTAP	25	192	4
NMSTR	25	288	1
NMSI_	25	288	1	96	48	4
NMSTR	25	288	5
NMSI_	25	288	5	96	48	0
BXTAP	26	0	1
BXTAP	26	0	5
NMTAP	26	96	3
NMTAP	26	96	7
NMTAP	26	144	2
NMSTR	26	144	6
NMSI_	26	144	6	96	48	3
NMTAP	26	240	0
NMSTR	26	336	1
NMSI_	26	336	1	96	48	3
NMSTR	26	336	4
NMSI_	26	336	4	96	48	0
NMTAP	27	144	1
NMTAP	27	192	1
NMTAP	27	240	7
NMTAP	27	288	6
NMTAP	27	336	4
NMTAP	28	0	3
NMSTR	28	0	5
NMSLR	28	0	5	96	96	1
NMSTR	28	96	1
NMSLL	28	96	1	96	96	5
NMTAP	28	192	4
NMSTR	28	288	2
NMSI_	28	288	2	96	48	7
NMSTR	29	0	6
NMSI_	29	0	6	96	48	2
NMSTR	29	96	0
NMSI_	29	96	0	96	48	3
NMSI_	29	96	0	96	48	5
EXTAP	29	288	2
EXTAP	29	288	6
NMTAP	30	0	5
NMTAP	30	48	4
NMTAP	30	96	3
NMSTR	30	144	2
NMSCL	30	144	2	96	96	7
NMSTR	30	240	7
NMSUR	30	240	7	96	96	3
NMTAP	30	336	5
NMTAP	31	48	6
NMSTR	31	96	6
NMSCR	31	96	6	96	48	0
NMSTR	31	192	4
NMSCL	31	192	4	96	48	2
NMTAP	31	288	5
EXTAP	32	0	1
EXTAP	32	0	4
NMSTR	32	96	0
BRSI_	32	96	0	96	48	4
NMTAP	32	96	3
EXTAP	32	192	0
NMTAP	32	192	7
NMTAP	32	288	6
NMTAP	33	0	4
NMTAP	33	0	5
NMTAP	33	48	4
NMTAP	33	48	5
NMSTR	33	96	4
NMSI_	33	96	4	96	48	1
NMSTR	33	96	5
NMSI_	33	96	5	96	48	0
EXTAP	33	192	4
EXTAP	33	192	5
NMTAP	33	288	2
NMTAP	33	288	7
NMTAP	34	0	3
NMSTR	34	0	5
BRSI_	34	0	5	96	48	3
NMTAP	34	96	1
NMSTR	34	144	1
NMSCL	34	144	1	96	96	5
NMSTR	34	240	5
NMSCL	34	240	5	96	96	1
NMTAP	34	336	0
NMTAP	35	0	0
NMTAP	35	96	6
NMHLD	35	192	0	48
NMHLD	35	192	5	48
NMHLD	35	288	2	48
NMHLD	35	288	7	48
NMTAP	36	0	0
NMSTR	36	0	6
NMSI_	36	0	6	96	48	3
NMTAP	36	96	3
NMTAP	36	144	2
NMSTR	36	192	1
NMSI_	36	192	1	96	48	5
NMTAP	36	288	5
NMTAP	36	336	6
NMSTR	37	0	7
NMSI_	37	0	7	96	48	2
NMSI_	37	0	7	96	48	3
NMTAP	37	96	7
BRTAP	37	192	1
BRTAP	37	192	4
NMTAP	37	288	2
NMTAP	37	336	3
NMTAP	38	0	4
NMTAP	38	48	2
NMTAP	38	96	7
NMSTR	38	144	4
NMSI_	38	144	4	96	48	0
NMTAP	38	240	6
NMSTR	38	288	6
NMSCR	38	288	6	96	96	2
EXTAP	39	0	1
CNSCL	39	96	2	0	96	6
EXTAP	39	96	3
NMTAP	39	192	4
NMTAP	39	240	4
NMTAP	39	288	7
NMTAP	39	336	6
BRTAP	40	0	2
BRTAP	40	0	5
NMTAP	40	96	1
NMTAP	40	96	4
NMSTR	40	144	1
NMSCR	40	144	1	96	48	4
NMTAP	40	144	4
NMTAP	40	240	5
NMSTR	40	288	5
NMSI_	40	288	5	96	48	0
NMTAP	41	0	4
CNSI_	41	48	0	0	48	4
NMSTR	41	96	2
BRSF_	41	96	2	96	48	6
NMTAP	42	0	3
NMSTR	42	0	7
NMSI_	42	0	7	96	48	3
NMTAP	42	96	1
NMTAP	42	192	0
NMSTR	42	192	4
NMSI_	42	192	4	96	48	6
NMTAP	42	240	1
NMTAP	42	288	2
NMSTR	43	0	3
NMSI_	43	0	3	96	48	7
NMTAP	43	0	7
NMTAP	43	96	5
NMSTR	43	192	0
NMSI_	43	192	0	96	48	2
NMTAP	43	192	4
NMTAP	43	240	5
NMTAP	43	288	6
NMHLD	44	0	6	96
NMTAP	44	96	4
NMTAP	44	144	4
NMTAP	44	192	3
NMTAP	44	192	5
NMSTR	44	288	6
NMSLR	44	288	6	96	96	2
NMSTR	45	0	2
NMSLL	45	0	2	96	96	6
NMTAP	45	96	3
NMTAP	45	144	3
NMTAP	45	240	4
EXTAP	45	288	4
EXSTR	45	288	5
NMSCR	45	288	5	96	96	1
NMTAP	46	0	3
NMSTR	46	96	2
NMSCL	46	96	2	96	96	6
NMTAP	46	192	4
NMSTR	46	288	5
NMSCR	46	288	5	96	96	1
NMTAP	47	0	3
NMTAP	47	96	2
NMTAP	47	144	2
NMTAP	47	240	4
NMTAP	47	240	6
NMTAP	47	288	4
NMSTR	47	288	6
BRSCL	47	288	6	96	48	3
EXTAP	48	0	6
EXTAP	48	0	7
NMSTR	48	96	1
BRSI_	48	96	1	96	48	5
EXTAP	48	192	0
EXTAP	48	192	1
NMTAP	48	288	7
NMTAP	48	336	7
NMTAP	49	48	1
NMTAP	49	48	5
NMSTR	49	96	1
NMSCR	49	96	1	96	48	3
NMSTR	49	96	5
NMSI_	49	96	5	96	48	0
BRTAP	49	192	1
BRTAP	49	192	5
EXTAP	50	0	1
NMTAP	50	48	1
NMTAP	50	96	3
NMTAP	50	144	4
NMTAP	50	192	2
NMTAP	50	240	2
NMTAP	50	288	4
NMTAP	50	336	5
NMTAP	51	0	3
NMTAP	51	48	3
NMTAP	51	96	5
NMTAP	51	144	6
NMTAP	51	192	4
NMTAP	51	240	4
NMTAP	51	288	6
NMTAP	51	336	7
NMTHO	52	0	0	96	C	0	M1
NMTTP	52	96	7	E	0	M1
NMTTP	52	144	6	E	0	M1
NMTTP	52	192	5	E	0	M1
NMTTP	52	288	1	E	0	M1
NMTTP	52	336	2	E	0	M1
NMTTP	53	0	0	C	0	M1
NMTTP	53	0	3	E	0	M1
NMTAP	53	96	7
NMHLD	53	144	7	96
NMTAP	53	240	4
NMTAP	53	288	4
NMHLD	53	336	5	96
NMTAP	54	48	4
NMTAP	54	96	4
NMTAP	54	144	6
NMTAP	54	192	1
NMTAP	54	240	1
NMTAP	54	288	3
NMTAP	54	336	2
NMTAP	55	0	4
NMTAP	55	48	5
NMTAP	55	96	0
NMTAP	55	144	0
NMTAP	55	192	1
NMTAP	55	192	7
NMHLD	55	240	1	96
NMTAP	55	240	7
NMTAP	55	336	3
NMHLD	56	0	3	96
NMTAP	56	96	2
NMTAP	56	144	2
NMTAP	56	192	1
NMTAP	56	192	3
NMTAP	56	240	0
NMTAP	56	288	4
NMTAP	56	336	5
NMTAP	57	0	3
NMTAP	57	0	6
NMTAP	57	48	7
NMTAP	57	96	0
NMSTR	57	144	1
NMSI_	57	144	1	96	48	5
NMTAP	57	240	0
NMTAP	57	288	0
BRTAP	58	0	7
NMTAP	58	48	7
NMTAP	58	96	0
NMTAP	58	144	1
NMHLD	58	192	2	48
NMHLD	58	192	3	48
NMHLD	58	288	1	48
NMHLD	58	288	4	48
NMTAP	59	0	2
NMTAP	59	48	3
NMTAP	59	96	4
NMTAP	59	144	5
NMTAP	59	192	6
NMSTR	59	240	6
NMSI_	59	240	6	96	48	0
NMTAP	59	336	4
NMHLD	60	0	4	96
NMTAP	60	96	7
NMTAP	60	144	6
NMHLD	60	192	5	96
NMTAP	60	288	7
NMTAP	60	336	0
NMTAP	61	0	1
NMTAP	61	0	3
NMTAP	61	48	4
NMTAP	61	96	5
NMHLD	61	144	4	96
NMTAP	61	144	6
NMTTP	61	240	7	E	0	M1
NMTTP	61	288	3	E	0	M1
NMTTP	61	336	4	B	0	M1
NMTTP	61	336	5	B	0	M1
NMTTP	61	336	5	E	0	M1
NMTAP	62	48	2
NMTAP	62	96	7
NMTAP	62	144	6
NMSTR	62	192	5
NMSI_	62	192	5	96	48	7
NMTAP	62	240	5
NMTAP	62	288	0
NMTAP	62	336	1
NMSTR	63	0	2
NMSI_	63	0	2	96	48	4
NMTAP	63	48	2
NMTAP	63	96	7
NMTAP	63	144	6
NMTAP	63	192	5
NMHLD	63	240	4	48
NMHLD	63	240	6	48
NMTAP	63	336	2
NMHLD	64	0	1	48
NMHLD	64	0	3	48
NMSTR	64	96	0
NMSI_	64	96	0	96	48	4
NMTAP	64	144	0
NMTAP	64	192	6
NMTAP	64	240	6
NMSTR	64	288	7
NMSI_	64	288	7	96	48	3
NMTAP	64	336	7
NMTAP	65	0	0
NMTAP	65	48	0
NMTAP	65	96	1
NMSTR	65	144	2
NMSCR	65	144	2	96	48	5
NMTAP	65	240	7
NMTAP	65	288	7
NMTAP	66	0	4
NMTAP	66	0	6
NMTAP	66	96	5
NMHLD	66	144	5	96
NMTAP	66	240	4
NMTAP	66	288	3
NMTAP	66	288	5
NMTAP	67	0	1
NMTAP	67	0	3
NMTAP	67	96	2
NMHLD	67	144	2	96
NMTAP	67	240	3
NMTAP	67	288	2
NMTAP	67	288	4
NMTAP	68	0	4
NMTAP	68	0	6
NMTAP	68	96	5
NMHLD	68	144	5	96
NMTAP	68	240	4
NMTAP	68	288	3
NMTAP	68	288	5
NMTAP	69	0	2
NMTAP	69	48	2
NMTAP	69	96	3
NMHLD	69	144	1	96
NMTAP	69	240	0
NMTAP	69	288	0
NMSTR	70	0	1
NMSLR	70	0	1	96	192	5
NMTAP	70	0	7
NMTAP	70	96	6
NMTAP	70	144	6
NMTAP	70	240	7
NMTAP	70	288	7
NMTAP	71	0	0
NMSTR	71	0	6
NMSLL	71	0	6	96	192	2
NMTAP	71	96	1
NMTAP	71	144	1
NMTAP	71	240	0
NMTAP	71	288	0
NMTAP	72	0	0
NMHLD	72	0	1	96
NMTAP	72	96	3
NMHLD	72	144	3	96
NMTAP	72	240	4
NMHLD	72	288	4	96
NMTAP	73	0	5
NMTAP	73	48	4
NMTAP	73	96	3
NMTAP	73	144	2
NMHLD	73	144	4	96
NMTAP	73	240	0
NMTAP	73	288	0
EXHLD	74	0	6	96
NMTAP	74	96	4
NMSTR	74	144	4
NMSCL	74	144	4	96	96	2
NMTAP	74	240	5
NMTAP	74	288	5
NMHLD	75	0	4	96
NMTAP	75	96	2
NMSTR	75	144	2
NMSCL	75	144	2	96	96	0
NMTAP	75	240	3
NMTAP	75	288	3
EXTAP	76	0	2
NMTAP	76	96	1
NMTAP	76	96	3
NMTAP	76	144	1
NMHLD	76	144	3	96
NMTAP	76	240	2
NMHLD	76	288	1	96
NMTAP	77	0	2
NMTAP	77	48	3
NMTAP	77	96	0
NMHLD	77	144	1	96
NMTAP	77	240	3
NMTAP	77	288	2
NMSTR	77	288	4
NMSCR	77	288	4	96	144	7
NMTAP	78	0	1
NMTAP	78	96	0
NMTAP	78	144	0
NMTAP	78	240	0
NMTAP	78	240	1
NMTAP	78	288	0
NMSTR	78	288	1
NMSCR	78	288	1	96	144	4
NMTAP	79	0	7
NMTAP	79	96	6
NMTAP	79	144	6
NMTAP	79	240	5
NMTAP	79	288	5
NMTAP	80	0	4
NMTAP	80	0	5
NMTAP	80	96	3
NMTAP	80	96	4
NMTAP	80	144	3
NMTAP	80	144	4
NMTAP	80	240	2
NMHLD	80	288	2	288
NMTAP	81	0	3
NMTAP	81	96	3
NMSTR	81	192	3
NMSF_	81	192	3	96	48	7
BRTAP	82	0	1
BRTAP	82	0	5
NMTAP	82	96	2
NMTAP	82	96	4
NMTAP	82	144	3
NMSTR	82	144	5
NMSI_	82	144	5	96	48	0
NMTAP	82	240	0
NMSTR	82	336	2
NMSI_	82	336	2	96	48	4
NMSI_	82	336	2	96	48	7
EXTAP	83	144	6
NMTAP	83	192	0
NMTAP	83	240	0
NMTAP	83	288	4
NMTAP	83	336	1
NMSTR	84	0	2
NMSI_	84	0	2	96	48	6
NMSTR	84	0	3
NMSI_	84	0	3	96	48	7
NMTAP	84	96	2
NMTAP	84	96	3
NMSTR	84	192	4
NMSI_	84	192	4	96	48	0
NMSTR	84	192	5
NMSI_	84	192	5	96	48	1
NMTAP	84	288	4
NMTAP	84	288	5
NMSTR	85	0	2
NMSI_	85	0	2	96	48	6
NMSTR	85	0	3
NMSI_	85	0	3	96	48	7
NMTAP	85	96	2
NMTAP	85	96	3
BRTAP	85	192	0
BRTAP	85	192	5
NMTAP	85	288	1
NMTAP	85	288	4
NMTAP	85	336	3
EXTAP	86	0	2
EXTAP	86	0	4
NMTAP	86	48	3
NMTAP	86	96	4
NMSTR	86	144	5
NMSCR	86	144	5	96	96	0
NMSTR	86	240	0
NMSUL	86	240	0	96	96	4
NMTAP	86	336	2
NMTAP	87	48	1
NMSTR	87	96	1
NMSCL	87	96	1	96	48	7
NMSTR	87	192	3
NMSCR	87	192	3	96	48	5
NMTAP	87	288	2
EXTAP	88	0	3
EXTAP	88	0	6
NMTAP	88	96	4
NMSTR	88	96	7
BRSI_	88	96	7	96	48	3
NMTAP	88	192	3
EXTAP	88	192	7
NMTAP	88	288	2
NMTAP	88	288	4
NMTAP	89	0	0
NMTAP	89	0	5
NMTAP	89	48	1
NMTAP	89	48	4
NMSTR	89	96	2
NMSI_	89	96	2	96	48	7
NMSTR	89	96	3
NMSI_	89	96	3	96	48	6
NMTAP	89	192	2
NMTAP	89	192	3
BXTAP	89	288	0
BXTAP	89	288	5
NMSTR	90	0	2
BRSI_	90	0	2	96	48	4
NMTAP	90	0	4
NMTAP	90	96	6
NMSTR	90	144	6
NMSCR	90	144	6	96	96	2
NMSTR	90	240	2
NMSCR	90	240	2	96	96	6
NMTAP	90	336	7
NMTAP	91	0	7
NMTAP	91	96	1
NMHLD	91	192	2	48
NMHLD	91	192	7	48
NMHLD	91	288	0	48
NMHLD	91	288	5	48
NMSTR	92	0	1
NMSI_	92	0	1	96	48	4
NMTAP	92	0	7
NMTAP	92	96	4
NMTAP	92	144	5
NMSTR	92	192	6
NMSI_	92	192	6	96	48	2
NMTAP	92	288	2
NMTAP	92	336	1
NMSTR	93	0	0
NMSI_	93	0	0	96	48	4
NMSI_	93	0	0	96	48	5
NMTAP	93	96	0
BRTAP	93	192	3
BRTAP	93	192	6
NMTAP	93	288	5
NMTAP	93	336	4
NMTAP	94	0	3
NMTAP	94	48	5
NMTAP	94	96	0
NMSTR	94	144	3
NMSI_	94	144	3	96	48	7
NMTAP	94	240	1
NMSTR	94	288	1
NMSCL	94	288	1	96	96	5
EXTAP	95	0	6
EXTAP	95	96	4
CNSCR	95	96	5	0	96	1
NMTAP	95	192	3
NMTAP	95	240	4
NMTAP	95	288	1
NMTAP	95	336	2
NMTAP	96	0	3
NMTAP	96	0	6
NMTAP	96	96	0
NMTAP	96	96	1
NMTAP	96	144	0
NMSTR	96	144	1
NMSCR	96	144	1	96	48	4
NMTAP	96	240	5
NMSTR	96	288	5
NMSI_	96	288	5	96	48	0
NMTAP	97	0	4
CNSI_	97	48	0	0	48	4
NMSTR	97	96	2
BRSF_	97	96	2	96	48	6
NMSTR	98	0	0
NMSI_	98	0	0	96	48	4
NMTAP	98	0	4
NMTAP	98	96	6
NMSTR	98	192	3
NMSI_	98	192	3	96	48	1
NMTAP	98	192	7
NMTAP	98	240	6
NMTAP	98	288	5
NMTAP	99	0	0
NMSTR	99	0	4
NMSI_	99	0	4	96	48	0
NMTAP	99	96	2
NMTAP	99	192	3
NMSTR	99	192	7
NMSI_	99	192	7	96	48	5
NMTAP	99	240	2
NMTAP	99	288	1
NMHLD	100	0	0	96
NMTAP	100	96	3
NMTAP	100	144	3
NMTAP	100	192	2
NMTAP	100	192	4
NMSTR	100	288	1
NMSLL	100	288	1	96	96	5
NMSTR	101	0	5
NMSLR	101	0	5	96	96	1
NMTAP	101	96	4
NMTAP	101	144	4
NMTAP	101	240	3
EXSTR	101	288	2
NMSCL	101	288	2	96	96	6
EXTAP	101	288	3
NMSTR	102	0	6
NMSCR	102	0	6	96	96	2
NMTAP	102	96	2
NMTAP	102	192	4
NMTAP	102	288	6
NMSTR	102	336	6
BRSI_	102	336	6	96	48	2
NMSTR	103	48	3
BRSF_	103	48	3	96	48	7
NMTAP	103	48	6
BXTAP	103	144	3
NMTAP	103	240	1
NMTAP	103	240	5
NMSTR	103	288	1
BRSCR	103	288	1	96	48	4
NMTAP	103	288	5
EXTAP	104	0	0
EXTAP	104	0	1
NMSTR	104	96	6
BRSI_	104	96	6	96	48	2
EXTAP	104	192	6
EXTAP	104	192	7
NMTAP	104	288	0
NMTAP	104	336	0
NMTAP	105	48	2
NMTAP	105	48	5
NMSTR	105	96	1
NMSCR	105	96	1	96	48	3
NMSTR	105	96	6
NMSI_	105	96	6	96	48	0
BRTAP	105	192	1
BRTAP	105	192	6

T_REC_TAP	400
T_REC_BRK	17
T_REC_XTP	29
T_REC_BXX	5
T_REC_HLD	59
T_REC_XHO	1
T_REC_BHO	0
T_REC_BXH	0
T_REC_STR	99
T_REC_BST	0
T_REC_XST	2
T_REC_XBS	0
T_REC_TTP	32
T_REC_THO	1
T_REC_SLD	93
T_REC_BSL	12
T_REC_ALL	750
T_NUM_TAP	562
T_NUM_BRK	34
T_NUM_HLD	61
T_NUM_SLD	93
T_NUM_ALL	750
T_JUDGE_TAP	584
T_JUDGE_HLD	170
T_JUDGE_SLD	105
T_JUDGE_ALL	859
TTM_EACHPAIRS	131
TTM_SCR_TAP	281000
TTM_SCR_BRK	88400
TTM_SCR_HLD	61000
TTM_SCR_SLD	139500
TTM_SCR_ALL	569900
TTM_SCR_S	549550
TTM_SCR_SS	566500
TTM_RAT_ACV	10060

